Звонок 2 скачать через торрент в хорошем качестве


Скачать фильм Звонок 2 через торрент в хорошем качестве бесплатно HDTVRip 1080p

GeneralUnique ID                                : 198382488547952457277689816173721420035 (0x953F13D7EF594FB3A2341A6EB5D00103)Format                                   : MatroskaFormat version                           : Version 1File size                                : 7.94 GiBDuration                                 : 1h 49mnOverall bit rate mode                    : VariableOverall bit rate                         : 10.4 MbpsEncoded date                             : UTC 2006-06-19 19:53:37Writing application                      : mkvmerge v1.7.0 ('What Do You Take Me For') built on Jun 15 2006 16:18:01Writing library                          : libebml v0.7.7 + libmatroska v0.8.0

VideoID                                       : 1Format                                   : MPEG VideoFormat version                           : Version 2Format profile                           : [email protected] settings, BVOP                    : YesFormat settings, Matrix                  : CustomCodec ID                                 : V_MPEG2Codec ID/Info                            : MPEG 1 or 2 VideoDuration                                 : 1h 49mnBit rate mode                            : VariableBit rate                                 : 9 425 KbpsMaximum bit rate                         : 18.0 MbpsWidth                                    : 1 920 pixelsHeight                                   : 1 080 pixelsDisplay aspect ratio                     : 16:9Frame rate                               : 29.970 fpsStandard                                 : ComponentColor space                              : YUVChroma subsampling                       : 4:2:0Bit depth                                : 8 bitsScan type                                : InterlacedScan order                               : Top Field FirstCompression mode                         : LossyBits/(Pixel*Frame)                       : 0.152Stream size                              : 7.20 GiB (91%)Title                                    : звонок 2Language                                 : RussianDefault                                  : YesForced                                   : NoColor primaries                          : BT.709Transfer characteristics                 : BT.709Matrix coefficients                      : BT.709

Audio #1ID                                       : 2Format                                   : AC-3Format/Info                              : Audio Coding 3Mode extension                           : CM (complete main)Codec ID                                 : A_AC3Duration                                 : 1h 49mnBit rate mode                            : ConstantBit rate                                 : 384 KbpsChannel(s)                               : 6 channelsChannel positions                        : Front: L C R, Side: L R, LFESampling rate                            : 48.0 KHzBit depth                                : 16 bitsCompression mode                         : LossyStream size                              : 300 MiB (4%)Title                                    : звонок 2Language                                 : RussianDefault                                  : YesForced                                   : No

Audio #2ID                                       : 3Format                                   : AC-3Format/Info                              : Audio Coding 3Mode extension                           : CM (complete main)Codec ID                                 : A_AC3Duration                                 : 1h 49mnBit rate mode                            : ConstantBit rate                                 : 384 KbpsChannel(s)                               : 6 channelsChannel positions                        : Front: L C R, Side: L R, LFESampling rate                            : 48.0 KHzBit depth                                : 16 bitsCompression mode                         : LossyStream size                              : 300 MiB (4%)Title                                    : the ring 2Language                                 : EnglishDefault                                  : NoForced                                   : No

piratbit.ru

Скачать фильм Звонок 2 (1999) через торрент

29 июня 2016 13:47 Звонок 2 / Ringu 2 (1999) BDRemux | A .torrent   [Информация о файле (нажмите для просмотра)] Перевод: Авторский - Сербин Авторский - Кузнецов Авторский - ГавриловКодек: MPEG-4Качество: BDRemuxВидео: MPEG-4 AVC Video 25486 kbps 1080p / 23,976 fps / 16:9 / High Profile 4.1Звук: Аудио: DTS-HD Master Audio Russian 5.1 / 48 kHz / 2142 kbps / 16-bit (DTS Core: 5.1 / 48 kHz / 1509 kbps / 16-bit)* | Сербин Аудио: DTS-HD Master Audio Russian 5.1 / 48 kHz / 2140 kbps / 16-bit (DTS Core: 5.1 / 48 kHz / 1509 kbps / 16-bit)* | Кузнецов Аудио: Dolby Digital Audio Russian 5.1 / 48 kHz / 384 kbps | Гаврилов Аудио: DTS-HD Master Audio Japanese 5.1 / 48 kHz / 2320 kbps / 24-bit (DTS Core: 5.1 / 48 kHz / 1509 kbps / 24-bit) 21,55 Gb 3 3 29 июня 2016 13:47 Звонок 2 / Ringu 2 (1999) BDRip-AVC от NNM-CLUB | A .torrent   [Информация о файле (нажмите для просмотра)] Перевод: Авторский (одноголосый, закадровый) х3Видео: AVC, 1024x552 (1.855), 23.976 fps, 3 100 Kbps (0.229 bit/pixel)Аудио #1: AC-3, 48.0 KHz, 6 ch, 384 Kbps, CBR (Russian) - авторский А.ГавриловАудио #2: AC-3, 48.0 KHz, 6 ch, 448 Kbps, CBR (Russian) - авторский Ю.СербинАудио #3: AC-3, 48.0 KHz, 6 ch, 448 Kbps, CBR (Russian) - авторский С.КузнецовВидео: Идентификатор : 1 Формат : AVC Формат/Информация : Advanced Video Codec Профиль формата : [email protected] Параметр CABAC формата : Да Параметр ReFrames формата : 9 кадров Идентификатор кодека : V_MPEG4/ISO/AVC Продолжительность : 1 ч. 35 м. Битрейт : 3100 Кбит/сек Ширина : 1024 пикселя Высота : 552 пикселя Соотношение сторон : 1,85:1 Режим частоты кадров : Постоянный Частота кадров : 23,976 кадра/сек Цветовое пространство : YUV Субдискретизация насыщенности : 4:2:0 Битовая глубина : 8 бит Тип развёртки : Прогрессивная Бит/(Пиксели*Кадры) : 0.229 Размер потока : 2,01 Гбайт (69%) Библиотека кодирования : x264 core 148 r2597M e86f3a1 Настройки программы : cabac=1 / ref=9 / deblock=1:-2:-2 / analyse=0x3:0x133 / me=umh / subme=9 / psy=1 / psy_rd=1.00:0.00 / mixed_ref=1 / me_range=32 / chroma_me=1 / trellis=1 / 8x8dct=1 / cqm=0 / deadzone=21,11 / fast_pskip=0 / chroma_qp_offset=-2 / threads=12 / lookahead_threads=2 / sliced_threads=0 / nr=0 / decimate=0 / interlaced=0 / bluray_compat=0 / constrained_intra=0 / bframes=8 / b_pyramid=2 / b_adapt=2 / b_bias=0 / direct=3 / weightb=1 / open_gop=0 / weightp=2 / keyint=240 / keyint_min=23 / scenecut=40 / intra_refresh=0 / rc=2pass / mbtree=0 / bitrate=3100 / ratetol=1.0 / qcomp=0.60 / qpmin=0 / qpmax=69 / qpstep=4 / cplxblur=20.0 / qblur=0.5 / ip_ratio=1.40 / pb_ratio=1.30 / aq=1:1.00 Default : Да Forced : НетАудио #1: Идентификатор : 2 Формат : AC-3 Формат/Информация : Audio Coding 3 Расширение режима : CM (complete main) Параметр Endianness формата : Big Идентификатор кодека : A_AC3 Продолжительность : 1 ч. 35 м. Вид битрейта : Постоянный Битрейт : 384 Кбит/сек Каналы : 6 каналов Расположение каналов : Front: L C R, Side: L R, LFE Частота : 48,0 КГц Битовая глубина : 16 бит Метод сжатия : С потерями Размер потока : 262 Мбайт (9%) Заголовок : авторский А.Гаврилов Язык : Russian Default : Да Forced : НетАудио #2: Идентификатор : 3 Формат : AC-3 Формат/Информация : Audio Coding 3 Расширение режима : CM (complete main) Параметр Endianness формата : Big Идентификатор кодека : A_AC3 Продолжительность : 1 ч. 35 м. Вид битрейта : Постоянный Битрейт : 448 Кбит/сек Каналы : 6 каналов Расположение каналов : Front: L C R, Side: L R, LFE Частота : 48,0 КГц Битовая глубина : 16 бит Метод сжатия : С потерями Размер потока : 305 Мбайт (10%) Заголовок : авторский Ю.Сербин Язык : Russian Default : Нет Forced : НетАудио #3: Идентификатор : 4 Формат : AC-3 Формат/Информация : Audio Coding 3 Расширение режима : CM (complete main) Параметр Endianness формата : Big Идентификатор кодека : A_AC3 Продолжительность : 1 ч. 35 м. Вид битрейта : Постоянный Битрейт : 448 Кбит/сек Каналы : 6 каналов Расположение каналов : Front: L C R, Side: L R, LFE Частота : 48,0 КГц Битовая глубина : 16 бит Метод сжатия : С потерями Задержка видео : 27 мс. Размер потока : 305 Мбайт (10%) Заголовок : авторский С.Кузнецов Язык : Russian Default : Нет Forced : Нет 2,92 Gb 9 3 29 июня 2016 13:47 Звонок 2 / Ringu 2 (1999) BDRip 720p | A .torrent   [Информация о файле (нажмите для просмотра)] Перевод: авторский (одноголосый закадровый)Субтитры: русские, английскиеКодек: MPEG-4 AVC/H.264Качество: BDRip [720p]Видео: 1280 x 690 (1,85:1), 4 529 kbps, 23.976 fps, 0.214 b/pxЗвук: Аудио # 1: АС3, 6 ch, 448 kbps, 48 000 Hz [Одноголосый закадровый (Ю.Сербин)]Аудио # 2: АС3, 6 ch, 384 kbps, 48 000 Hz [Одноголосый закадровый (А.Гаврилов)]Аудио # 3: АС3, 6 ch, 448 kbps, 48 000 Hz [Одноголосый закадровый (С.Кузнецов)]Аудио # 4: АС3, 6 ch, 448 kbps, 48 000 Hz [Оригинальный (Japanese)]Видео: Идентификатор : 1 Формат : AVC Формат/Информация : Advanced Video Codec Профиль формата : [email protected] Параметр CABAC формата : Да Параметр ReFrames формата : 9 кадров Идентификатор кодека : V_MPEG4/ISO/AVC Продолжительность : 1 ч. 35 м. Битрейт : 4529 Кбит/сек Ширина : 1280 пикселей Высота : 690 пикселей Соотношение сторон : 1,85:1 Режим частоты кадров : Постоянный Частота кадров : 23,976 кадра/сек Цветовое пространство : YUV Субдискретизация насыщенности : 4:2:0 Битовая глубина : 8 бит Тип развёртки : Прогрессивная Бит/(Пиксели*Кадры) : 0.214 Размер потока : 3,01 Гбайт (71%) Заголовок : [1999] Звонок 2 / Ringu 2 [BDRip] [720p] Библиотека кодирования : x264 core 133 r2334 a3ac64b Настройки программы : cabac=1 / ref=9 / deblock=1:-1:-1 / analyse=0x3:0x113 / me=umh / subme=10 / psy=1 / psy_rd=1.00:0.15 / mixed_ref=1 / me_range=24 / chroma_me=1 / trellis=2 / 8x8dct=1 / cqm=0 / deadzone=21,11 / fast_pskip=0 / chroma_qp_offset=-3 / threads=6 / lookahead_threads=1 / sliced_threads=0 / nr=0 / decimate=1 / interlaced=0 / bluray_compat=0 / constrained_intra=0 / bframes=8 / b_pyramid=2 / b_adapt=2 / b_bias=0 / direct=1 / weightb=1 / open_gop=0 / weightp=2 / keyint=230 / keyint_min=23 / scenecut=40 / intra_refresh=0 / rc_lookahead=40 / rc=crf / mbtree=0 / crf=19.0 / qcomp=0.60 / qpmin=0 / qpmax=69 / qpstep=4 / vbv_maxrate=50000 / vbv_bufsize=62500 / crf_max=0.0 / nal_hrd=none / ip_ratio=1.40 / pb_ratio=1.30 / aq=1:1.00 Язык : Japanese Default : Да Forced : Нет DURATION : 01:35:17.712000000 NUMBER_OF_FRAMES : 137088 NUMBER_OF_BYTES : 3325689025 _STATISTICS_WRITING_APP : mkvmerge v7.2.0 ('On Every Street') 32bit built on Sep 13 2014 15:42:11 _STATISTICS_WRITING_DATE_UTC : 2014-11-05 16:52:55 _STATISTICS_TAGS : BPS DURATION NUMBER_OF_FRAMES NUMBER_OF_BYTESАудио #1: Идентификатор : 2 Формат : AC-3 Формат/Информация : Audio Coding 3 Расширение режима : CM (complete main) Параметр Endianness формата : Big Идентификатор кодека : A_AC3 Продолжительность : 1 ч. 35 м. Вид битрейта : Постоянный Битрейт : 448 Кбит/сек Каналы : 6 каналов Расположение каналов : Front: L C R, Side: L R, LFE Частота : 48,0 КГц Битовая глубина : 16 бит Метод сжатия : С потерями Размер потока : 305 Мбайт (7%) Заголовок : Одноголосый закадровый Язык : Russian Default : Да Forced : НетАудио #2: Идентификатор : 3 Формат : AC-3 Формат/Информация : Audio Coding 3 Расширение режима : CM (complete main) Параметр Endianness формата : Big Идентификатор кодека : A_AC3 Продолжительность : 1 ч. 35 м. Вид битрейта : Постоянный Битрейт : 384 Кбит/сек Каналы : 6 каналов Расположение каналов : Front: L C R, Side: L R, LFE Частота : 48,0 КГц Битовая глубина : 16 бит Метод сжатия : С потерями Размер потока : 262 Мбайт (6%) Заголовок : Одноголосый закадровый Язык : Russian Default : Нет Forced : НетАудио #3: Идентификатор : 4 Формат : AC-3 Формат/Информация : Audio Coding 3 Расширение режима : CM (complete main) Параметр Endianness формата : Big Идентификатор кодека : A_AC3 Продолжительность : 1 ч. 35 м. Вид битрейта : Постоянный Битрейт : 448 Кбит/сек Каналы : 6 каналов Расположение каналов : Front: L C R, Side: L R, LFE Частота : 48,0 КГц Битовая глубина : 16 бит Метод сжатия : С потерями Размер потока : 305 Мбайт (7%) Заголовок : Одноголосый закадровый Язык : Russian Default : Нет Forced : НетАудио #4: Идентификатор : 5 Формат : AC-3 Формат/Информация : Audio Coding 3 Расширение режима : CM (complete main) Параметр Endianness формата : Big Идентификатор кодека : A_AC3 Продолжительность : 1 ч. 35 м. Вид битрейта : Постоянный Битрейт : 448 Кбит/сек Каналы : 6 каналов Расположение каналов : Front: L C R, Side: L R, LFE Частота : 48,0 КГц Битовая глубина : 16 бит Метод сжатия : С потерями Размер потока : 305 Мбайт (7%) Заголовок : Оригинальный Язык : Japanese Default : Нет Forced : Нет 4,25 Gb 10 2 29 июня 2016 13:47 Звонок 2 / Ringu 2 (1999) BDRip 1080p by msltel | A .torrent   [Информация о файле (нажмите для просмотра)] Качество: BDRip 1080pВидео: MPEG-4 AVC, 9887 Kбит/с, 1920x1036Аудио 1: русский, 48 kHz, AC3, 6 ch, 384 kbps avg, [Авторский, Андрей Гаврилов]Аудио 2: русский, 48 kHz, DTS, 6 ch, 1509 kbps avg, [Авторский, Сергей Кузнецов]Аудио 3: русский, 48 kHz, DTS, 6 ch, 1509 kbps avg, [Авторский, Юрий Сербин]Аудио: русский, 48 kHz, AC3, 6 ch, 448 kbps avg, [Авторский, Сергей Кузнецов]Аудио: русский, 48 kHz, AC3, 6 ch, 448 kbps avg, [Авторский, Юрий Сербин]Аудио: английский, 48 kHz, DTS, 6 ch, 1509 kbps avg, [Оригинал]Субтитры: русскиеСубтитры: английскиеАудио: Формат : AC-3 Формат/Информация : Audio Coding 3 Расширение режима : CM (complete main) Параметр Endianness формата : Big Продолжительность : 1 ч. 35 м. Вид битрейта : Постоянный Битрейт : 448 Кбит/сек Каналы : 6 каналов Расположение каналов : Front: L C R, Side: L R, LFE Частота : 48,0 КГц Битовая глубина : 16 бит Метод сжатия : С потерями Размер потока : 305 Мбайт (100%)Аудио: Формат : AC-3 Формат/Информация : Audio Coding 3 Расширение режима : CM (complete main) Параметр Endianness формата : Big Продолжительность : 1 ч. 35 м. Вид битрейта : Постоянный Битрейт : 448 Кбит/сек Каналы : 6 каналов Расположение каналов : Front: L C R, Side: L R, LFE Частота : 48,0 КГц Битовая глубина : 16 бит Метод сжатия : С потерями Размер потока : 305 Мбайт (100%)Аудио: Формат : DTS Формат/Информация : Digital Theater Systems Режим : 16 Параметр Endianness формата : Big Продолжительность : 1 ч. 35 м. Вид битрейта : Постоянный Битрейт : 1509 Кбит/сек Каналы : 6 каналов Расположение каналов : Front: L C R, Side: L R, LFE Частота : 48,0 КГц Битовая глубина : 24 бит Метод сжатия : С потерями Размер потока : 1,00 Гбайт (100%)Видео: Идентификатор : 1 Формат : AVC Формат/Информация : Advanced Video Codec Профиль формата : [email protected] Параметр CABAC формата : Да Параметр ReFrames формата : 4 кадра Идентификатор кодека : V_MPEG4/ISO/AVC Продолжительность : 1 ч. 35 м. Битрейт : 9887 Кбит/сек Ширина : 1920 пикселей Высота : 1036 пикселей Соотношение сторон : 1,85:1 Режим частоты кадров : Постоянный Частота кадров : 23,976 кадра/сек Цветовое пространство : YUV Субдискретизация насыщенности : 4:2:0 Битовая глубина : 8 бит Тип развёртки : Прогрессивная Бит/(Пиксели*Кадры) : 0.207 Размер потока : 6,58 Гбайт (73%) Библиотека кодирования : x264 core 133 r2334 a3ac64b Настройки программы : cabac=1 / ref=4 / deblock=1:-1:-1 / analyse=0x3:0x113 / me=umh / subme=10 / psy=1 / psy_rd=1.00:0.15 / mixed_ref=1 / me_range=24 / chroma_me=1 / trellis=2 / 8x8dct=1 / cqm=0 / deadzone=21,11 / fast_pskip=0 / chroma_qp_offset=-3 / threads=6 / lookahead_threads=1 / sliced_threads=0 / nr=0 / decimate=1 / interlaced=0 / bluray_compat=0 / constrained_intra=0 / bframes=8 / b_pyramid=2 / b_adapt=2 / b_bias=0 / direct=1 / weightb=1 / open_gop=0 / weightp=2 / keyint=230 / keyint_min=23 / scenecut=40 / intra_refresh=0 / rc_lookahead=40 / rc=crf / mbtree=0 / crf=19.5 / qcomp=0.60 / qpmin=0 / qpmax=69 / qpstep=4 / vbv_maxrate=50000 / vbv_bufsize=62500 / crf_max=0.0 / nal_hrd=none / ip_ratio=1.40 / pb_ratio=1.30 / aq=1:1.00 Язык : Japanese Default : Да Forced : НетАудио #1: Идентификатор : 2 Формат : AC-3 Формат/Информация : Audio Coding 3 Расширение режима : CM (complete main) Параметр Endianness формата : Big Идентификатор кодека : A_AC3 Продолжительность : 1 ч. 35 м. Вид битрейта : Постоянный Битрейт : 384 Кбит/сек Каналы : 6 каналов Расположение каналов : Front: L C R, Side: L R, LFE Частота : 48,0 КГц Битовая глубина : 16 бит Метод сжатия : С потерями Размер потока : 262 Мбайт (3%) Заголовок : AVO (Андрей Гаврилов) Язык : Russian Default : Да Forced : НетАудио #2: Идентификатор : 3 Формат : DTS Формат/Информация : Digital Theater Systems Режим : 16 Параметр Endianness формата : Big Идентификатор кодека : A_DTS Продолжительность : 1 ч. 35 м. Вид битрейта : Постоянный Битрейт : 1509 Кбит/сек Каналы : 6 каналов Расположение каналов : Front: L C R, Side: L R, LFE Частота : 48,0 КГц Битовая глубина : 16 бит Метод сжатия : С потерями Размер потока : 1,00 Гбайт (11%) Заголовок : AVO (Сергей Кузнецов) Язык : Russian Default : Нет Forced : НетАудио #3: Идентификатор : 4 Формат : DTS Формат/Информация : Digital Theater Systems Режим : 16 Параметр Endianness формата : Big Идентификатор кодека : A_DTS Продолжительность : 1 ч. 35 м. Вид битрейта : Постоянный Битрейт : 1509 Кбит/сек Каналы : 6 каналов Расположение каналов : Front: L C R, Side: L R, LFE Частота : 48,0 КГц Битовая глубина : 16 бит Метод сжатия : С потерями Размер потока : 1,00 Гбайт (11%) Заголовок : AVO (Юрий Сербин) Язык : Russian Default : Нет Forced : Нет 10,63 Gb 1 3 29 июня 2016 13:47 Звонок 2 / Ring 2 / Ringu 2 (1999) BDRip от HQCLUB .torrent   [Информация о файле (нажмите для просмотра)] Перевод: Авторский (одноголосый, закадровый) Ю. СербинСубтитры: русские, английскиеФормат: AVIКачество: BDRip (источник:Видео: 720x384 (1.88:1), 23.976 fps, XviD build 72 ~1789 kbps avg, 0.27 bit/pixelАудио #1: 48 kHz, AC3 Dolby Digital, 3/2 (L,C,R,l,r) + LFE ch, ~384 kbps avg (AVO.SERBIN)Аудио #2: 48 kHz, AC3 Dolby Digital, 3/2 (L,C,R,l,r) + LFE ch, ~384 kbps avg (AVO.KUZNECOV)(отдельно)Аудио #3: 48 kHz, AC3 Dolby Digital, 3/2 (L,C,R,l,r) + LFE ch, ~384 kbps avg (AVO.GAVRILOV)(отдельно)Аудио #4: 48 kHz, AC3 Dolby Digital, 3/2 (L,C,R,l,r) + LFE ch, ~384 kbps avg (JAP)(отдельно) 1,45 Gb 3 3

gig-torrent.net

Basudei [1998 1999 2000 Япония DVDRip] AVO + Sub rus + Original скачать через торрент

Качают: 1 [ 0 KB/s ]
Размер: 5.29 GB | Добавлен: 6 лет 5 мес. назад | Торрент скачан:250 раз
Реклама Дарим 3000 рублей за регистрацию, не упусти свой шанс получить шикарный бонус!!!

07-05-2011 14:28 Трилогия: Звонок, Звонок 2, Звонок 0: Рождение Скачать торрент  

Звонок. Трилогия Звонок / Ringu Год выпуска: 1998Страна: ЯпонияЖанр: ужасы, детективПродолжительность: 01:35:04Перевод: Авторский (одноголосый закадровый) - ГавриловCубтитры: русскиеОригинальная аудиодорожка: японский (отдельно)Режиссер: Хидео Наката / Hideo NakataВ ролях: Нанако Мацусима, Мики Накатани, Юко Такэути, Хитоми Сато, Ёити Нумата, Ютака Мацусигэ, Кацуми Мурамацу, Рикия Отака, Масако, Дайскэ Бан...Описание: Молодая женщина-репортер расследует загадочное суеверие о смертоносной видеокассете. В доме того, кто посмотрит ее, сначала раздается странный звонок по телефону, еще чуть позже его находят мертвым. После того, как, видимо, такой же смертью умирает ее племянница, репортерша решает взяться за расследование и сама смотрит злополучную кассету. Чуть позже в ее квартире раздается звонок…Качество : DVDRip Формат : AVIВидео кодек: XviD Аудио кодек: АС3Видео: 704x400 (1.76:1), 25 fps, XviD build 50 ~1745 kbps avg, 0.25 bit/pixelАудио #1: 48 kHz, AC3 Dolby Digital, 3/2 (L,C,R,l,r) + LFE ch, ~448 kbps RusАудио #2: 48 kHz, AC3 Dolby Digital, 3/2 (L,C,R,l,r) + LFE ch, ~448 kbps Jap (отдельно)Звонок 2 / Ringu 2 Год выпуска: 1999Страна: Япония Жанр: ужасы, детективПродолжительность: 01:34:56Перевод: Авторский (одноголосый закадровый) - ГавриловCубтитры: русскиеОригинальная аудиодорожка: японский (отдельно)Режиссер: Хидео Наката / Hideo NakataВ ролях: Мики Накатани, Хитоми Сато, Кёко Фукада, Фумиё Кохината, Кендзиро Ишимару, Юрэй Янаги, Рикия Отака, Ёити Нумата, Масако, Мивако Кадзи...Описание: Смертоносная пленка снова затягивает в свои сети доверчивых людей. Зловещий призрак из телевизора, Садако Имамура, возвращается! Перед вами — продолжение мегахита японского кинопроката «Звонок», одной из самых страшных кинокартин всех времен. На этот раз главным персонажем становится девушка погибшего в первой части репортера. Она пытается выйти на след того, что стоит за не слишком дружелюбной видеопленкой.Качество : DVDRipФормат : AVIВидео кодек: XviD Аудио кодек: АС3Видео: 704x416 (1.69:1), 25 fps, XviD build 50 ~1870 kbps avg, 0.26 bit/pixelАудио #1: 48 kHz, AC3 Dolby Digital, 3/2 (L,C,R,l,r) + LFE ch, ~384 kbps RusАудио #2: 48 kHz, AC3 Dolby Digital, 3/2 (L,C,R,l,r) + LFE ch, ~384 kbps Jap (отдельно)Звонок 0: Рождение / Ringu 0: Basudei Год выпуска: 2000Страна: Япония Жанр: ужасы, детективПродолжительность: 01:38:42Перевод: Авторский (одноголосый закадровый) - ГавриловCубтитры: русскиеОригинальная аудиодорожка: японский (отдельно)Режиссер: Норио Тцурута / Norio TsurutaВ ролях: Юкиэ Накама, Сэйити Танабэ, Кумико Асо, Такеши Вакамацу, Рюши Мидзуками, Каору Окунуки, Yasuji Kimura, Масами Хашимото, Дайскэ Бан, Масако...Описание: Фильм предлагает предысторию роковых событий «Звонка» — рассказ о юной девушке Садако, которая обнаруживает в себе загадочные и устрашающие способности. Может быть, призрак внутри экрана — не исчадие Зла, а жертва людской ненависти.Качество : DVDRip Формат : AVIВидео кодек: XviD Аудио кодек: АС3Видео: 704x400 (1.76:1), 25 fps, XviD build 50 ~1665 kbps avg, 0.24 bit/pixelАудио #1: 48 kHz, AC3 Dolby Digital, 3/2 (L,C,R,l,r) + LFE ch, ~448 kbps RusАудио #2: 48 kHz, AC3 Dolby Digital, 3/2 (L,C,R,l,r) + LFE ch, ~448 kbps Jap (отдельно)Формат субтитров: softsub (SRT) Скачать Трилогия: Звонок, Звонок 2, Звонок 0: Рождение через торрент http://i20.fastpic.ru/big/2011/0507/6d/e1292859b0d6e4bcf1419a3fb39b266d.jpg Скачать фильм Трилогия: Звонок, Звонок 2, Звонок 0: Рождение через торрент бесплантно в хорошем качестве Описание: Молодая женщина-репортер расследует загадочное суеверие о смертоносной видеокассете. В доме того, кто посмотрит ее, сначала ... 2011-05-07 14:28 10 10 3

Loading...

Loading...

Рекламный пират

27-12-2015 07:02 Трилогия: Звонок, Звонок 2, Звонок 0: Рождение Скачать торрент  

-=Cherry=-, Доброго времени, есть вопрос: Стоит ли ждать раздачи: Звонок. Трилогия?)))Все, ок! Благо-дарю)

28-08-2016 08:33 Трилогия: Звонок, Звонок 2, Звонок 0: Рождение Скачать торрент  

Народ встаньте на раздачу плиз, дайте скачать!

Дорогой пользователь! Огромная просьба, поблагодарите релизера, оцените раздачу и оставьте свои комментарий, если Вы скачали Трилогия: Звонок, Звонок 2, Звонок 0: Рождение через торрент бесплатно! Внесите свою лепту в развитие PiratBit!

Комментировать посты могут только пользователи прошедшие не сложную регистрацию

Трилогия: Звонок, Звонок 2, Звонок 0: Рождение через торрент Скачать бесплатно Трилогия: Звонок, Звонок 2, Звонок 0: Рождение Трилогия: Звонок, Звонок 2, Звонок 0: Рождение скачать торрент Трилогия: Звонок, Звонок 2, Звонок 0: Рождение смотреть онлайн Cкачать фильм Трилогия: Звонок, Звонок 2, Звонок 0: Рождение бесплатно Трилогия: Звонок, Звонок 2, Звонок 0: Рождение скачать торрент в хорошем качестве Трилогия: Звонок, Звонок 2, Звонок 0: Рождение смотреть онлайн бесплатно в хорошем качестве

Вы не можете начинать темыВы не можете отвечать на сообщенияВы не можете редактировать свои сообщенияВы не можете удалять свои сообщенияВы не можете голосовать в опросахВы не можете прикреплять файлы к сообщениямВы можете скачивать файлы

piratbit.ru

Скачать фильм Звонок через торрент в хорошем качестве бесплатно BDRip AVC by msltel] DUB

ОбщееУникальный идентификатор : 214182052022078186842893315101092406917 (0xA121F6770B2F1307856257B64642E685)Полное имя : D:\Video\Звонок.2002.BDRip.AVC.mkvФормат : MatroskaВерсия формата : Version 4 / Version 2Размер файла : 4,02 ГбайтПродолжительность : 1 ч. 55 м.Общий поток : 4990 Кбит/секДата кодирования : UTC 2016-02-05 10:57:44Программа кодирования : mkvmerge v8.2.0 ('World of Adventure') 64bitБиблиотека кодирования : libebml v1.3.1 + libmatroska v1.4.2

ВидеоИдентификатор : 1Формат : AVCФормат/Информация : Advanced Video CodecПрофиль формата : [email protected]Параметр CABAC формата : ДаПараметр ReFrames формата : 9 кадровИдентификатор кодека : V_MPEG4/ISO/AVCПродолжительность : 1 ч. 55 м.Битрейт : 2811 Кбит/секШирина : 1024 пикселяВысота : 552 пикселяСоотношение сторон : 1,85:1Режим частоты кадров : ПостоянныйЧастота кадров : 23,976 (24000/1001) кадра/секЦветовое пространство : YUVСубдискретизация насыщенности : 4:2:0Битовая глубина : 8 битТип развёртки : ПрогрессивнаяБит/(Пиксели*Кадры) : 0.207Размер потока : 2,26 Гбайт (56%)Библиотека кодирования : x264 core 146 r2538 121396cНастройки программы : cabac=1 / ref=9 / deblock=1:-3:-3 / analyse=0x3:0x113 / me=umh / subme=10 / psy=1 / psy_rd=1.00:0.15 / mixed_ref=1 / me_range=32 / chroma_me=1 / trellis=2 / 8x8dct=1 / cqm=0 / deadzone=21,11 / fast_pskip=1 / chroma_qp_offset=-3 / threads=6 / lookahead_threads=1 / sliced_threads=0 / nr=0 / decimate=1 / interlaced=0 / bluray_compat=0 / constrained_intra=0 / bframes=12 / b_pyramid=2 / b_adapt=2 / b_bias=0 / direct=1 / weightb=1 / open_gop=0 / weightp=2 / keyint=230 / keyint_min=23 / scenecut=40 / intra_refresh=0 / rc_lookahead=40 / rc=crf / mbtree=0 / crf=19.0 / qcomp=0.60 / qpmin=0 / qpmax=69 / qpstep=4 / vbv_maxrate=40000 / vbv_bufsize=50000 / crf_max=0.0 / nal_hrd=none / filler=0 / ip_ratio=1.40 / pb_ratio=1.30 / aq=1:1.00Язык : EnglishDefault : ДаForced : Нет

Аудио #1Идентификатор : 2Формат : AC-3Формат/Информация : Audio Coding 3Расширение режима : CM (complete main)Параметр Endianness формата : BigИдентификатор кодека : A_AC3Продолжительность : 1 ч. 55 м.Вид битрейта : ПостоянныйБитрейт : 448 Кбит/секКаналы : 6 каналовРасположение каналов : Front: L C R, Side: L R, LFEЧастота : 48,0 КГцЧастота кадров : 31,250 кадров/сек (1536 spf)Метод сжатия : С потерямиРазмер потока : 369 Мбайт (9%)Заголовок : DUBЯзык : RussianDefault : ДаForced : Нет

Аудио #2Идентификатор : 3Формат : AC-3Формат/Информация : Audio Coding 3Расширение режима : CM (complete main)Параметр Endianness формата : BigИдентификатор кодека : A_AC3Продолжительность : 1 ч. 55 м.Вид битрейта : ПостоянныйБитрейт : 384 Кбит/секКаналы : 6 каналовРасположение каналов : Front: L C R, Side: L R, LFEЧастота : 48,0 КГцЧастота кадров : 31,250 кадров/сек (1536 spf)Метод сжатия : С потерямиРазмер потока : 317 Мбайт (8%)Заголовок : MVO (DDV)Язык : RussianDefault : НетForced : Нет

Аудио #3Идентификатор : 4Формат : AC-3Формат/Информация : Audio Coding 3Расширение режима : CM (complete main)Параметр Endianness формата : BigИдентификатор кодека : A_AC3Продолжительность : 1 ч. 55 м.Вид битрейта : ПостоянныйБитрейт : 448 Кбит/секКаналы : 6 каналовРасположение каналов : Front: L C R, Side: L R, LFEЧастота : 48,0 КГцЧастота кадров : 31,250 кадров/сек (1536 spf)Метод сжатия : С потерямиРазмер потока : 369 Мбайт (9%)Заголовок : AVO (Юрий Живов)Язык : RussianDefault : НетForced : Нет

Аудио #4Идентификатор : 5Формат : AC-3Формат/Информация : Audio Coding 3Расширение режима : CM (complete main)Параметр Endianness формата : BigИдентификатор кодека : A_AC3Продолжительность : 1 ч. 55 м.Вид битрейта : ПостоянныйБитрейт : 448 Кбит/секКаналы : 6 каналовРасположение каналов : Front: L C R, Side: L R, LFEЧастота : 48,0 КГцЧастота кадров : 31,250 кадров/сек (1536 spf)Метод сжатия : С потерямиРазмер потока : 369 Мбайт (9%)Заголовок : AVO (Евгений Рудой)Язык : RussianDefault : НетForced : Нет

Аудио #5Идентификатор : 6Формат : AC-3Формат/Информация : Audio Coding 3Расширение режима : CM (complete main)Параметр Endianness формата : BigИдентификатор кодека : A_AC3Продолжительность : 1 ч. 55 м.Вид битрейта : ПостоянныйБитрейт : 448 Кбит/секКаналы : 6 каналовРасположение каналов : Front: L C R, Side: L R, LFEЧастота : 48,0 КГцЧастота кадров : 31,250 кадров/сек (1536 spf)Метод сжатия : С потерямиРазмер потока : 369 Мбайт (9%)Заголовок : OriginalЯзык : EnglishDefault : НетForced : Нет

Текст #1Идентификатор : 7Формат : UTF-8Идентификатор кодека : S_TEXT/UTF8Идентификатор кодека/Информация : UTF-8 Plain TextПродолжительность : 1 ч. 47 м.Битрейт : 57 бит/секCount of elements : 871Размер потока : 45,1 Кбайт (0%)Заголовок : русский (R5)Язык : RussianDefault : НетForced : Нет

Текст #2Идентификатор : 8Формат : UTF-8Идентификатор кодека : S_TEXT/UTF8Идентификатор кодека/Информация : UTF-8 Plain TextПродолжительность : 1 ч. 46 м.Битрейт : 31 бит/секCount of elements : 884Размер потока : 24,9 Кбайт (0%)Заголовок : английскийDefault : НетForced : Нет

piratbit.ru

Звонок 2 1999 - скачать бесплатно через торрент в хорошем качестве. Без регистрации

Название: Звонок 2 / Ringu 2 (1999) BDRip-AVC | A
Качество видео: BDRip-AVC (BDRemux 1080p)
Перевод: Авторский (одноголосый, закадровый) | Гаврилов
Видео: H.264 [email protected]; 768x414; 1027 Кбит/сек; 23,976 (24000/1001) кадра/сек; 0.135
Аудио: HE-AAC / LC; 48,0 КГц / 24,0 КГц; 64,0 Кбит/сек; 2 канала
Скачать

Загрузка начнется в течение 5 сек.

744.56 MB

Название: Звонок 2 / Ringu 2 (1999) BDRemux | A
Качество видео: BDRemux
Перевод: Авторский - Сербин
Видео: MPEG-4 MPEG-4 AVC Video 25486 kbps 1080p / 23,976 fps / 16:9 / High Profile 4.1
Аудио: Аудио: DTS-HD Master Audio Russian 5.1 / 48 kHz / 2142 kbps / 16-bit (DTS Core: 5.1 / 48 kHz / 1509 kbps / 16-bit)* | Сербин
Скачать

Загрузка начнется в течение 5 сек.

21.55 GB

Название: Звонок 2 / Ringu 2 (1999) BDRip-AVC | A
Качество видео: BDRip-AVC
Перевод: Авторский (одноголосый, закадровый) х3
Видео: AVC, 1024x552 (1.855), 23.976 fps, 3 100 Kbps (0.229 bit/pixel)
Аудио: AC-3, 48.0 KHz, 6 ch, 384 Kbps, CBR (Russian) - авторский А.ГавриловAC-3, 48.0 KHz, 6 ch, 448 Kbps, CBR (Russian) - авторский Ю.СербинAC-3, 48.0 KHz, 6 ch, 448 Kbps, CBR (Russian) - авторский С.Кузнецов
Скачать

Загрузка начнется в течение 5 сек.

2.92 GB

Название: Звонок 2 / Ringu 2 (1999) BDRip 720p | A
Качество видео: BDRip [720p]
Перевод: авторский (одноголосый закадровый)
Видео: MPEG-4 AVC/H.264 1280 x 690 (1,85:1), 4 529 kbps, 23.976 fps, 0.214 b/px
Аудио: АС3, 6 ch, 384 kbps, 48 000 Hz [Одноголосый закадровый (А.Гаврилов)]АС3, 6 ch, 448 kbps, 48 000 Hz [Одноголосый закадровый (С.Кузнецов)]АС3, 6 ch, 448 kbps, 48 000 Hz [Оригинальный (Japanese)]
Скачать

Загрузка начнется в течение 5 сек.

4.25 GB

Название: Звонок 2 / Ringu 2 (1999) BDRip 1080p by msltel | A
Качество видео: BDRip 1080p
Видео: MPEG-4 AVC, 9887 Kбит/с, 1920x1036
Аудио: русский, 48 kHz, AC3, 6 ch, 448 kbps avg, [Авторский, Юрий Сербин]английский, 48 kHz, DTS, 6 ch, 1509 kbps avg, [Оригинал]
Скачать

Загрузка начнется в течение 5 сек.

10.63 GB

Название: Звонок 2 / Ringu 2 (1999) BDRip 720p by msltel | A
Качество видео: BDRip 720p
Видео: MPEG-4 AVC, 4537 Kбит/с, 1280x690
Аудио: русский, 48 kHz, DTS, 6 ch, 1509 kbps avg, [Авторский, Юрий Сербин]английский, 48 kHz, AC3, 6 ch, 448 kbps avg, [Оригинал]
Скачать

Загрузка начнется в течение 5 сек.

6.26 GB

Название: Звонок 2 / Ring 2 / Ringu 2 (1999) BDRip от HQCLUB
Качество видео: BDRip (источник: Diablo / Blu-Ray Remux / 1080р)
Перевод: Авторский (одноголосый, закадровый) Ю. Сербин
Формат видео: AVI
Видео: 720x384 (1.88:1), 23.976 fps, XviD build 72 ~1789 kbps avg, 0.27 bit/pixel
Аудио: 48 kHz, AC3 Dolby Digital, 3/2 (L,C,R,l,r) + LFE ch, ~384 kbps avg (AVO.SERBIN)48 kHz, AC3 Dolby Digital, 3/2 (L,C,R,l,r) + LFE ch, ~384 kbps avg (AVO.KUZNECOV) (отдельно)48 kHz, AC3 Dolby Digital, 3/2 (L,C,R,l,r) + LFE ch, ~384 kbps avg (AVO.GAVRILOV) (отдельно)48 kHz, AC3 Dolby Digital, 3/2 (L,C,R,l,r) + LFE ch, ~384 kbps avg (JAP) (отдельно)
Скачать

Загрузка начнется в течение 5 сек.

1.45 GB

www.kinovit.net


Смотрите также