Зомби против зомби скачать торрент в хорошем качестве


Скачать фильм Скауты против зомби через торрент в хорошем качестве бесплатно 720p

ОбщееУникальный идентификатор : 227603884620999748919818674981962700899 (0xAB3AE9E74357351C8E91711788DED863)Полное имя : E:\Skauty.protiv.zombi.2015.D.BDRip.720p.mkvФормат : MatroskaВерсия формата : Version 2Размер файла : 3,40 ГбайтПродолжительность : 1 ч. 32 м.Общий поток : 5243 Кбит/секДата кодирования : UTC 2015-12-22 13:16:21Программа кодирования : mkvmerge v7.8.0 ('River Man') 32bit built on Apr 3 2015 12:11:22Библиотека кодирования : libebml v1.3.1 + libmatroska v1.4.2

ВидеоИдентификатор : 1Формат : AVCФормат/Информация : Advanced Video CodecПрофиль формата : [email protected]Параметр CABAC формата : ДаПараметр ReFrames формата : 9 кадровИдентификатор кодека : V_MPEG4/ISO/AVCПродолжительность : 1 ч. 32 м.Битрейт : 4400 Кбит/секШирина : 1280 пикселейВысота : 534 пикселяСоотношение сторон : 2,40:1Режим частоты кадров : ПостоянныйЧастота кадров : 23,976 кадра/секЦветовое пространство : YUVСубдискретизация насыщенности : 4:2:0Битовая глубина : 8 битТип развёртки : ПрогрессивнаяБит/(Пиксели*Кадры) : 0.268Размер потока : 2,79 Гбайт (82%)Библиотека кодирования : x264 core 142 r2431+42 c69a006 tMod [[email protected] X86_64]Настройки программы : cabac=1 / ref=9 / deblock=1:-3:-3 / analyse=0x3:0x133 / me=umh / subme=11 / psy=1 / fade_compensate=0.00 / psy_rd=1.00:0.05 / mixed_ref=1 / me_range=32 / chroma_me=1 / trellis=2 / 8x8dct=1 / cqm=0 / deadzone=21,11 / fast_pskip=0 / chroma_qp_offset=-3 / threads=12 / lookahead_threads=2 / sliced_threads=0 / nr=0 / decimate=0 / interlaced=0 / bluray_compat=0 / constrained_intra=0 / fgo=0 / bframes=8 / b_pyramid=2 / b_adapt=2 / b_bias=0 / direct=3 / weightb=1 / open_gop=0 / weightp=2 / keyint=250 / keyint_min=23 / scenecut=40 / intra_refresh=0 / rc_lookahead=80 / rc=2pass / mbtree=1 / bitrate=4400 / ratetol=1.0 / qcomp=0.70 / qpmin=0:0:0 / qpmax=69:69:69 / qpstep=4 / cplxblur=20.0 / qblur=0.5 / vbv_maxrate=62500 / vbv_bufsize=32768 / nal_hrd=none / filler=0 / ip_ratio=1.40 / aq=3:1.00 / aq-sensitivity=10.00 / aq-factor=1.00:1.00:1.00 / aq2=0 / aq3=0Язык : EnglishDefault : ДаForced : Нет

Аудио #1Идентификатор : 2Формат : AC-3Формат/Информация : Audio Coding 3Расширение режима : CM (complete main)Параметр Endianness формата : BigИдентификатор кодека : A_AC3Продолжительность : 1 ч. 32 м.Вид битрейта : ПостоянныйБитрейт : 192 Кбит/секКаналы : 2 каналаРасположение каналов : Front: L RЧастота : 48,0 КГцБитовая глубина : 16 битМетод сжатия : С потерямиРазмер потока : 127 Мбайт (4%)Язык : RussianDefault : ДаForced : Нет

Аудио #2Идентификатор : 3Формат : AC-3Формат/Информация : Audio Coding 3Расширение режима : CM (complete main)Параметр Endianness формата : BigИдентификатор кодека : A_AC3Продолжительность : 1 ч. 32 м.Вид битрейта : ПостоянныйБитрейт : 640 Кбит/секКаналы : 6 каналовРасположение каналов : Front: L C R, Side: L R, LFEЧастота : 48,0 КГцБитовая глубина : 16 битМетод сжатия : С потерямиРазмер потока : 425 Мбайт (12%)Язык : EnglishDefault : НетForced : Нет

ТекстИдентификатор : 4Формат : PGSРежим смешивания : zlibИдентификатор кодека : S_HDMV/PGSИдентификатор кодека/Информация : The same subtitle format used on BDs/HD-DVDsЯзык : EnglishDefault : НетForced : Нет

Меню00:00:00.000 : :en: Chapter 0100:06:45.154 : :en: Chapter 0200:14:53.767 : :en: Chapter 0300:21:31.164 : :en: Chapter 0500:27:01.953 : :en: Chapter 0500:31:30.597 : :en: Chapter 0600:39:25.237 : :en: Chapter 0700:45:57.838 : :en: Chapter 0800:51:13.987 : :en: Chapter 0900:57:32.198 : :en: Chapter 1001:06:08.130 : :en: Chapter 1101:12:08.949 : :en: Chapter 1201:20:00.003 : :en: Chapter 1301:26:04.534 : :en: Chapter 14

piratbit.ru

Скачать фильм Скауты против зомби через торрент в хорошем качестве бесплатно 1080p

ОбщееУникальный идентификатор : 213237509397590250395931382591940694013 (0xA06C0CEB0C1CB2DBB9F75F6724278FFD)Полное имя : E:\7cau3i.2015.D.BDRip.1080p.mkvФормат : MatroskaВерсия формата : Version 4 / Version 2Размер файла : 6,68 ГбайтПродолжительность : 1 ч. 32 м.Общий поток : 10,3 Мбит/секНазвание фильма : 7cau3i.2015.D.BDRip.1080p.ELEKTRI4KA.uniongang.tvДата кодирования : UTC 2015-12-22 08:18:46Программа кодирования : mkvmerge v8.6.1 ('Flying') 64bitБиблиотека кодирования : libebml v1.3.3 + libmatroska v1.4.4DURATION : 01:32:45.024000000NUMBER_OF_FRAMES : 521721NUMBER_OF_BYTES : 1049702652_STATISTICS_WRITING_APP : mkvmerge v8.6.1 ('Flying') 64bit_STATISTICS_WRITING_DATE_UTC : 2015-12-22 08:18:46_STATISTICS_TAGS : BPS DURATION NUMBER_OF_FRAMES NUMBER_OF_BYTES

ВидеоИдентификатор : 1Формат : AVCФормат/Информация : Advanced Video CodecПрофиль формата : [email protected]Параметр CABAC формата : ДаПараметр ReFrames формата : 5 кадровИдентификатор кодека : V_MPEG4/ISO/AVCПродолжительность : 1 ч. 32 м.Битрейт : 8610 Кбит/секШирина : 1920 пикселейВысота : 808 пикселейСоотношение сторон : 2,40:1Режим частоты кадров : ПостоянныйЧастота кадров : 23,976 кадра/секЦветовое пространство : YUVСубдискретизация насыщенности : 4:2:0Битовая глубина : 8 битТип развёртки : ПрогрессивнаяБит/(Пиксели*Кадры) : 0.231Размер потока : 5,45 Гбайт (82%)Заголовок : 7cau3i.2015.D.BDRip.1080p.ELEKTRI4KA.uniongang.tvБиблиотека кодирования : x264 core 148 r2638 7599210Настройки программы : cabac=1 / ref=5 / deblock=1:0:0 / analyse=0x3:0x113 / me=umh / subme=8 / psy=1 / psy_rd=1.00:0.00 / mixed_ref=1 / me_range=16 / chroma_me=1 / trellis=1 / 8x8dct=1 / cqm=0 / deadzone=21,11 / fast_pskip=1 / chroma_qp_offset=-2 / threads=24 / lookahead_threads=4 / sliced_threads=0 / nr=0 / decimate=1 / interlaced=0 / bluray_compat=0 / constrained_intra=0 / bframes=3 / b_pyramid=2 / b_adapt=2 / b_bias=0 / direct=3 / weightb=1 / open_gop=0 / weightp=2 / keyint=250 / keyint_min=23 / scenecut=40 / intra_refresh=0 / rc_lookahead=50 / rc=2pass / mbtree=1 / bitrate=8610 / ratetol=1.0 / qcomp=0.60 / qpmin=0 / qpmax=69 / qpstep=4 / cplxblur=20.0 / qblur=0.5 / ip_ratio=1.40 / aq=1:1.00Язык : EnglishDefault : ДаForced : НетDURATION : 01:32:45.018000000NUMBER_OF_FRAMES : 133426NUMBER_OF_BYTES : 5988987930_STATISTICS_WRITING_APP : mkvmerge v8.6.1 ('Flying') 64bit_STATISTICS_WRITING_DATE_UTC : 2015-12-22 08:18:46_STATISTICS_TAGS : BPS DURATION NUMBER_OF_FRAMES NUMBER_OF_BYTES

Аудио #1Идентификатор : 2Формат : AC-3Формат/Информация : Audio Coding 3Расширение режима : CM (complete main)Параметр Endianness формата : BigИдентификатор кодека : A_AC3Продолжительность : 1 ч. 32 м.Вид битрейта : ПостоянныйБитрейт : 192 Кбит/секКаналы : 2 каналаРасположение каналов : Front: L RЧастота : 48,0 КГцБитовая глубина : 16 битМетод сжатия : С потерямиРазмер потока : 127 Мбайт (2%)Заголовок : 7cau3i.2015.D.BDRip.1080p.ELEKTRI4KA.uniongang.tvЯзык : RussianDefault : ДаForced : Нет

Аудио #2Идентификатор : 3Формат : DTSФормат/Информация : Digital Theater SystemsРежим : 16Параметр Endianness формата : BigИдентификатор кодека : A_DTSПродолжительность : 1 ч. 32 м.Вид битрейта : ПостоянныйБитрейт : 1509 Кбит/секКаналы : 6 каналовРасположение каналов : Front: L C R, Side: L R, LFEЧастота : 48,0 КГцБитовая глубина : 24 битМетод сжатия : С потерямиРазмер потока : 1001 Мбайт (15%)Заголовок : 7cau3i.2015.D.BDRip.1080p.ELEKTRI4KA.uniongang.tvЯзык : EnglishDefault : НетForced : Нет

ТекстИдентификатор : 4Формат : UTF-8Идентификатор кодека : S_TEXT/UTF8Идентификатор кодека/Информация : UTF-8 Plain TextЗаголовок : 7cau3i.2015.D.BDRip.1080p.ELEKTRI4KA.uniongang.tvЯзык : RussianDefault : ДаForced : Да

Меню00:00:00.000 : en:00:00:00.00000:06:45.155 : en:00:06:45.15500:14:53.768 : en:00:14:53.76800:21:31.165 : en:00:21:31.16500:27:01.954 : en:00:27:01.95400:31:30.597 : en:00:31:30.59700:39:25.238 : en:00:39:25.23800:45:57.838 : en:00:45:57.83800:51:13.988 : en:00:51:13.98800:57:32.199 : en:00:57:32.19901:06:08.131 : en:01:06:08.13101:12:08.950 : en:01:12:08.95001:20:00.004 : en:01:20:00.00401:26:04.534 : en:01:26:04.534

piratbit.ru

plants-vs-zombies [v.0.1.51] [RU] скачать через торрент

piratbit.ru

Размер: 74 MB | Добавлен: 4 года 7 мес. назад | Торрент скачан:857 раз
Реклама Дарим 3000 рублей за регистрацию, не упусти свой шанс получить шикарный бонус!!!

plants-vs-zombies

Год выпуска: 2010Версия: 0.1.51Разработчик: popcapПлатформа: Android Совместимость с Vista: нетСистемные требования: Android 2.3 и выше.Язык интерфейса: РусскийТаблэтка: не требуетсяОписание: Ухоженный сад ваша лучшая защита против неистовых орд нежити. Держите зомби на расстоянии с помощью массива из смертельных растений и метких газонокосилок. С Plants vs. Zombies, веселье никогда не умирает!

50 уровней в режиме Приключение - через день, ночь, и туман, в бассейне, и на крыше.Сражайтесь с 26 видами зомби, в том числе прыгунам с шестом, зомби аквалангисты, и голова-ведро.Сажайте 49 видов мощных растений и собирайте монеты, чтобы купить газонокосилки, грабли, и другие смертельные садоводческие инструменты.Откройте Альманах, чтобы увидеть все растения и зомби, плюс забавные "факты".Соберите 10 веселых достижений.Веселые графика, отличный саундтрек, и музыкальный видеобонус.Доп. информация:

- Установить apk файл-Играть

Скачать plants-vs-zombies через торрент http://i54.fastpic.ru/big/2013/0314/5f/2afecc89d9411da325b529cc966e3f5f.png Скачать фильм plants-vs-zombies [v.0.1.51] [RU]через торрент бесплантно в хорошем качестве Описание: Ухоженный сад ваша лучшая защита против неистовых орд нежити. Держите зомби на расстоянии с помощью массива из смертельных ... 2013-03-13 22:02 9.7 10 35

Loading...

Loading...

Последний раз редактировалось: bendovec87 (2013-03-14 17:27), всего редактировалось 2 раз(а)

Рекламный пират

Тестировалось на смартфоне alcatel one touch 993d работает отлично!хорошее качество,без рекламы,все на русском! :good2:

bendovec87 писал(а):

Тестировалось на смартфоне alcatel one touch 993d работает отлично!хорошее качество,без рекламы,все на русском! :good2:

Не забываем говорить спасибо)))

на alcatel one touch 8008d непошла ((((

самсунг с3 мини тоже не играет, виснит при начале игры

buharik1983Slavdeyскачан 200 раз!+у меня три телефона дома разных на всех игрушка просто летает,все уровни прошли!!

Никак не мог найти хорошую игру на мой Highscreen Yammy Duo. Эта пошла. Большое спасибо. Теперь искать не придётся.

на sony xperia ion при запуске черный экран и все...

Дорогой пользователь! Огромная просьба, поблагодарите релизера, оцените раздачу и оставьте свои комментарий, если Вы скачали plants-vs-zombies через торрент бесплатно! Внесите свою лепту в развитие PiratBit!

Комментировать посты могут только пользователи прошедшие не сложную регистрацию

plants-vs-zombies через торрент Скачать бесплатно plants-vs-zombies plants-vs-zombies скачать торрент plants-vs-zombies смотреть онлайн Cкачать фильм plants-vs-zombies бесплатно plants-vs-zombies скачать торрент в хорошем качестве plants-vs-zombies смотреть онлайн бесплатно в хорошем качестве

Вы не можете начинать темыВы не можете отвечать на сообщенияВы не можете редактировать свои сообщенияВы не можете удалять свои сообщенияВы не можете голосовать в опросахВы не можете прикреплять файлы к сообщениямВы можете скачивать файлы

Скауты против зомби через торрент

piratbit.ru

Размер: 1.39 GB | Добавлен: 1 год 10 мес. назад | Торрент скачан:216 раз
Реклама Дарим 3000 рублей за регистрацию, не упусти свой шанс получить шикарный бонус!!!

20-11-2015 17:38 Скауты против зомби Скачать торрент  

Скауты против зомби / Scouts Guide to the Zombie Apocalypse Год выхода: 2015Жанр: ужасы, комедияВыпущено: США / Paramount Pictures, Broken Road ProductionsПродолжительность: 01:33:08Озвучивание: Дублированное [Звук с CAMRip]

Режиссер: Кристофер Лэндон

В ролях: Тай Шеридан, Логан Миллер, Джои Морган, Сара Дюмон, Дэвид Кокнер, Холстон Сейдж, Клорис Личмен, Ники Косс, Хирам А. Мюррэй, Лукас Гейдж Встречайте самую нелепую команду героев в мире — трое закадычных друзей-бойскаутов и безбашенная официантка. Именно им выпадает миссия остановить зомбиапокалипсис, который уже погрузил в хаос захолустный сонный городок и грозит охватить всю планету. Последняя надежда человечества — скаутские приемы и умения. К борьбе с зомби будь готов! Всегда готов!

Качество: WEB-DLRipФормат: AVI Видео: 720x304, 25 fps, XviD build 73 ~ 1743 Kb/sАудио: 48 kHz, AC3 Dolby Digital, 2/0 (L,R) ch, ~192.00 kbps avg [DUB]Аудио: 48 kHz, AC3 Dolby Digital, 2/0 (L,R) ch, ~192.00 kbps avg [ENG]

Скачать Скауты против зомби через торрент http://i74.fastpic.ru/big/2015/1120/46/95d130806ef4ab8dd1ae562270db2246.jpg Скачать фильм Скауты против зомби через торрент бесплантно в хорошем качестве В ролях: Тай Шеридан, Логан Миллер, Джои Морган, Сара Дюмон, Дэвид Кокнер, Холстон Сейдж, Клорис Личмен, Ники Косс, Хирам А. Мюррэй, Лукас ... 2015-12-08 09:23 8.2 10 15

Loading...

Loading...

% Раздел Тема Автор DL S | L
Фильмы (HD 720p, 1080p) (48-60 fps) [ 8.98 GB ] Скауты против зомби / Scouts Guide to the Zombie Apocalypse [2015 BDRip 720p by mimok [BD CEE] 60fps mimok Скачать
Фильмы 2015 [DVDrip, WEB-DLRip, HDrip] [ 709 MB ] Скауты против зомби / Scouts Guide to the Zombie Apocalypse [2015 HDRip " BD CEE"] coc900 Скачать
Фильмы (Blu-ray, BD-Remux, HDDVD) [ 28.87 GB ] Скауты против зомби / Scouts Guide to the Zombie Apocalypse [2015 Blu-Ray] от BlueBird / Russian Mafia Скачать
Фильмы 2015 [DVDrip, WEB-DLRip, HDrip] [ 2.18 GB ] Скауты против зомби / Scouts Guide to the Zombie Apocalypse [2015 BDRip-AVC] DUB potroks Скачать
Фильмы 2015 [DVDrip, WEB-DLRip, HDrip] [ 1.46 GB ] Скауты против зомби / Scouts Guide to the Zombie Apocalypse [2015 BDRip-AVC] DUB potroks Скачать
Фильмы 2015 [DVDrip, WEB-DLRip, HDrip] [ 1.46 GB ] Скауты против зомби / Scouts Guide to the Zombie Apocalypse [2015 BDRip] DUB Twi7ter Скачать
Фильмы 2015 [DVDrip, WEB-DLRip, HDrip] [ 2.18 GB ] Скауты против зомби / Scouts Guide to the Zombie Apocalypse [2015 BDRip-AVC от sokol_ok] DUB sokol_ok Скачать

Последний раз редактировалось: killermax2013 (2015-12-08 09:36), всего редактировалось 2 раз(а)

Рекламный пират

20-11-2015 18:06 Скауты против зомби Скачать торрент  

что они ещё придумают?

20-11-2015 18:17 Скауты против зомби Скачать торрент  

зомби игил в париже

20-11-2015 18:18 Скауты против зомби Скачать торрент  

весь зал смеялся)

21-11-2015 08:12 Скауты против зомби Скачать торрент  

Я жду пионеры против зомби ну или на худой конец тимуровцы...

21-11-2015 13:10 Скауты против зомби Скачать торрент  

22-11-2015 09:40 Скауты против зомби Скачать торрент  

О, в этом говне Макс +100500 снимался)))

08-12-2015 09:24 Скауты против зомби Скачать торрент  

CAMRip заменен на WEB-DLRip

08-12-2015 09:36 Скауты против зомби Скачать торрент  

Dante1987 писал(а):

Я жду пионеры против зомби ну или на худой конец тимуровцы... Скоро на подходе зомби против вампиров, да ещё инопланетяне подключатся

Pекламный агент PB

08-12-2015 10:14 Скауты против зомби Скачать торрент  

Dante1987 писал(а):

Я жду пионеры против зомби ну или на худой конец тимуровцы... После Бобров-зомби и Убийц вампирш-лесбиянок я уже ничего не жду.

08-12-2015 14:45 Скауты против зомби Скачать торрент  

Цитата:

Скауты против зомби / Scouts Guide to the Zombie Apocalypse (Кристофер Лэндон) [2015 г., ужасы, комедия, WEB-DLRip] [DUB] [Звук с CAMRip]

Ну и дребедень,только для глупых,ну хохма.

Дорогой пользователь! Огромная просьба, поблагодарите релизера, оцените раздачу и оставьте свои комментарий, если Вы скачали Скауты против зомби через торрент бесплатно! Внесите свою лепту в развитие PiratBit!

Комментировать посты могут только пользователи прошедшие не сложную регистрацию

Скауты против зомби через торрент Скачать бесплатно Скауты против зомби Скауты против зомби скачать торрент Скауты против зомби смотреть онлайн Cкачать фильм Скауты против зомби бесплатно Скауты против зомби скачать торрент в хорошем качестве Скауты против зомби смотреть онлайн бесплатно в хорошем качестве

Вы можете начинать темыВы можете отвечать на сообщенияВы не можете редактировать свои сообщенияВы не можете удалять свои сообщенияВы не можете голосовать в опросахВы не можете прикреплять файлы к сообщениямВы можете скачивать файлы


Смотрите также