Жестокие игры скачать торрент в хорошем качестве


Скачать фильм Жестокие игры (1999) через торрент

14 июня 2016 12:48 Жестокие игры / Cruel Intentions (1999) BDRip 720p | P, A .torrent   [Информация о файле (нажмите для просмотра)] Перевод: Профессиональный многоголосый, Авторский одноголосый, ОригиналКодек: x264Качество: BDRip 720pВидео: 1280x692 (1,85:1), 23.976 fps, 5141 kbpsЗвук: Аудио #1: AC3, 640 Kbps, 48.0 KHz, 6 ch (Rus)Профессиональный многоголосый, ВидеосервисАудио #2: AC3, 192 Kbps, 48.0 KHz, 2 ch (Rus)Профессиональный многоголосый, CTCАудио #3: AC3, 384 Kbps, 48.0 KHz, 6 ch (Ukr)Профессиональный многоголосый, Так Треба ПродакшнАудио #4: AC3, 448 Kbps, 48.0 KHz, 6 ch (Rus)Авторский одноголосый, Ю.ЖивовАудио #5: AC3, 448 Kbps, 48.0 KHz, 6 ch (Rus)Авторский одноголосый, А.МатвеевАудио #6: AC3, 448 Kbps, 48.0 KHz, 6 ch (Eng)ОригиналСубтитры: Русские, АнглийскиеВидео: Идентификатор : 1 Формат : AVC Формат/Информация : Advanced Video Codec Профиль формата : [email protected] Параметр CABAC формата : Да Параметр ReFrames формата : 9 кадров Идентификатор кодека : V_MPEG4/ISO/AVC Продолжительность : 1 ч. 37 м. Битрейт : 5141 Кбит/сек Ширина : 1280 пикселей Высота : 692 пикселя Соотношение сторон : 1,85:1 Режим частоты кадров : Постоянный Частота кадров : 23,976 кадра/сек Цветовое пространство : YUV Субдискретизация насыщенности : 4:2:0 Битовая глубина : 8 бит Тип развёртки : Прогрессивная Бит/(Пиксели*Кадры) : 0.242 Размер потока : 3,40 Гбайт (65%) Заголовок : Cruel Intentions / Жестокие игры / Жестокие намерения (1999) Библиотека кодирования : x264 core 135 r2345 f0c1c53 Настройки программы : cabac=1 / ref=9 / deblock=1:-3:-3 / analyse=0x3:0x113 / me=umh / subme=11 / psy=1 / psy_rd=1.00:0.15 / mixed_ref=1 / me_range=32 / chroma_me=1 / trellis=2 / 8x8dct=1 / cqm=0 / deadzone=21,11 / fast_pskip=0 / chroma_qp_offset=-3 / threads=6 / lookahead_threads=1 / sliced_threads=0 / nr=0 / decimate=0 / interlaced=0 / bluray_compat=0 / constrained_intra=0 / bframes=5 / b_pyramid=2 / b_adapt=2 / b_bias=0 / direct=3 / weightb=1 / open_gop=0 / weightp=2 / keyint=240 / keyint_min=23 / scenecut=40 / intra_refresh=0 / rc=2pass / mbtree=0 / bitrate=5141 / ratetol=1.0 / qcomp=0.60 / qpmin=0 / qpmax=69 / qpstep=4 / cplxblur=20.0 / qblur=0.5 / ip_ratio=1.40 / pb_ratio=1.30 / aq=1:0.95 Язык : English Default : Да Forced : НетАудио #1: Идентификатор : 2 Формат : AC-3 Формат/Информация : Audio Coding 3 Расширение режима : CM (complete main) Параметр Endianness формата : Big Идентификатор кодека : A_AC3 Продолжительность : 1 ч. 37 м. Вид битрейта : Постоянный Битрейт : 640 Кбит/сек Каналы : 6 каналов Расположение каналов : Front: L C R, Side: L R, LFE Частота : 48,0 КГц Битовая глубина : 16 бит Метод сжатия : С потерями Размер потока : 446 Мбайт (8%) Заголовок : MVO (Russian) Видеосервис Язык : Russian Default : Да Forced : НетАудио #2: Идентификатор : 3 Формат : AC-3 Формат/Информация : Audio Coding 3 Расширение режима : CM (complete main) Параметр Endianness формата : Big Идентификатор кодека : A_AC3 Продолжительность : 1 ч. 37 м. Вид битрейта : Постоянный Битрейт : 192 Кбит/сек Каналы : 2 канала Расположение каналов : Front: L R Частота : 48,0 КГц Битовая глубина : 16 бит Метод сжатия : С потерями Размер потока : 134 Мбайт (2%) Заголовок : MVO (Russian) CTC Язык : Russian Default : Нет Forced : НетАудио #3: Идентификатор : 4 Формат : AC-3 Формат/Информация : Audio Coding 3 Расширение режима : CM (complete main) Параметр Endianness формата : Big Идентификатор кодека : A_AC3 Продолжительность : 1 ч. 37 м. Вид битрейта : Постоянный Битрейт : 384 Кбит/сек Каналы : 6 каналов Расположение каналов : Front: L C R, Side: L R, LFE Частота : 48,0 КГц Битовая глубина : 16 бит Метод сжатия : С потерями Размер потока : 268 Мбайт (5%) Заголовок : MVO (Ukrainian) Так Треба Продакшн Язык : Ukrainian Default : Нет Forced : НетАудио #4: Идентификатор : 5 Формат : AC-3 Формат/Информация : Audio Coding 3 Расширение режима : CM (complete main) Параметр Endianness формата : Big Идентификатор кодека : A_AC3 Продолжительность : 1 ч. 37 м. Вид битрейта : Постоянный Битрейт : 448 Кбит/сек Каналы : 6 каналов Расположение каналов : Front: L C R, Side: L R, LFE Частота : 48,0 КГц Битовая глубина : 16 бит Метод сжатия : С потерями Размер потока : 312 Мбайт (6%) Заголовок : AVO (Ю.Живов) Язык : Russian Default : Нет Forced : НетАудио #5: Идентификатор : 6 Формат : AC-3 Формат/Информация : Audio Coding 3 Расширение режима : CM (complete main) Параметр Endianness формата : Big Идентификатор кодека : A_AC3 Продолжительность : 1 ч. 37 м. Вид битрейта : Постоянный Битрейт : 448 Кбит/сек Каналы : 6 каналов Расположение каналов : Front: L C R, Side: L R, LFE Частота : 48,0 КГц Битовая глубина : 16 бит Метод сжатия : С потерями Размер потока : 312 Мбайт (6%) Заголовок : AVO (А.Матвеев) Язык : Russian Default : Нет Forced : НетАудио #6: Идентификатор : 7 Формат : AC-3 Формат/Информация : Audio Coding 3 Расширение режима : CM (complete main) Параметр Endianness формата : Big Идентификатор кодека : A_AC3 Продолжительность : 1 ч. 37 м. Вид битрейта : Постоянный Битрейт : 448 Кбит/сек Каналы : 6 каналов Расположение каналов : Front: L C R, Side: L R, LFE Частота : 48,0 КГц Битовая глубина : 16 бит Метод сжатия : С потерями Размер потока : 312 Мбайт (6%) Заголовок : Original (English) Язык : English Default : Нет Forced : Нет 5,24 Gb 6 3 14 июня 2016 12:48 Жестокие игры / Cruel Intentions (1999) BDRip 720p от Leonardo and Scarabey .torrent   [Информация о файле (нажмите для просмотра)] Перевод: Профессиональный (многоголосый закадровый)Формат: MKVВидео кодек: MPEG-4 AVC Аудио кодек: AC3Видео: AVC, 1280x694 (1.85:1) at 23.976 fps, AVC at 3385 kbps avg, 0.159 bit/pixelАудио: Russian: 48 kHz; AC3 5.1; 640.00 kbps avgСубтитры: Русские, английские 2,8 Gb 7 5 14 июня 2016 12:48 Жестокие игры / Cruel Intentions (1999) BDRip 720p от NoLimits-Team .torrent   [Информация о файле (нажмите для просмотра)] Перевод: Профессиональный многоголосый закадровый, АнглийскийКачество: BDRip 720p (исходник Blu-ray Disc)Видео: 1280х692, 5 141 Кбит/сек, 23.976 кадр/сек, 1.85:1, AVC, x264, 0.242 Бит/(Пиксели*Кадры), 2-passАудио1: AC-3, 640 Кбит/сек, 6 канала(ов), 48,0 КГц - Профессиональный многоголосый закадровыйАудио2: AC-3, 640 Кбит/сек, 6 канала(ов), 48,0 КГц - Английский 4,37 Gb 6 3 14 июня 2016 12:48 Жестокие игры / Cruel Intentions (1999) BDRip 1080p от Freeisland .torrent   [Информация о файле (нажмите для просмотра)] Перевод: Профессиональный (многоголосый закадровый)Субтитры: Russian (UTF-8)Формат: MKVВидео: 1920x1040 (16:9), 23.976 fps, AVC, 10.2 MbpsАудио #1: AC3, 384 Kbps, 48.0 KHz, 6 ch (RUS MVO - Видеосервис)Аудио #2: AC3, 192 Kbps, 48.0 KHz, 2 ch (RUS MVO - СТС)Аудио #3: AC3, 448 Kbps, 48.0 KHz, 6 ch (RUS AVO - Ю. Живов)Аудио #4: AC3, 448 Kbps, 48.0 KHz, 6 ch (English) 7,95 Gb 18 5 14 июня 2016 12:48 Жестокие игры / Cruel Intentions (1999) BDRip-AVC от ExKinoRay | P, A .torrent   [Информация о файле (нажмите для просмотра)] Перевод: Профессиональный многоголосый, авторский одноголосыйСубтитры: Русские, английскиеКодек: H.264Качество: BDRip (AVC) (Blu-Ray Remux (1080p))Видео: MPEG-4 AVC, 2199 Кбит/с, 1024x554Звук: Аудио №1: Русский (AC3, 6 ch, 384 Кбит/с) - многоголосый Аудио №2: Русский (AC3, 6 ch, 448 Кбит/с) - авторский (Живов) Аудио №5: Английский (AC3, 6 ch, 448 Кбит/с) Видео: Идентификатор : 1 Формат : AVC Формат/Информация : Advanced Video Codec Профиль формата : [email protected] Параметр CABAC формата : Да Параметр ReFrames формата : 10 кадров Идентификатор кодека : V_MPEG4/ISO/AVC Продолжительность : 1 ч. 37 м. Битрейт : 2199 Кбит/сек Ширина : 1024 пикселя Высота : 554 пикселя Соотношение сторон : 16:9 Частота кадров : 23,976 кадра/сек Цветовое пространство : YUV Субдискретизация насыщенности : 4:2:0 Битовая глубина : 8 бит Тип развёртки : Прогрессивная Бит/(Пиксели*Кадры) : 0.162 Размер потока : 1,45 Гбайт (61%) Заголовок : Rip by rondik Библиотека кодирования : x264 core 129 r2245 bc13772 Настройки программы : cabac=1 / ref=10 / deblock=1:-2:-2 / analyse=0x3:0x133 / me=umh / subme=11 / psy=1 / psy_rd=1.00:0.00 / mixed_ref=1 / me_range=48 / chroma_me=1 / trellis=2 / 8x8dct=1 / cqm=0 / deadzone=21,11 / fast_pskip=0 / chroma_qp_offset=-2 / threads=3 / lookahead_threads=1 / sliced_threads=0 / nr=0 / decimate=0 / interlaced=0 / bluray_compat=0 / constrained_intra=0 / bframes=9 / b_pyramid=2 / b_adapt=2 / b_bias=0 / direct=3 / weightb=1 / open_gop=0 / weightp=2 / keyint=240 / keyint_min=23 / scenecut=40 / intra_refresh=0 / rc_lookahead=40 / rc=2pass / mbtree=1 / bitrate=2199 / ratetol=1.0 / qcomp=0.60 / qpmin=10 / qpmax=51 / qpstep=4 / cplxblur=20.0 / qblur=0.5 / ip_ratio=1.40 / aq=2:1.00 Язык : EnglishАудио #1: Идентификатор : 2 Формат : AC-3 Формат/Информация : Audio Coding 3 Расширение режима : CM (complete main) Идентификатор кодека : A_AC3 Продолжительность : 1 ч. 37 м. Вид битрейта : Постоянный Битрейт : 384 Кбит/сек Каналы : 6 каналов Расположение каналов : Front: L C R, Side: L R, LFE Частота : 48,0 КГц Битовая глубина : 16 бит Метод сжатия : С потерями Размер потока : 268 Мбайт (11%) Заголовок : Профессиональный многоголосый Язык : RussianАудио #2: Идентификатор : 3 Формат : AC-3 Формат/Информация : Audio Coding 3 Расширение режима : CM (complete main) Идентификатор кодека : A_AC3 Продолжительность : 1 ч. 37 м. Вид битрейта : Постоянный Битрейт : 448 Кбит/сек Каналы : 6 каналов Расположение каналов : Front: L C R, Side: L R, LFE Частота : 48,0 КГц Битовая глубина : 16 бит Метод сжатия : С потерями Размер потока : 312 Мбайт (13%) Заголовок : Авторский одноголосый (Живов) Язык : RussianАудио #3: Идентификатор : 4 Формат : AC-3 Формат/Информация : Audio Coding 3 Расширение режима : CM (complete main) Идентификатор кодека : A_AC3 Продолжительность : 1 ч. 37 м. Вид битрейта : Постоянный Битрейт : 448 Кбит/сек Каналы : 6 каналов Расположение каналов : Front: L C R, Side: L R, LFE Частота : 48,0 КГц Битовая глубина : 16 бит Метод сжатия : С потерями Размер потока : 312 Мбайт (13%) Заголовок : Английский Язык : English 2,37 Gb 3 2 14 июня 2016 12:48 Жестокие игры / Cruel Intentions (1999) BDRip-AVC .torrent   [Информация о файле (нажмите для просмотра)] Перевод: Профессиональный (многоголосый закадровый) + ОригиналКодек: H.264Качество: BDRip-AVC - исх. BDRemux 1080pВидео: 864x468, (16:9), 23,976 fps, ~ 1800 Кбит/секЗвук: 1: 48 kHz, AAC-LC, 2.0 (L,R) ch, ~ 164 kbps | Профессиональный (многоголосый закадровый) | 2: 48 kHz, AAC-LC, 2.0 (L,R) ch, ~ 178 kbps | Оригинальная английская дорожка | 1,46 Gb 36 4 14 июня 2016 12:48 Жестокие игры / Cruel Intentions (1999) HDRip от Scarabey .torrent   [Информация о файле (нажмите для просмотра)] Перевод: Профессиональный (многоголосый, закадровый)Качество: HDRipФормат: AVIВидео: 688x368 (1.87:1), 23.976 fps, XviD build 50 ~1738 kbps avg, 0.29 bit/pixelАудио #1: 48 kHz, AC3 Dolby Digital, 3/2 (L,C,R,l,r) + LFE ch, ~384.00 kbps avg 1,45 Gb 54 4 14 июня 2016 12:48 Жестокие игры / Cruel Intentions (1999) HDRip от Scarabey .torrent   [Информация о файле (нажмите для просмотра)] Перевод: Профессиональный (многоголосый, закадровый)Качество: HDRipФормат: AVIВидео: 624x336 (1.86:1), 23.976 fps, XviD build 50 ~928 kbps avg, 0.18 bit/pixelАудио: 48 kHz, MPEG Layer 3, 2 ch, ~128.00 kbps avg 742,88 Mb 7 1 14 июня 2016 12:48 Жестокие игры / Cruel Intentions ( 1999 ) BDRip-AVC .torrent   [Информация о файле (нажмите для просмотра)] Перевод: Профессиональный (многоголосый, закадровый) 701,53 Mb 3 2 14 июня 2016 12:48 Жестокие игры / Cruel Intentions (1999) BDRip от HQCLUB .torrent   [Информация о файле (нажмите для просмотра)] Перевод: Профессиональный (многоголосый) + Оригинальная дорожка(отдельно) + Авторский (одноголосый, Живов) (отдельно) + Профессиональный (многоголосый, закадровый) Первый каналСубтитры: английские, русские (внешние, *.srt)Формат: AVIКачество: BDRip (источник: -DaRkY- / BD Remux / 1080p)Видео: 720x384 (1.88:1), 23.976 fps, XviD build 50 ~1748 kbps avg, 0.26 bit/pixelАудио #1: 48 kHz, AC3 Dolby Digital, 3/2 (L,C,R,l,r) + LFE ch, ~384.00 kbps avgАудио #2: 48 kHz, AC3 Dolby Digital, 3/2 (L,C,R,l,r) + LFE ch, ~448.00 kbps avg(отдельно)Аудио #3: 48 kHz, AC3 Dolby Digital, 3/2 (L,C,R,l,r) + LFE ch, ~448.00 kbps avg(отдельно)Аудио #3: 48 kHz, AC3 Dolby Digital, 2/0 (L,R), ~192.00 kbps avg(отдельно на drive.hqclub.net) 2,07 Gb 18 3

gig-torrent.net

Скачать фильм Жестокие игры через торрент в хорошем качестве бесплатно 1080p

Лог :-[NoImage] x264 [info]: frame I:926 Avg QP:15.82 size:204380-[NoImage] x264 [info]: frame P:33837 Avg QP:18.51 size: 89285-[NoImage] x264 [info]: frame B:105465 Avg QP:20.39 size: 40238

GeneralComplete name : Zhestokie.igry.1999.BDRip.1080р.mkvFormat : MatroskaFile size : 7.95 GiBDuration : 1h 37mnOverall bit rate : 11.7 MbpsEncoded date : UTC 2013-04-27 05:18:29Writing application : mkvmerge v6.1.0 ('Old Devil') built on Mar 2 2013 14:32:37Writing library : libebml v1.3.0 + libmatroska v1.4.0

VideoID : 1Format : AVCFormat/Info : Advanced Video CodecFormat profile : [email protected] settings, CABAC : YesFormat settings, ReFrames : 4 framesMuxing mode : Container [email protected] ID : V_MPEG4/ISO/AVCDuration : 1h 37mnBit rate : 10.2 MbpsWidth : 1 920 pixelsHeight : 1 040 pixelsDisplay aspect ratio : 16:9Frame rate : 23.976 fpsColor space : YUVChroma subsampling : 4:2:0Bit depth : 8 bitsScan type : ProgressiveBits/(Pixel*Frame) : 0.213Stream size : 6.79 GiB (85%)Writing library : x264 core 130 r2273 b3065e6Encoding settings : cabac=1 / ref=4 / deblock=1:-1:-1 / analyse=0x3:0x133 / me=umh / subme=10 / psy=1 / psy_rd=1.00:0.00 / mixed_ref=1 / me_range=32 / chroma_me=1 / trellis=2 / 8x8dct=1 / cqm=0 / deadzone=21,11 / fast_pskip=0 / chroma_qp_offset=-2 / threads=6 / lookahead_threads=1 / sliced_threads=0 / nr=0 / decimate=1 / interlaced=0 / bluray_compat=0 / constrained_intra=0 / bframes=10 / b_pyramid=2 / b_adapt=2 / b_bias=0 / direct=3 / weightb=1 / open_gop=0 / weightp=2 / keyint=240 / keyint_min=24 / scenecut=40 / intra_refresh=0 / rc_lookahead=50 / rc=2pass / mbtree=0 / bitrate=10204 / ratetol=1.0 / qcomp=1.00 / qpmin=0 / qpmax=51 / qpstep=4 / cplxblur=20.0 / qblur=0.5 / vbv_maxrate=38000 / vbv_bufsize=30000 / nal_hrd=none / ip_ratio=1.40 / pb_ratio=1.30 / aq=1:1.00Color primaries : BT.709-5, BT.1361, IEC 61966-2-4, SMPTE RP177Transfer characteristics : BT.709-5, BT.1361Matrix coefficients : BT.709-5, BT.1361, IEC 61966-2-4 709, SMPTE RP177

Audio #1ID : 2Format : AC-3Format/Info : Audio Coding 3Mode extension : CM (complete main)Codec ID : A_AC3Duration : 1h 37mnBit rate mode : ConstantBit rate : 384 KbpsChannel(s) : 6 channelsChannel positions : Front: L C R, Side: L R, LFESampling rate : 48.0 KHzBit depth : 16 bitsStream size : 268 MiB (3%)Title : MVO - ВидеосервисLanguage : Russian

Audio #2ID : 3Format : AC-3Format/Info : Audio Coding 3Mode extension : CM (complete main)Codec ID : A_AC3Duration : 1h 37mnBit rate mode : ConstantBit rate : 192 KbpsChannel(s) : 2 channelsChannel positions : Front: L RSampling rate : 48.0 KHzBit depth : 16 bitsStream size : 134 MiB (2%)Title : MVO - CTCLanguage : Russian

Audio #3ID : 4Format : AC-3Format/Info : Audio Coding 3Mode extension : CM (complete main)Codec ID : A_AC3Duration : 1h 37mnBit rate mode : ConstantBit rate : 448 KbpsChannel(s) : 6 channelsChannel positions : Front: L C R, Side: L R, LFESampling rate : 48.0 KHzBit depth : 16 bitsStream size : 312 MiB (4%)Title : AVO - Ю. ЖивовLanguage : Russian

Audio #4ID : 5Format : AC-3Format/Info : Audio Coding 3Mode extension : CM (complete main)Codec ID : A_AC3Duration : 1h 37mnBit rate mode : ConstantBit rate : 448 KbpsChannel(s) : 6 channelsChannel positions : Front: L C R, Side: L R, LFESampling rate : 48.0 KHzBit depth : 16 bitsStream size : 312 MiB (4%)

TextID : 6Format : UTF-8Codec ID : S_TEXT/UTF8Codec ID/Info : UTF-8 Plain TextLanguage : Russian

Menu00:00:00.000 : en:00:00:00.00000:07:36.706 : en:00:07:36.70600:14:21.861 : en:00:14:21.86100:18:29.400 : en:00:18:29.40000:22:33.519 : en:00:22:33.51900:30:44.885 : en:00:30:44.88500:34:13.093 : en:00:34:13.09300:41:28.027 : en:00:41:28.02700:49:54.241 : en:00:49:54.24100:53:03.806 : en:00:53:03.80600:58:58.535 : en:00:58:58.53501:05:37.559 : en:01:05:37.55901:11:13.895 : en:01:11:13.89501:17:36.235 : en:01:17:36.23501:23:01.602 : en:01:23:01.60201:25:50.729 : en:01:25:50.729

piratbit.ru

Скачать фильм Жестокие игры 3 (2004) через торрент

14 июня 2016 12:55 Жестокие игры 3 / Cruel Intentions 3 (2004) HDRip от Scarabey | P .torrent   [Информация о файле (нажмите для просмотра)] Перевод: Профессиональный (многоголосый, закадровый)Субтитры: нетВидео: 624x352 (1.77:1), 23.976 fps, XviD build 73 ~1085 kbps avg, 0.21 bit/pixelАудио: 48 kHz, MPEG Layer 3, 2 ch, ~128.00 kbps avg 744,36 Mb 22 2 14 июня 2016 12:55 Жестокие игры 3 / Cruel Intentions 3 (2004) WEB-DLRip от ivandubskoj | P .torrent   [Информация о файле (нажмите для просмотра)] Перевод: Профессиональный многоголосый (Видеосервис), профессиональный многоголосый (R5)Кодек: XviDКачество: WEB-DLRip [Исходник: WEB-DL (720p)]Видео: XviD, 704x400 (16:9), 1868 Кбит/с, 23,976 кадр/с, 0.277 bit/pixelАудио #1: Русский, Dolby AC3, 48000 Гц, 192 Кбит/с, 2 канала (Стерео) - MVO [Видеосервис] (Оцифровка с лицензионной VHS, спасибо alenavova!)Аудио #2: Русский, Dolby AC3, 48000 Гц, 384 Кбит/с, 6 каналов (5.1) - MVO, R5Субтитры: Нет 1,46 Gb 5 6 14 июня 2016 12:55 Жестокие игры 3 / Cruel Intentions 3 (2004) WEB-DL 720p | P .torrent   [Информация о файле (нажмите для просмотра)] Качество: WEB-DL 720pВидео: MPEG-4 AVC, 3899 Кбит/с, 1278x720Аудио: Русский (AC3, 2 ch, 192 Кбит/с), английский (AC3, 6 ch, 384 Кбит/с)Перевод 1: Профессиональный (многоголосый закадровый) ВидеосервисПеревод 2: Профессиональный (многоголосый закадровый)Субтитры: Английские (Софтсаб) 2,83 Gb 7 3 14 июня 2016 12:55 Жестокие игры 3 / Cruel Intentions 3 (2004) DVDRip от ivandubskoj | P .torrent   [Информация о файле (нажмите для просмотра)] Перевод: Профессиональный многоголосыйКодек: XviDКачество: DVDRip (Исходник: DVD-5)Видео: XviD, 704x400 (16:9), 1693 Кбит/с, 23,976 кадр/сАудио #1: Русский, Dolby AC3, 48000 Гц, 384 Кбит/с, 6 каналов (5.1)Аудио #2: Английский, Dolby AC3, 48000 Гц, 384 Кбит/с, 6 каналов (5.1)Субтитры: НетВидео: Идентификатор : 0 Формат : MPEG-4 Visual Профиль формата : Advanced [email protected] Параметр BVOP формата : 2 Параметр QPel формата : Нет Параметр GMC формата : Без точки перехода Параметр матрицы формата : Default (MPEG) Идентификатор кодека : XVID Идентификатор кодека/Подсказка : XviD Продолжительность : 1 ч. 25 м. Битрейт : 1692 Кбит/сек Ширина : 704 пикселя Высота : 400 пикселей Соотношение сторон : 16:9 Частота кадров : 23,976 кадра/сек Цветовое пространство : YUV Субдискретизация насыщенности : 4:2:0 Битовая глубина : 8 бит Тип развёртки : Прогрессивная Метод сжатия : С потерями Бит/(Пиксели*Кадры) : 0.251 Размер потока : 1,01 Гбайт (68%) Библиотека кодирования : XviD 73Аудио #1: Идентификатор : 1 Формат : AC-3 Формат/Информация : Audio Coding 3 Расширение режима : CM (complete main) Параметр Endianness формата : Big Идентификатор кодека : 2000 Продолжительность : 1 ч. 25 м. Вид битрейта : Постоянный Битрейт : 384 Кбит/сек Каналы : 6 каналов Расположение каналов : Front: L C R, Side: L R, LFE Частота : 48,0 КГц Битовая глубина : 16 бит Метод сжатия : С потерями Размер потока : 234 Мбайт (16%) Выравнивание : Разделение по промежуткам Продолжительность промежутка : 64 мс. (1,53 видеокадра) Время предзагрузки промежутка : 500 мс. Заголовок : Russian (MVO)Аудио #2: Идентификатор : 2 Формат : AC-3 Формат/Информация : Audio Coding 3 Расширение режима : CM (complete main) Параметр Endianness формата : Big Идентификатор кодека : 2000 Продолжительность : 1 ч. 25 м. Вид битрейта : Постоянный Битрейт : 384 Кбит/сек Каналы : 6 каналов Расположение каналов : Front: L C R, Side: L R, LFE Частота : 48,0 КГц Битовая глубина : 16 бит Метод сжатия : С потерями Размер потока : 234 Мбайт (16%) Выравнивание : Разделение по промежуткам Продолжительность промежутка : 64 мс. (1,53 видеокадра) Время предзагрузки промежутка : 500 мс. Заголовок : English (Original) 1,47 Gb 5 2 14 июня 2016 12:55 Жестокие игры 3 / Cruel Intentions 3 (2004) DVD5 | P .torrent   [Информация о файле (нажмите для просмотра)] Перевод: Профессиональный многоголосыйКодек: MPEG2Качество: DVD-5Видео: MPEG2, NTSC, 720x480 (16:9), 5994 Кбит/с, VBR, 29,970 кадр/сАудио #1: Русский, Dolby AC3, 48000 Гц, 384 Кбит/с, 6 каналов (5.1)Аудио #2: Английский, Dolby AC3, 48000 Гц, 448 Кбит/с, 6 каналов (5.1)Субтитры: Английские (Colored)Видео: Идентификатор : 224 (0xE0) Формат : MPEG Video Версия формата : Version 2 Профиль формата : [email protected] Параметр BVOP формата : Да Параметр матрицы формата : Выборочная Параметр GOP формата : Variable Продолжительность : 20 м. Вид битрейта : Переменный Битрейт : 5994 Кбит/сек Максимальный битрейт : 9800 Кбит/сек Ширина : 720 пикселей Высота : 480 пикселей Соотношение сторон : 16:9 Частота кадров : 29,970 кадров/сек Стандарт вещания : NTSC Цветовое пространство : YUV Субдискретизация насыщенности : 4:2:0 Битовая глубина : 8 бит Метод сжатия : С потерями Бит/(Пиксели*Кадры) : 0.579 Размер потока : 881 Мбайт (86%)Аудио #1: Идентификатор : 189 (0xBD)-128 (0x80) Формат : AC-3 Формат/Информация : Audio Coding 3 Расширение режима : CM (complete main) Параметр Endianness формата : Big Режим смешивания : DVD-Video Продолжительность : 20 м. Вид битрейта : Постоянный Битрейт : 384 Кбит/сек Каналы : 6 каналов Расположение каналов : Front: L C R, Side: L R, LFE Частота : 48,0 КГц Битовая глубина : 16 бит Метод сжатия : С потерями Размер потока : 56,4 Мбайт (6%)Аудио #2: Идентификатор : 189 (0xBD)-129 (0x81) Формат : AC-3 Формат/Информация : Audio Coding 3 Расширение режима : CM (complete main) Параметр Endianness формата : Big Режим смешивания : DVD-Video Продолжительность : 20 м. Вид битрейта : Постоянный Битрейт : 448 Кбит/сек Каналы : 6 каналов Расположение каналов : Front: L C R, Side: L R, LFE Частота : 48,0 КГц Битовая глубина : 16 бит Метод сжатия : С потерями Размер потока : 65,8 Мбайт (6%) 3,87 Gb 2 1 14 июня 2016 12:55 Жестокие игры 3 / Cruel Intentions 3 (2004) DVDRip от ivandubskoj | P .torrent   [Информация о файле (нажмите для просмотра)] Перевод: Профессиональный многоголосыйКодек: XviDКачество: DVDRip (Исходник: DVD-5)Видео: XviD, 656x368 (16:9), 1063 Кбит/с, 25 кадр/сЗвук: Русский, MP3, 48000 Гц, 128 Кбит/с, 2 канала (Стерео)Субтитры: НетВидео: Идентификатор : 0 Формат : MPEG-4 Visual Профиль формата : Advanced [email protected] Параметр BVOP формата : 1 Параметр QPel формата : Нет Параметр GMC формата : Без точки перехода Параметр матрицы формата : Default (MPEG) Идентификатор кодека : XVID Идентификатор кодека/Подсказка : XviD Продолжительность : 1 ч. 21 м. Битрейт : 1063 Кбит/сек Ширина : 656 пикселей Высота : 368 пикселей Соотношение сторон : 16:9 Частота кадров : 25,000 кадров/сек Цветовое пространство : YUV Субдискретизация насыщенности : 4:2:0 Битовая глубина : 8 бит Тип развёртки : Прогрессивная Метод сжатия : С потерями Бит/(Пиксели*Кадры) : 0.176 Размер потока : 621 Мбайт (89%) Библиотека кодирования : XviD 73Аудио: Идентификатор : 1 Формат : MPEG Audio Версия формата : Version 1 Профиль формата : Layer 3 Идентификатор кодека : 55 Идентификатор кодека/Подсказка : MP3 Продолжительность : 1 ч. 21 м. Вид битрейта : Постоянный Битрейт : 128 Кбит/сек Каналы : 2 канала Частота : 48,0 КГц Метод сжатия : С потерями Размер потока : 74,7 Мбайт (11%) Выравнивание : Соединение по промежуткам Продолжительность промежутка : 40 мс. (1,00 видеокадр) Время предзагрузки промежутка : 504 мс. Заголовок : Russian (MVO) Библиотека кодирования : LAME3.99r Настройки программы : -m s -V 4 -q 2 -lowpass 17 -b 128 : Russian 701,27 Mb 3 5

gig-torrent.net

Жестокие игры 1999 - скачать бесплатно через торрент в хорошем качестве. Без регистрации

Название: Жестокие игры / Cruel Intentions (1999) BDRip | A
Качество видео: BDRip
Перевод: Авторский Александр Кашкин (Первомайский)
Видео: XviD, 1748 Кбит/с, 720x384
Аудио: Русский (AC3, 2 ch, 192 Кбит/с)
Скачать

Загрузка начнется в течение 5 сек.

1.46 GB

Название: Жестокие игры / Cruel Intentions (1999) BDRip 720p от NoLimits-Team
Качество видео: BDRip 720p (исходник Blu-ray Disc)
Перевод: Профессиональный многоголосый закадровый, Английский
Видео: 1280х692, 5 141 Кбит/сек, 23.976 кадр/сек, 1.85:1, AVC, x264, 0.242 Бит/(Пиксели*Кадры), 2-pass
Аудио: AC-3, 640 Кбит/сек, 6 канала(ов), 48,0 КГц - Профессиональный многоголосый закадровыйAC-3, 640 Кбит/сек, 6 канала(ов), 48,0 КГц - Английский
Скачать

Загрузка начнется в течение 5 сек.

4.37 GB

Название: Жестокие игры / Cruel Intentions (1999) BDRip 1080p от Freeisland
Перевод: Профессиональный (многоголосый закадровый)
Формат видео: MKV
Видео: AVC 1920x1040 (16:9), 23.976 fps, AVC, 10.2 Mbps
Аудио: AC3AC3, 384 Kbps, 48.0 KHz, 6 ch (RUS MVO - Видеосервис)AC3, 192 Kbps, 48.0 KHz, 2 ch (RUS MVO - СТС)AC3, 448 Kbps, 48.0 KHz, 6 ch (RUS AVO - Ю. Живов)AC3, 448 Kbps, 48.0 KHz, 6 ch (English)
Скачать

Загрузка начнется в течение 5 сек.

7.95 GB

Название: Жестокие игры / Cruel Intentions (1999) BDRip-AVC
Качество видео: BDRip-AVC - исх. BDRemux 1080p
Перевод: Профессиональный (многоголосый закадровый) + Оригинал
Видео: H.264 864x468, (16:9), 23,976 fps, ~ 1800 Кбит/сек
Аудио: 1: 48 kHz, AAC-LC, 2.0 (L,R) ch, ~ 164 kbps | Профессиональный (многоголосый закадровый) |
Скачать

Загрузка начнется в течение 5 сек.

1.46 GB

Название: Жестокие игры / Cruel Intentions (1999) HDRip от Scarabey
Качество видео: HDRip
Перевод: Профессиональный (многоголосый, закадровый)
Формат видео: AVI
Видео: 688x368 (1.87:1), 23.976 fps, XviD build 50 ~1738 kbps avg, 0.29 bit/pixel
Аудио: 48 kHz, AC3 Dolby Digital, 3/2 (L,C,R,l,r) + LFE ch, ~384.00 kbps avg
Скачать

Загрузка начнется в течение 5 сек.

1.45 GB

Название: Жестокие игры / Cruel Intentions (1999) HDRip от Scarabey
Качество видео: HDRip
Перевод: Профессиональный (многоголосый, закадровый)
Формат видео: AVI
Видео: 624x336 (1.86:1), 23.976 fps, XviD build 50 ~928 kbps avg, 0.18 bit/pixel
Аудио: 48 kHz, MPEG Layer 3, 2 ch, ~128.00 kbps avg
Скачать

Загрузка начнется в течение 5 сек.

742.88 MB

www.kinovit.net


Смотрите также