Женщина в золотом скачать торрент в хорошем качестве


Скачать фильм Женщина в золотом через торрент в хорошем качестве бесплатно BDRip-AVC

GeneralUnique ID                                : 184575277096103212948314586659634885949 (0x8ADBE7C2BE43798EA715E3EAB46D353D)Complete name                            : D:\download\Woman.in.Gold.2015.BDRip-AVC by schultz R.G.Resident.mkvFormat                                   : MatroskaFormat version                           : Version 4 / Version 2File size                                : 1.85 GiBDuration                                 : 1h 49mnOverall bit rate                         : 2 425 KbpsMovie name                               : Woman in Gold @ FocusStudioEncoded date                             : UTC 2016-05-03 14:09:44Writing application                      : mkvmerge v8.9.0 ('Father Daughter') 64bitWriting library                          : libebml v1.3.3 + libmatroska v1.4.4DURATION                                 : 01:37:31.595000000NUMBER_OF_FRAMES                         : 1299NUMBER_OF_BYTES                          : 53972_STATISTICS_WRITING_APP                  : mkvmerge v8.9.0 ('Father Daughter') 64bit_STATISTICS_WRITING_DATE_UTC             : 2016-05-03 14:09:44_STATISTICS_TAGS                         : BPS DURATION NUMBER_OF_FRAMES NUMBER_OF_BYTES

VideoID                                       : 1Format                                   : AVCFormat/Info                              : Advanced Video CodecFormat profile                           : [email protected] settings, CABAC                   : YesFormat settings, ReFrames                : 12 framesCodec ID                                 : V_MPEG4/ISO/AVCDuration                                 : 1h 49mnBit rate                                 : 1 655 KbpsWidth                                    : 1 024 pixelsHeight                                   : 428 pixelsDisplay aspect ratio                     : 2.40:1Frame rate                               : 23.976 fpsColor space                              : YUVChroma subsampling                       : 4:2:0Bit depth                                : 8 bitsScan type                                : ProgressiveBits/(Pixel*Frame)                       : 0.157Stream size                              : 1.23 GiB (66%)Writing library                          : x264 core 146 r2538 121396cEncoding settings                        : cabac=1 / ref=12 / deblock=1:-3:-3 / analyse=0x3:0x113 / me=umh / subme=11 / psy=1 / psy_rd=1.00:0.00 / mixed_ref=1 / me_range=48 / chroma_me=1 / trellis=2 / 8x8dct=1 / cqm=0 / deadzone=21,11 / fast_pskip=0 / chroma_qp_offset=-2 / threads=12 / lookahead_threads=3 / sliced_threads=0 / nr=0 / decimate=1 / interlaced=0 / bluray_compat=0 / constrained_intra=0 / bframes=13 / b_pyramid=2 / b_adapt=2 / b_bias=0 / direct=3 / weightb=1 / open_gop=0 / weightp=2 / keyint=240 / keyint_min=23 / scenecut=40 / intra_refresh=0 / rc_lookahead=40 / rc=2pass / mbtree=1 / bitrate=1655 / ratetol=1.0 / qcomp=0.60 / qpmin=0 / qpmax=69 / qpstep=4 / cplxblur=20.0 / qblur=0.5 / vbv_maxrate=14000 / vbv_bufsize=14000 / nal_hrd=none / filler=0 / ip_ratio=1.40 / aq=1:1.00Language                                 : EnglishDefault                                  : YesForced                                   : NoDURATION                                 : 01:49:17.603000000NUMBER_OF_FRAMES                         : 157225NUMBER_OF_BYTES                          : 1356255744_STATISTICS_WRITING_APP                  : mkvmerge v8.9.0 ('Father Daughter') 64bit_STATISTICS_WRITING_DATE_UTC             : 2016-05-03 14:09:44_STATISTICS_TAGS                         : BPS DURATION NUMBER_OF_FRAMES NUMBER_OF_BYTES

Audio #1ID                                       : 2Format                                   : AC-3Format/Info                              : Audio Coding 3Mode extension                           : CM (complete main)Codec ID                                 : A_AC3Duration                                 : 1h 49mnBit rate mode                            : ConstantBit rate                                 : 384 KbpsChannel(s)                               : 6 channelsChannel positions                        : Front: L C R, Side: L R, LFESampling rate                            : 48.0 KHzBit depth                                : 16 bitsCompression mode                         : LossyStream size                              : 300 MiB (16%)Language                                 : RussianDefault                                  : YesForced                                   : No

Audio #2ID                                       : 3Format                                   : AC-3Format/Info                              : Audio Coding 3Mode extension                           : CM (complete main)Codec ID                                 : A_AC3Duration                                 : 1h 49mnBit rate mode                            : ConstantBit rate                                 : 384 KbpsChannel(s)                               : 6 channelsChannel positions                        : Front: L C R, Side: L R, LFESampling rate                            : 48.0 KHzBit depth                                : 16 bitsCompression mode                         : LossyStream size                              : 300 MiB (16%)Title                                    : English-GermanLanguage                                 : EnglishDefault                                  : NoForced                                   : No

Text #1ID                                       : 4Format                                   : UTF-8Codec ID                                 : S_TEXT/UTF8Codec ID/Info                            : UTF-8 Plain TextTitle                                    : FullLanguage                                 : RussianDefault                                  : NoForced                                   : No

Text #2ID                                       : 5Format                                   : UTF-8Codec ID                                 : S_TEXT/UTF8Codec ID/Info                            : UTF-8 Plain TextTitle                                    : ForcedLanguage                                 : EnglishDefault                                  : NoForced                                   : No

Text #3ID                                       : 6Format                                   : UTF-8Codec ID                                 : S_TEXT/UTF8Codec ID/Info                            : UTF-8 Plain TextTitle                                    : FullLanguage                                 : EnglishDefault                                  : NoForced                                   : No

Menu00:00:00.000                             : en:Chapter 0100:04:50.207                             : en:Chapter 0200:10:04.687                             : en:Chapter 0300:16:42.001                             : en:Chapter 0400:21:47.139                             : en:Chapter 0500:29:48.745                             : en:Chapter 0600:35:53.526                             : en:Chapter 0700:41:57.557                             : en:Chapter 0800:46:00.800                             : en:Chapter 0900:55:15.687                             : en:Chapter 1001:00:26.206                             : en:Chapter 1101:08:10.586                             : en:Chapter 1201:13:37.705                             : en:Chapter 1301:19:46.740                             : en:Chapter 1401:24:30.983                             : en:Chapter 1501:30:09.070                             : en:Chapter 1601:36:55.977                             : en:Chapter 1701:40:35.738                             : en:Chapter 18

piratbit.ru

Женщина в золотом через торрент

Format                                   : MatroskaFormat version                           : Version 2File size                                : 2.18 GiBDuration                                 : 1h 49mnOverall bit rate                         : 2 852 KbpsMovie name                               : Woman in Gold.(2015).BDRip-AVC.[denis100]Encoded date                             : UTC 2016-05-04 08:36:55Writing application                      : mkvmerge v5.8.0 ('No Sleep / Pillow') built on Sep  2 2012 15:37:04Writing library                          : libebml v1.2.3 + libmatroska v1.3.0

VideoID                                       : 1Format                                   : AVCFormat/Info                              : Advanced Video CodecFormat profile                           : [email protected] settings, CABAC                   : YesFormat settings, ReFrames                : 11 framesCodec ID                                 : V_MPEG4/ISO/AVCDuration                                 : 1h 49mnBit rate                                 : 1 955 KbpsWidth                                    : 1 024 pixelsHeight                                   : 428 pixelsDisplay aspect ratio                     : 2.40:1Frame rate                               : 23.976 fpsColor space                              : YUVChroma subsampling                       : 4:2:0Bit depth                                : 8 bitsScan type                                : ProgressiveBits/(Pixel*Frame)                       : 0.186Stream size                              : 1.45 GiB (67%)Title                                    : Woman in Gold.(2015).BDRip-AVC.[denis100]Writing library                          : x264 core 148 r2692 64f4e24Encoding settings                        : cabac=1 / ref=11 / deblock=1:-3:-3 / analyse=0x3:0x133 / me=umh / subme=11 / psy=1 / psy_rd=1.00:0.00 / mixed_ref=1 / me_range=32 / chroma_me=1 / trellis=2 / 8x8dct=1 / cqm=0 / deadzone=21,11 / fast_pskip=0 / chroma_qp_offset=-2 / threads=6 / lookahead_threads=1 / sliced_threads=0 / nr=0 / decimate=1 / interlaced=0 / bluray_compat=0 / constrained_intra=0 / bframes=10 / b_pyramid=2 / b_adapt=2 / b_bias=0 / direct=3 / weightb=1 / open_gop=0 / weightp=2 / keyint=240 / keyint_min=23 / scenecut=40 / intra_refresh=0 / rc=2pass / mbtree=0 / bitrate=1955 / ratetol=1.0 / qcomp=0.60 / qpmin=0 / qpmax=69 / qpstep=4 / cplxblur=20.0 / qblur=0.5 / ip_ratio=1.40 / pb_ratio=1.30 / aq=1:1.00Language                                 : EnglishDefault                                  : YesForced                                   : No

Audio #1ID                                       : 2Format                                   : AC-3Format/Info                              : Audio Coding 3Mode extension                           : CM (complete main)Codec ID                                 : A_AC3Duration                                 : 1h 49mnBit rate mode                            : ConstantBit rate                                 : 448 KbpsChannel(s)                               : 6 channelsChannel positions                        : Front: L C R, Side: L R, LFESampling rate                            : 48.0 KHzBit depth                                : 16 bitsCompression mode                         : LossyStream size                              : 350 MiB (16%)Title                                    : MVO, FocusStudioLanguage                                 : RussianDefault                                  : YesForced                                   : No

Audio #2ID                                       : 3Format                                   : AC-3Format/Info                              : Audio Coding 3Mode extension                           : CM (complete main)Codec ID                                 : A_AC3Duration                                 : 1h 49mnBit rate mode                            : ConstantBit rate                                 : 448 KbpsChannel(s)                               : 6 channelsChannel positions                        : Front: L C R, Side: L R, LFESampling rate                            : 48.0 KHzBit depth                                : 16 bitsCompression mode                         : LossyStream size                              : 350 MiB (16%)Language                                 : EnglishDefault                                  : NoForced                                   : No

Text #1ID                                       : 4Format                                   : UTF-8Codec ID                                 : S_TEXT/UTF8Codec ID/Info                            : UTF-8 Plain TextLanguage                                 : RussianDefault                                  : NoForced                                   : No

Text #2ID                                       : 5Format                                   : UTF-8Codec ID                                 : S_TEXT/UTF8Codec ID/Info                            : UTF-8 Plain TextTitle                                    : ForcedLanguage                                 : EnglishDefault                                  : NoForced                                   : No

Text #3ID                                       : 6Format                                   : UTF-8Codec ID                                 : S_TEXT/UTF8Codec ID/Info                            : UTF-8 Plain TextLanguage                                 : EnglishDefault                                  : NoForced                                   : No

Menu00:00:00.000                             : en:Chapter 0100:04:50.207                             : en:Chapter 0200:10:04.687                             : en:Chapter 0300:16:42.001                             : en:Chapter 0400:21:47.139                             : en:Chapter 0500:29:48.745                             : en:Chapter 0600:35:53.526                             : en:Chapter 0700:41:57.557                             : en:Chapter 0800:46:00.800                             : en:Chapter 0900:55:15.687                             : en:Chapter 1001:00:26.206                             : en:Chapter 1101:08:10.586                             : en:Chapter 1201:13:37.705                             : en:Chapter 1301:19:46.740                             : en:Chapter 1401:24:30.983                             : en:Chapter 1501:30:09.070                             : en:Chapter 1601:36:55.977                             : en:Chapter 1701:40:35.738                             : en:Chapter 18

piratbit.ru

Женщина в золотом через торрент

GeneralUnique ID                   : 228713936374318875634898741014221106561 (0xAC10B3AE289348FAA636662A3A412D81)Complete name               : Zhenshcina.v.Zolotom.2015.DUAL.BDRip.x264.by_potroks.mkvFormat                      : MatroskaFormat version              : Version 4 / Version 2File size                   : 2.18 GiBDuration                    : 1h 49mnOverall bit rate            : 2 854 KbpsMovie name                  : Woman in Gold (2015)Encoded date                : UTC 2016-05-03 05:42:50Writing application         : mkvmerge v5.9.0 ('On The Loose') built on Dec 15 2012 16:39:58Writing library             : libebml v1.3.0 + libmatroska v1.4.0

VideoID                          : 1Format                      : AVCFormat/Info                 : Advanced Video CodecFormat profile              : [email protected] settings, CABAC      : YesFormat settings, ReFrames   : 10 framesCodec ID                    : V_MPEG4/ISO/AVCDuration                    : 1h 49mnBit rate                    : 1 959 KbpsWidth                       : 1 108 pixelsHeight                      : 464 pixelsDisplay aspect ratio        : 2.40:1Frame rate mode             : ConstantFrame rate                  : 23.976 (24000/1001) fpsColor space                 : YUVChroma subsampling          : 4:2:0Bit depth                   : 8 bitsScan type                   : ProgressiveBits/(Pixel*Frame)          : 0.159Stream size                 : 1.45 GiB (67%)Title                       : potroksWriting library             : x264 core 146 r2538 121396cEncoding settings           : cabac=1 / ref=10 / deblock=1:-2:-2 / analyse=0x3:0x113 / me=umh / subme=11 / psy=1 / psy_rd=1.05:0.10 / mixed_ref=1 / me_range=48 / chroma_me=1 / trellis=2 / 8x8dct=1 / cqm=0 / deadzone=21,11 / fast_pskip=0 / chroma_qp_offset=-3 / threads=9 / lookahead_threads=2 / sliced_threads=0 / nr=0 / decimate=0 / interlaced=0 / bluray_compat=0 / constrained_intra=0 / bframes=11 / b_pyramid=2 / b_adapt=2 / b_bias=0 / direct=3 / weightb=1 / open_gop=0 / weightp=2 / keyint=240 / keyint_min=23 / scenecut=40 / intra_refresh=0 / rc_lookahead=60 / rc=2pass / mbtree=0 / bitrate=1959 / ratetol=1.0 / qcomp=0.70 / qpmin=0 / qpmax=69 / qpstep=4 / cplxblur=20.0 / qblur=0.5 / vbv_maxrate=14000 / vbv_bufsize=14000 / nal_hrd=none / filler=0 / ip_ratio=1.40 / pb_ratio=1.30 / aq=1:0.80Language                    : EnglishDefault                     : YesForced                      : No

Audio #1ID                          : 2Format                      : AC-3Format/Info                 : Audio Coding 3Mode extension              : CM (complete main)Format settings, Endianness : BigCodec ID                    : A_AC3Duration                    : 1h 49mnBit rate mode               : ConstantBit rate                    : 448 KbpsChannel(s)                  : 6 channelsChannel positions           : Front: L C R, Side: L R, LFESampling rate               : 48.0 KHzFrame rate                  : 31.250 fps (1536 spf)Compression mode            : LossyStream size                 : 350 MiB (16%)Title                       : MVO | DD 5.1 @ 448 kbps - FocusStudioLanguage                    : RussianDefault                     : YesForced                      : No

Audio #2ID                          : 3Format                      : AC-3Format/Info                 : Audio Coding 3Mode extension              : CM (complete main)Format settings, Endianness : BigCodec ID                    : A_AC3Duration                    : 1h 49mnBit rate mode               : ConstantBit rate                    : 448 KbpsChannel(s)                  : 6 channelsChannel positions           : Front: L C R, Side: L R, LFESampling rate               : 48.0 KHzFrame rate                  : 31.250 fps (1536 spf)Compression mode            : LossyStream size                 : 350 MiB (16%)Title                       : Original | DD 5.1 @ 448 kbpsLanguage                    : EnglishDefault                     : NoForced                      : No

Text #1ID                          : 4Format                      : UTF-8Codec ID                    : S_TEXT/UTF8Codec ID/Info               : UTF-8 Plain TextLanguage                    : RussianDefault                     : NoForced                      : No

Text #2ID                          : 5Format                      : UTF-8Codec ID                    : S_TEXT/UTF8Codec ID/Info               : UTF-8 Plain TextTitle                       : ForcedLanguage                    : EnglishDefault                     : NoForced                      : No

Text #3ID                          : 6Format                      : UTF-8Codec ID                    : S_TEXT/UTF8Codec ID/Info               : UTF-8 Plain TextTitle                       : FullLanguage                    : EnglishDefault                     : NoForced                      : No

Text #4ID                          : 7Format                      : UTF-8Codec ID                    : S_TEXT/UTF8Codec ID/Info               : UTF-8 Plain TextTitle                       : SDHLanguage                    : EnglishDefault                     : NoForced                      : No

Text #5ID                          : 8Format                      : UTF-8Codec ID                    : S_TEXT/UTF8Codec ID/Info               : UTF-8 Plain TextTitle                       : SDH-ColoredLanguage                    : EnglishDefault                     : NoForced                      : No

Menu00:00:00.000                : en:Chapter 0100:04:50.207                : en:Chapter 0200:10:04.687                : en:Chapter 0300:16:42.001                : en:Chapter 0400:21:47.139                : en:Chapter 0500:29:48.745                : en:Chapter 0600:35:53.526                : en:Chapter 0700:41:57.557                : en:Chapter 0800:46:00.800                : en:Chapter 0900:55:15.687                : en:Chapter 1001:00:26.206                : en:Chapter 1101:08:10.586                : en:Chapter 1201:13:37.705                : en:Chapter 1301:19:46.740                : en:Chapter 1401:24:30.983                : en:Chapter 1501:30:09.070                : en:Chapter 1601:36:55.977                : en:Chapter 1701:40:35.738                : en:Chapter 18

piratbit.ru

Скачать фильм Женщина в золотом через торрент в хорошем качестве бесплатно 1080p

VideoID                                       : 1Format                                   : AVCFormat/Info                              : Advanced Video CodecFormat profile                           : [email protected] settings, CABAC                   : YesFormat settings, ReFrames                : 4 framesCodec ID                                 : V_MPEG4/ISO/AVCDuration                                 : 1h 49mnBit rate mode                            : VariableMaximum bit rate                         : 34.0 MbpsWidth                                    : 1 920 pixelsHeight                                   : 1 080 pixelsDisplay aspect ratio                     : 16:9Frame rate mode                          : ConstantFrame rate                               : 23.976 fpsColor space                              : YUVChroma subsampling                       : 4:2:0Bit depth                                : 8 bitsScan type                                : ProgressiveTitle                                    : Woman.in.Gold.2015.1080p.BluRay.REMUX.AVC.DTSLanguage                                 : EnglishDefault                                  : NoForced                                   : No

Audio #1ID                                       : 2Format                                   : DTSFormat/Info                              : Digital Theater SystemsFormat profile                           : MA / CoreMode                                     : 16Format settings, Endianness              : BigCodec ID                                 : A_DTSDuration                                 : 1h 49mnBit rate mode                            : VariableBit rate                                 : Unknown / 1 509 KbpsChannel(s)                               : 6 channelsChannel positions                        : Front: L C R, Side: L R, LFESampling rate                            : 48.0 KHzBit depth                                : 24 bitsCompression mode                         : Lossless / LossyTitle                                    : Woman.in.Gold.2015.1080p.BluRay.REMUX.AVC.DTSLanguage                                 : EnglishDefault                                  : YesForced                                   : No

Audio #2ID                                       : 3Format                                   : DTSFormat/Info                              : Digital Theater SystemsMode                                     : 16Format settings, Endianness              : BigCodec ID                                 : A_DTSDuration                                 : 1h 49mnBit rate mode                            : ConstantBit rate                                 : 1 509 KbpsChannel(s)                               : 6 channelsChannel positions                        : Front: L C R, Side: L R, LFESampling rate                            : 48.0 KHzBit depth                                : 24 bitsCompression mode                         : LossyStream size                              : 1.15 GiB (5%)Title                                    : Woman.in.Gold.2015.1080p.BluRay.REMUX.AVC.DTSLanguage                                 : EnglishDefault                                  : NoForced                                   : No

Audio #3ID                                       : 4Format                                   : AC-3Format/Info                              : Audio Coding 3Mode extension                           : CM (complete main)Format settings, Endianness              : BigCodec ID                                 : A_AC3Duration                                 : 1h 49mnBit rate mode                            : ConstantBit rate                                 : 448 KbpsChannel(s)                               : 6 channelsChannel positions                        : Front: L C R, Side: L R, LFESampling rate                            : 48.0 KHzBit depth                                : 16 bitsCompression mode                         : LossyStream size                              : 350 MiB (1%)Title                                    : Woman.in.Gold.2015.1080p.BluRay.REMUX.AVC.DTSLanguage                                 : SpanishDefault                                  : NoForced                                   : No

Audio #4ID                                       : 5Format                                   : AC-3Format/Info                              : Audio Coding 3Mode extension                           : CM (complete main)Format settings, Endianness              : BigCodec ID                                 : A_AC3Duration                                 : 1h 49mnBit rate mode                            : ConstantBit rate                                 : 192 KbpsChannel(s)                               : 2 channelsChannel positions                        : Front: L RSampling rate                            : 48.0 KHzBit depth                                : 16 bitsCompression mode                         : LossyStream size                              : 150 MiB (1%)Title                                    : Woman.in.Gold.2015.1080p.BluRay.REMUX.AVC.DTSLanguage                                 : EnglishDefault                                  : NoForced                                   : No

Text #1ID                                       : 6Format                                   : PGSMuxing mode                              : zlibCodec ID                                 : S_HDMV/PGSCodec ID/Info                            : Picture based subtitle format used on BDs/HD-DVDsLanguage                                 : EnglishDefault                                  : NoForced                                   : No

Text #2ID                                       : 7Format                                   : PGSMuxing mode                              : zlibCodec ID                                 : S_HDMV/PGSCodec ID/Info                            : Picture based subtitle format used on BDs/HD-DVDsLanguage                                 : SpanishDefault                                  : NoForced                                   : No

Text #3ID                                       : 8Format                                   : PGSMuxing mode                              : zlibCodec ID                                 : S_HDMV/PGSCodec ID/Info                            : Picture based subtitle format used on BDs/HD-DVDsLanguage                                 : EnglishDefault                                  : NoForced                                   : No

Text #4ID                                       : 9Format                                   : PGSMuxing mode                              : zlibCodec ID                                 : S_HDMV/PGSCodec ID/Info                            : Picture based subtitle format used on BDs/HD-DVDsLanguage                                 : SpanishDefault                                  : NoForced                                   : No

Menu00:00:00.000                             : en:Chapter 0100:04:50.206                             : en:Chapter 0200:10:04.687                             : en:Chapter 0300:16:42.001                             : en:Chapter 0400:21:47.139                             : en:Chapter 0500:29:48.745                             : en:Chapter 0600:35:53.526                             : en:Chapter 0700:41:57.556                             : en:Chapter 0800:46:00.799                             : en:Chapter 0900:55:15.353                             : en:Chapter 1001:00:26.205                             : en:Chapter 1101:08:10.586                             : en:Chapter 1201:13:37.704                             : en:Chapter 1301:19:46.406                             : en:Chapter 1401:24:30.982                             : en:Chapter 1501:30:09.070                             : en:Chapter 1601:36:55.976                             : en:Chapter 1701:40:35.738                             : en:Chapter 18

piratbit.ru


Смотрите также