Железный человек 3 торрент в хорошем качестве hd 1080


rutor.org :: Железный человек 3 / Iron Man 3 (2013) BDRip 1080p

main-rutor.org

Железный человек 3 / Iron Man 3«Герой будет сражен»

  • Страна: США, Китай
  • Студия: DMG Entertainment, Marvel Studios Inc.
  • Жанр: фантастика, боевик, приключения
  • Год выпуска: 2013
  • Продолжительность: 02:10:32
  • Перевод: русский и украинский профессиональный (полное дублирование) [Лицензия, BD EUR]
  • Оригинальная аудиодорожка: английская
  • Русские субтитры: есть
  • Режиссер: Шейн Блэк / Shane Black
  • В ролях: Роберт Дауни мл., Бен Кингсли, Гай Пирс, Гвинет Пэлтроу, Дон Чидл, Ребекка Холл, Пол Беттани, Джон Фавро, Уильям Сэдлер, Стэн Ли
  • Роли дублировали: Владимир Зайцев, Инга Сметанина, Михаил Тихонов, Денис Некрасов, Юрий Меншагин

    Когда мир Старка рушится на его глазах по вине неизвестных противников, Тони жаждет найти виновных и свести с ними счеты. Оказавшись в безвыходной ситуации, Старк может рассчитывать только на себя и свою изобретательность, чтобы защитить тех, кто ему дорог. Это становится настоящим испытанием для героя, которому придется не только сражаться с коварным врагом, но и разобраться в себе, чтобы найти ответ на вопрос, который давно его тревожит: что важнее — человек или костюм?

  • Тип релиза: BDRip 1080p (исходник: Железный человек 3 / Iron Man 3 (2013) Blu-ray Disc [EUR])
  • Контейнер: MKV
  • Видео кодек: x264
  • Аудио кодек: AC3
  • Видео: AVC / [email protected] / 2 pass / 23,976 fps / 1920x800p (2,40:1) / 6,8 Mbps / 0.185
  • Аудио 1: AC3 / 5.1 ch / 640 kbps / Русский дубляж, BD EUR
  • Аудио 2: AC3 / 2.0 ch / 192 kbps / Украинский дубляж, iTunes
  • Аудио 3: AC3 / 5.1 ch / 640 kbps / Английский original, BD EUR
  • Субтитры: [softsub SRT]Русские Forced, BD EUR (включены по умолчанию)Русские Full, BD EURУкраинские Forced, BD EURУкраинские Full, BD EURАнглийские Full, BD EURАнглийские SDH, mod. BD EUR
  • Дополнительно: Сохранены оригинальные чаптеры (главы) как на Blu-rayРаздача от:

    Дополнительно о фильме:

    Знаете ли вы, что...

    • Разрушение особняка Старка снималось в водяном баке на студии EUE/Screen Gems Studios. • Если считать сцену после титров в фильме «Невероятный Халк» (2008), то это пятый раз, когда Роберт Дауни-мл. играет роль Тони Старка / Железного Человека. • Железный Человек создан Стэном Ли, Ларри Либиром, Доном Хеком и Джеком Кирби в 1963 году в комиксе Tales of Suspense, # 39. • Джемма Артертон, Дайан Крюгер и Айла Фишер рассматривались на роль, которую в итоге получила Джессика Честейн. Однако из-за конфликта в графике Честейн впоследствии пришлось отказаться от съемок в картине. Ее заменила Ребекка Холл. • Джуд Лоу рассматривался на роль Олдрича Киллиана. • Студия Disney купила у Paramount права на распространение за 115 миллионов долларов. Также в эту сделку попал и фильм «Мстители» (2012). Однако, как и с «Мстителями», одним из условий сделки было то, что студия Disney будет упоминаться только в финальных титрах как дистрибьютор Walt Disney Studios Motion Pictures. • Первоначально Marvel Studios и Walt Disney Pictures собирались снимать этот фильм в Мичигане из-за налоговых льгот. После того как Северная Каролина гарантировала налоговую скидку в 20 миллионов долларов, продюсеры решили проводить съемки там вместо Мичигана. • Это первый фильм серии, чьим режиссером не стал Джон Фавро, который также отказался заниматься фильмами «Волшебное королевство» и «Парни из Джерси». Он признался, что получил даже больше удовольствия от игры роли Хогана в третьей части «Железного человека», не занимаясь при этом режиссурой фильма. Как он выразился, он был как «гордый дедушка, который может играть с ребенком, но при этом ему не придется менять подгузники». • Одна из сцен была снята в помещении компании Epic Games. Этот разработчик видеоигр известен своей франшизой Gears of War. • В комиксах псевдоним Железный Патриот принадлежал противнику Человека-паука, Зеленому Гоблину. В этом фильме это новый набор брони Железного Человека, на которую нанесена расцветка Капитана Америка. Продюсер Кевин Файги сказал: «Это «Мстители» спасли всех, а не правительство, которое чувствует, что ему нужен свой собственный герой. Это дало нам больший простор, чтобы поработать над персонажем Роуди, показать, как он разрывается между лояльностью к своему другу и своими должностными обязанностями». • Работа над фильмом была приостановлена 15 августа 2012 года, когда Роберт Дауни-мл. повредил лодыжку во время исполнения трюка. • Шейн Блэк описал фильм как «триллер Тома Клэнси» с акцентом на реальных злодеях, а не на «двух мужчинах в железных костюмах, сражающихся друг с другом». • Кевин Файги описал этот фильм так: «Фильм полностью сконцентрирован на Тони Старке. Его лишили всего, и ему придется использовать свой интеллект, чтобы найти выход из этого положения. Он не может позвать Тора, Капитана Америка или Ника Фьюри». Роберт Дауни-мл. описал своего персонажа как находящегося под влиянием мира после событий фильма «Мстители» (2012). • Энди Лау предлагали роль Радиоактивного Человека, но он отказался в связи с рождением своего первого ребенка. Затем Чэнь Даомин и Ву Сюбовере (Wu Xiubowere) рассматривались на эту роль, но в итоге она досталась Сюэци Вану. • Роберт Дауни-мл. ранее снимался в фильме Шейна Блэка «Поцелуй навылет» (2005) и положительно отзывался о том, что он пришел на смену Джону Фавро, сказав, что «привлечение в проект Блэка на роль сценариста и режиссера было единственным возможным вариантом, на который Фавро, студия Marvel и я могли подписаться». • Это первый раз, когда Сэмюэл Л. Джексон не появится в фильме о Железном Человеке как Ник Фьюри. • Фильм снят отчасти по комиксам серии Extremis Уоррена Эллиса и Sentient Armor Джо Куэсады, а также по оригинальной истории о противнике Железного Человека, Мандарине. • В отличие от первых двух фильмов серии, в этом компания Industrial Light and Magic уже не работала над видеоэффектами. Вместо нее этим занимались Digital Domain и Weta Digital. • По словам Кевина Файги, персонаж Мандарина был создан по образу полковника Курца из фильма «Апокалипсис сегодня» (1979). «Он представляет такой род террористов, которые работали на разведывательное ведомство и сходили с ума, становясь одержимыми военными тактиками». • A. I. M. («Передовые идеи механики») — это научная организация, возглавляемая Олдричем Киллианом. В комиксах это была более простая организация злых ученых-террористов. • Съемки фильма начались 25 мая 2012 в Уилмингтоне, Северная Каролина. Павильонные съемки прошли на студии Sony Screen Gems Studios. Среди других съемочных локаций: Роули, Северная Каролина и Майами, Флорида. • Декорации знаменитого особняка Старка были отстроены за 16 недель в Уилмингтоне, Новая Каролина. Вся конструкция была построена на шарнирной платформе, позволяющей наклонять здание под углом 45 градусов, что расширило возможности для съемок сцены атаки на дом. • Художник по реквизиту Рассел Боббит, который уже работал над предыдущими частями франшизы «Железный человек», вновь присоединился к проекту. Его любимый реквизит — 10 колец Мандарина. Он много общался с ювелирными мастерскими, и в результате удалось разработать 10 уникальных колец с разными камнями, выполненных по индивидуальному рисунку. Весь процесс создания украшений занял несколько месяцев. • Поп-арт художник Баск из Флориды был нанят специально для создания картин из офиса и спальни Мандарина. Картины должны были отражать сущность злодея. Несмотря на то, что Баск работает в жанре поп-арт, его работы для фильма были вдохновлены комиксами, граффити и панк-рок эстетикой. • Внимание! Дальнейший список фактов о фильме содержит спойлеры. Будьте осторожны. • В фильме есть сцена, где 13 человек выпадают из самолета и Железный человек пытается спасти их всех, несмотря на то, что костюм позволяет удержать лишь четверых. При участии профессиональной команды скайдайверов Red Bull, тщательнейшим образом спланированные и выверенные до секунды прыжки осуществлялись в течение 10 дней, всего же в съемках сцены приняли участие 630 парашютистов.

    Технические детали съёмки:

    Производство, студия дубляжа, прокат:

    Log x264:

    x264 [info]: frame I:1758 Avg QP:12.55 size:203099 x264 [info]: frame P:50476 Avg QP:15.65 size: 68935 x264 [info]: frame B:135567 Avg QP:17.56 size: 20807

    MediaInfo:

    Общее Уникальный идентификатор : 236221673547190076054692500611946282216 (0xB1B6A3B3A2DA05578EE82BFC12647CE8) Полное имя : F:Скачка торрентIron.man.3.2013.BDRip1080p(Killbrain).mkv Формат : Matroska Версия формата : Version 4 / Version 2 Размер файла : 7,55 Гбайт Продолжительность : 2 ч. 10 м. Общий поток : 8274 Кбит/сек Название фильма : Iron man 3 (2013) by Killbrain Дата кодирования : UTC 2013-08-22 17:32:03 Программа кодирования : mkvmerge v6.3.0 ('You can't stop me!') built on Jun 28 2013 20:09:41 Библиотека кодирования : libebml v1.3.0 + libmatroska v1.4.0

    Видео Идентификатор : 1 Формат : AVC Формат/Информация : Advanced Video Codec Профиль формата : [email protected] Параметр CABAC формата : Да Параметр ReFrames формата : 4 кадра Идентификатор кодека : V_MPEG4/ISO/AVC Продолжительность : 2 ч. 10 м. Битрейт : 6800 Кбит/сек Ширина : 1920 пикселей Высота : 800 пикселей Соотношение сторон : 2,40:1 Режим частоты кадров : Постоянный Частота кадров : 23,976 кадра/сек Цветовое пространство : YUV Субдискретизация насыщенности : 4:2:0 Битовая глубина : 8 бит Тип развёртки : Прогрессивная Бит/(Пиксели*Кадры) : 0.185 Размер потока : 6,05 Гбайт (80%) Заголовок : Iron man 3 (2013) Библиотека кодирования : x264 core 135 r2345 f0c1c53 Настройки программы : cabac=1 / ref=4 / deblock=1:-3:-3 / analyse=0x3:0x113 / me=umh / subme=10 / psy=1 / psy_rd=1.00:0.15 / mixed_ref=1 / me_range=32 / chroma_me=1 / trellis=2 / 8x8dct=1 / cqm=0 / deadzone=21,11 / fast_pskip=0 / chroma_qp_offset=-3 / threads=3 / lookahead_threads=1 / sliced_threads=0 / nr=0 / decimate=0 / interlaced=0 / bluray_compat=0 / constrained_intra=0 / bframes=8 / b_pyramid=2 / b_adapt=2 / b_bias=0 / direct=3 / weightb=1 / open_gop=0 / weightp=2 / keyint=240 / keyint_min=24 / scenecut=40 / intra_refresh=0 / rc_lookahead=60 / rc=2pass / mbtree=0 / bitrate=6800 / ratetol=1.0 / qcomp=0.65 / qpmin=0 / qpmax=69 / qpstep=4 / cplxblur=20.0 / qblur=0.5 / vbv_maxrate=40000 / vbv_bufsize=30000 / nal_hrd=none / ip_ratio=1.40 / pb_ratio=1.30 / aq=2:0.80 Язык : English Default : Да Forced : Нет

    Аудио #1 Идентификатор : 2 Формат : AC-3 Формат/Информация : Audio Coding 3 Расширение режима : CM (complete main) Параметр Endianness формата : Big Идентификатор кодека : A_AC3 Продолжительность : 2 ч. 10 м. Вид битрейта : Постоянный Битрейт : 640 Кбит/сек Каналы : 6 каналов Расположение каналов : Front: L C R, Side: L R, LFE Частота : 48,0 КГц Битовая глубина : 16 бит Метод сжатия : С потерями Размер потока : 598 Мбайт (8%) Заголовок : AC3 / 5.1 ch / 640 kbps / Русский дубляж, BD EUR Язык : Russian Default : Да Forced : Нет

    Аудио #2 Идентификатор : 3 Формат : AC-3 Формат/Информация : Audio Coding 3 Расширение режима : CM (complete main) Параметр Endianness формата : Big Идентификатор кодека : A_AC3 Продолжительность : 2 ч. 10 м. Вид битрейта : Постоянный Битрейт : 192 Кбит/сек Каналы : 2 канала Расположение каналов : Front: L R Частота : 48,0 КГц Битовая глубина : 16 бит Метод сжатия : С потерями Размер потока : 179 Мбайт (2%) Заголовок : AC3 / 2.0 ch / 192 kbps / Украинский дубляж, iTunes Язык : Ukrainian Default : Нет Forced : Нет

    Аудио #3 Идентификатор : 4 Формат : AC-3 Формат/Информация : Audio Coding 3 Расширение режима : CM (complete main) Параметр Endianness формата : Big Идентификатор кодека : A_AC3 Продолжительность : 2 ч. 10 м. Вид битрейта : Постоянный Битрейт : 640 Кбит/сек Каналы : 6 каналов Расположение каналов : Front: L C R, Side: L R, LFE Частота : 48,0 КГц Битовая глубина : 16 бит Метод сжатия : С потерями Размер потока : 598 Мбайт (8%) Заголовок : AC3 / 5.1 ch / 640 kbps / Английский original, BD EUR Язык : English Default : Нет Forced : Нет

    Текст #1 Идентификатор : 5 Формат : UTF-8 Идентификатор кодека : S_TEXT/UTF8 Идентификатор кодека/Информация : UTF-8 Plain Text Заголовок : Forced, BD EUR Язык : Russian Default : Да Forced : Нет

    Текст #2 Идентификатор : 6 Формат : UTF-8 Идентификатор кодека : S_TEXT/UTF8 Идентификатор кодека/Информация : UTF-8 Plain Text Заголовок : Full, BD EUR Язык : Russian Default : Нет Forced : Нет

    Текст #3 Идентификатор : 7 Формат : UTF-8 Идентификатор кодека : S_TEXT/UTF8 Идентификатор кодека/Информация : UTF-8 Plain Text Заголовок : Forced, BD EUR Язык : Ukrainian Default : Нет Forced : Нет

    Текст #4 Идентификатор : 8 Формат : UTF-8 Идентификатор кодека : S_TEXT/UTF8 Идентификатор кодека/Информация : UTF-8 Plain Text Заголовок : Full, BD EUR Язык : Ukrainian Default : Нет Forced : Нет

    Текст #5 Идентификатор : 9 Формат : UTF-8 Идентификатор кодека : S_TEXT/UTF8 Идентификатор кодека/Информация : UTF-8 Plain Text Заголовок : Full, BD EUR Язык : English Default : Нет Forced : Нет

    Текст #6 Идентификатор : 10 Формат : UTF-8 Идентификатор кодека : S_TEXT/UTF8 Идентификатор кодека/Информация : UTF-8 Plain Text Заголовок : SDH, mod. BD EUR Язык : English Default : Нет Forced : Нет

    Меню 00:00:00.000 : :Chapter 01 00:04:52.750 : :Chapter 02 00:07:55.433 : :Chapter 03 00:12:12.440 : :Chapter 04 00:19:04.101 : :Chapter 05 00:23:47.884 : :Chapter 06 00:29:47.702 : :Chapter 07 00:39:46.384 : :Chapter 08 00:45:56.044 : :Chapter 09 00:59:19.639 : :Chapter 10 01:01:56.921 : :Chapter 11 01:09:24.451 : :Chapter 12 01:18:41.508 : :Chapter 13 01:23:52.944 : :Chapter 14 01:37:55.995 : :Chapter 15 01:56:18.304 : :Chapter 16 01:59:38.754 : :Chapter 17

    Немного рецензий с Кинопоиска.Ру:

  • Обсуждение Фильмов - Железный человек 3

    Фильмы: Железный человек 3 / Iron Man 3 (2013) Подробнее

    Когда мир Старка рушится на его глазах по вине неизвестных противников, Тони жаждет найти виновных и свести с ними счеты. Оказавшись в безвыходной ситуации, Старк может рассчитывать только на себя и свою изобретательность, чтобы защитить тех, кто ему дорог. Это становится настоящим испытанием для героя, которому придется не только сражаться с коварным врагом, но и разобраться в себе, чтобы найти ответ на вопрос, который давно его тревожит: что важнее — человек или костюм?

    SSSWW 753

    Возраст:25 Мужской

    Сообщений: 2605 Добавили бы других героев, из других стран, которые долбят америкосов Его обещали в 3D кстати! жду не дождусь, хочу посмотреть, надеюсь будет ни чуть не хуже 1 и 2 части mr.Mars 16

    Возраст:26 Мужской

    Сообщений: 222

    Cogitations poenam nemo patitur

    Быстрей бы уже

    I found freedom. Losing all hope was freedom kosyakoff 5 62

    Возраст:37 Мужской

    Сообщений: 655

    kinomen+++ДОБРЫЙ но СПАВЕДЛИВЫЙ.

    Да согласен, очень жду с нетерпением. [Mickey.Mouse]

    Возраст:29 Мужской

    Сообщений: 169

    скорее бы он вышел

    user501808 1

    Возраст:7 не указан

    Сообщений: 109

    "Вампиры из Сумерек искусали Шварца и Брюса, и они мстят теперь, прикиньте Крепкий орешек и Возвращение героя Vs Суммерки и к ним еще присоединяется железный человек с командой( капитан америка, человек паук и др.), это же Супер-Мега Кино получится и снимать можно бесконечно, они же бессмертны!!!"Бл. ну сколько же можно переснимать одно и тоже, самих режиссеров и продюсеров не тянет блевать от этого. Написано миллионы книг, берите снимайте что то то чего еще нет, но нет же нужно сорвать бабло на уже известном, хз не понимаю людей которые идут на эту хрень, бездарность современных режиссёров налицо.

    Лучок 72

    Возраст:39 Мужской

    Сообщений: 239

    Слушайте меня и радио

    Смотрел !!! - полная Лажа !!! Лучше Сумерики посмотреть

    Есть чёо

    Чуззи 124

    Возраст:29 Мужской

    Сообщений: 85 Тони мы тебя жжждддёёёмммм!!!!!!!!!!!!!!!!!!!!!!!!!! islan 413

    Возраст:33 Мужской

    Сообщений: 18

    Лучок пишет:

    Смотрел !!! - полная Лажа !!! Лучше Сумерики посмотреть сумерки фильм для дибилов смотри сам! а нормальные люди смотрят умные фильмы! Polina Holmes

    Karma:+17 / -5

    [+] [-] 25

    Возраст:101 Женский

    Сообщений: 10

    islan пишет:

    Лучок пишет:

    Смотрел !!! - полная Лажа !!! Лучше Сумерики посмотреть сумерки фильм для дибилов смотри сам! а нормальные люди смотрят умные фильмы! islan Потдерживаю ! townboy

    Karma:+2 / -0

    [+] [-]

    Возраст:Не указан не указан

    Сообщений: 1

    Хороший фильм, актёр смахивает на Джонни Деппа! буд ждать!

    =Wolverine= 89

    Возраст:32 Мужской

    Сообщений: 102

    My life... My rules...

    Дауни молотчага, жаль только что зрелищных фильмов с его участием раз, два и обчелся.

    Sanek2700 8

    Возраст:22 Мужской

    Сообщений: 31

    Лучок пишет:

    Смотрел !!! - полная Лажа !!! Лучше Сумерики посмотреть смотрел? класный должно быть у тебя телевизор показывает фильмы которые выйдут через пол года, где покупал? возьму себе такой же. xSander 6

    Возраст:28 Мужской

    Сообщений: 49

    .:Foxxy:. пишет:

    Sanek2700 пишет:

    Лучок пишет:

    Смотрел !!! - полная Лажа !!! Лучше Сумерики посмотреть смотрел? класный должно быть у тебя телевизор показывает фильмы которые выйдут через пол года, где покупал? возьму себе такой же. Ловите +

    и мне этот чудо-телевизор!!!!

    думаю эта часть будет не хуже двух предыдущих. ожидаю лучшего

    rusi4 58

    Возраст:43 Мужской

    Сообщений: 181

    Не отступать, и не сдаваться!

    Этот фильм по определению не может быть плохим. С не терпением жду. И да, мне бы тоже такой телевизор Trainsman 122

    Возраст:23 Мужской

    Сообщений: 183 author==Wolverine= Дауни молотчага, жаль только что зрелищных фильмов с его участием раз, два и обчелся.

    Посмотри комедию "Впритык". Ржачный кин))

    Vai Kesh 414

    Возраст:22 Мужской

    Сообщений: 358

    Jedem das Seine.

    Жду, жду, жду!Должно получиться классное кино!:)

    Каждому своё. Давайте уважать чужое мнение.

    i-cran 5

    Возраст:6 не указан

    Сообщений: 16 А он в 3D ,кто-нибудь знает? Я почти фанат))) Дауни мл. просто супер!!!Гений,миллиардер,плейбой, филантроп JayTi 268

    Возраст:34 Мужской

    Сообщений: 31

    JayTi

    Сейчас только в 5Z - 3D уже не будет!

    sergikL25 28

    Возраст:217 не указан

    Сообщений: 12 Браво создателям ,не останавливаются на достигнутом !Так держать!!! Ну а мы будем ждать l_ALEX_l

    Возраст:32 Мужской

    Сообщений: 40

    надеюсь здесь то хоть русских не преплели. а то достали уже долбаные амерекосы в своих фильмах показывать какие мы плохие

    люблю смотреть кино

    ждемс люблю марвеловские фильмы тор, мститель. халк. Shed 2 289

    Возраст:22 Мужской

    Сообщений: 122

    Пока Тони Старк не разочарововал, надеюсь, этот порадует

    Trancer 1

    Возраст:31 Мужской

    Сообщений: 137

    Очень жду выход этого фильма! Однозначно пойду в кинотеатр смотреть! Круто! Все фильмы про железного человека были крутые! Надеюсь не разочарует!

    Hramelk95 187

    Возраст:21 Мужской

    Сообщений: 31

    Не можем ходить, будем бегать.

    У меня сердце чуть не останавилось в конце второго трейлера Жду недождусь!

    Вы не можете оставлять больше 10 комментариев в сутки!

    www.fast-torrent.ru

    Железный человек 3 / Iron Man 3 (2013) BDRip 1080p | 3D-Video

    Описание: Когда мир Старка рушится на его глазах по вине неизвестных противников, Тони жаждет найти виновных и свести с ними счеты. Оказавшись в безвыходной ситуации, Старк может рассчитывать только на себя и свою изобретательность, чтобы защитить тех, кто ему дорог. Это становится настоящим испытанием для героя, которому придется не только сражаться с коварным врагом, но и разобраться в себе, чтобы найти ответ на вопрос, который давно его тревожит: что важнее — человек или костюм?

    Рейтинг MPAA:  Детям до 13 лет просмотр не желателен

    Качество: BDRip от Формат: MKVФормат 3D: Half-SBS / Горизонтальная анаморфная стереопараПорядок ракурсов: Параллельная параВидео кодек: H.264 (AVC)Аудио кодеk: AC3Видео: 1920x800 (2.40:1), 23.976 fps, AVC, 12.0 MbpsАудио: Аудио #1: AC3, 640 Kbps, 48.0 KHz, 6 ch RUS DubАудио #2: AC3, 192 Kbps, 48.0 KHz, 2 ch UKR DubАудио #3: AC3, 640 Kbps, 48.0 KHz, 6 ch ENGСубтитры: Russian (forced), Ukrainian (forced), Russian (full), Ukrainian (full), English (full)

    МедиаИнфо

    General

    Unique ID : 199249838042813900697643246996504271837 (0x95E61F79A8525BF6A958781F803D5BDD)

    Complete name : Iron.Man.3.2013.3D.BluRay.HSBS.1080p-CHD3D .mkv

    Format : Matroska

    Format version : Version 4 / Version 2

    File size : 12.5 GiB

    Duration : 2h 10mn

    Overall bit rate : 13.8 Mbps

    Movie name : IRON_MAN_3_3D_BLUEBIRD.Title800.Bluray3DRip

    Encoded date : UTC 2013-08-23 08:21:21

    Writing application : mkvmerge v6.2.0 ('Promised Land') built on Apr 28 2013 12:22:01

    Writing library : libebml v1.3.0 + libmatroska v1.4.0

    Video

    ID : 1

    Format : AVC

    Format/Info : Advanced Video Codec

    Format profile : [email protected]

    Format settings, CABAC : Yes

    Format settings, ReFrames : 3 frames

    Format settings, GOP : M=4, N=24

    Codec ID : V_MPEG4/ISO/AVC

    Duration : 2h 10mn

    Bit rate : 12.0 Mbps

    Width : 1 920 pixels

    Height : 800 pixels

    Display aspect ratio : 2.40:1

    Frame rate mode : Constant

    Frame rate : 23.976 fps

    Color space : YUV

    Chroma subsampling : 4:2:0

    Bit depth : 8 bits

    Scan type : Progressive

    Bits/(Pixel*Frame) : 0.326

    Stream size : 10.9 GiB (87%)

    Writing library : x264 core

    Default : Yes

    Forced : No

    Color primaries : BT.709

    Transfer characteristics : BT.709

    Matrix coefficients : BT.709

    Audio #1

    ID : 2

    Format : AC-3

    Format/Info : Audio Coding 3

    Mode extension : CM (complete main)

    Format settings, Endianness : Big

    Codec ID : A_AC3

    Duration : 2h 10mn

    Bit rate mode : Constant

    Bit rate : 640 Kbps

    Channel(s) : 6 channels

    Channel positions : Front: L C R, Side: L R, LFE

    Sampling rate : 48.0 KHz

    Bit depth : 16 bits

    Compression mode : Lossy

    Stream size : 598 MiB (5%)

    Language : Russian

    Default : Yes

    Forced : No

    Audio #2

    ID : 3

    Format : AC-3

    Format/Info : Audio Coding 3

    Mode extension : CM (complete main)

    Format settings, Endianness : Big

    Codec ID : A_AC3

    Duration : 2h 10mn

    Bit rate mode : Constant

    Bit rate : 192 Kbps

    Channel(s) : 2 channels

    Channel positions : Front: L R

    Sampling rate : 48.0 KHz

    Bit depth : 16 bits

    Compression mode : Lossy

    Stream size : 179 MiB (1%)

    Language : Ukrainian

    Default : No

    Forced : No

    Audio #3

    ID : 4

    Format : AC-3

    Format/Info : Audio Coding 3

    Mode extension : CM (complete main)

    Format settings, Endianness : Big

    Codec ID : A_AC3

    Duration : 2h 10mn

    Bit rate mode : Constant

    Bit rate : 640 Kbps

    Channel(s) : 6 channels

    Channel positions : Front: L C R, Side: L R, LFE

    Sampling rate : 48.0 KHz

    Bit depth : 16 bits

    Compression mode : Lossy

    Stream size : 598 MiB (5%)

    Language : English

    Default : No

    Forced : No

    Text #1

    ID : 5

    Format : UTF-8

    Codec ID : S_TEXT/UTF8

    Codec ID/Info : UTF-8 Plain Text

    Title : forced

    Language : Russian

    Default : Yes

    Forced : No

    Text #2

    ID : 6

    Format : UTF-8

    Codec ID : S_TEXT/UTF8

    Codec ID/Info : UTF-8 Plain Text

    Title : forced

    Language : Ukrainian

    Default : No

    Forced : No

    Text #3

    ID : 7

    Format : UTF-8

    Codec ID : S_TEXT/UTF8

    Codec ID/Info : UTF-8 Plain Text

    Title : full

    Language : Russian

    Default : No

    Forced : No

    Text #4

    ID : 8

    Format : UTF-8

    Codec ID : S_TEXT/UTF8

    Codec ID/Info : UTF-8 Plain Text

    Title : full

    Language : Ukrainian

    Default : No

    Forced : No

    Text #5

    ID : 9

    Format : UTF-8

    Codec ID : S_TEXT/UTF8

    Codec ID/Info : UTF-8 Plain Text

    Title : full

    Language : English

    Default : No

    Forced : No

    Menu

    00:00:00.000 : en:(01)00:00:00:000

    00:04:52.750 : en:(02)00:04:52:750

    00:07:55.433 : en:(03)00:07:55:433

    00:12:12.440 : en:(04)00:12:12:440

    00:19:04.101 : en:(05)00:19:04:101

    00:23:47.884 : en:(06)00:23:47:884

    00:29:47.702 : en:(07)00:29:47:702

    00:39:46.384 : en:(08)00:39:46:384

    00:45:56.044 : en:(09)00:45:56:044

    00:59:19.639 : en:(10)00:59:19:639

    01:01:56.921 : en:(11)01:01:56:921

    01:09:24.451 : en:(12)01:09:24:451

    01:18:41.508 : en:(13)01:18:41:508

    01:23:52.944 : en:(14)01:23:52:944

    01:37:55.995 : en:(15)01:37:55:995

    01:56:18.304 : en:(16)01:56:18:304

    01:59:38.754 : en:(17)01:59:38:754

    02:10:32.616 : en:(18)02:10:32:616

    Знаете ли Вы, что...

    ★ Съемки фильма начались 25 мая 2012 в Уилмингтоне, Северная Каролина. Павильонные съемки прошли на студии Sony Screen Gems Studios. Среди других съемочных локаций: Роули, Северная Каролина и Майами, Флорида.

    ★ Энди Лау предлагали роль Радиоактивного Человека, но он отказался в связи с рождением своего первого ребенка. Затем Чэнь Даомин и Ву Сюбовере (Wu Xiubowere) рассматривались на эту роль, но в итоге она досталась Сюэци Вану.

    ★ Джуд Лоу рассматривался на роль Олдрича Киллиана.

    ★ Железный Человек создан Стэном Ли, Ларри Либиром, Доном Хеком и Джеком Кирби в 1963 году в комиксе Tales of Suspense, # 39.

    ★ Джемма Артертон, Дайан Крюгер и Айла Фишер рассматривались на роль, которую в итоге получила Джессика Честейн. Однако из-за конфликта в графике Честейн впоследствии пришлось отказаться от съемок в картине. Ее заменила Ребекка Холл.

    ★ Студия Disney купила у Paramount права на распространение за 115 миллионов долларов. Также в эту сделку попал и фильм «Мстители» (2012). Однако, как и с «Мстителями», одним из условий сделки было то, что студия Disney будет упоминаться только в финальных титрах как дистрибьютор Walt Disney Studios Motion Pictures.

    ★ Первоначально Marvel Studios и Walt Disney Pictures собирались снимать этот фильм в Мичигане из-за налоговых льгот. После того как Северная Каролина гарантировала налоговую скидку в 20 миллионов долларов, продюсеры решили проводить съемки там вместо Мичигана.

    ★ Если считать сцену перед титрами в фильме «Невероятный Халк» (2008), то это пятый раз, когда Роберт Дауни-мл. играет роль Тони Старка / Железного Человека.

    ★ Это первый фильм серии, чьим режиссером не стал Джон Фавро, который также отказался заниматься фильмами «Волшебное королевство» и «Парни из Джерси». Он признался, что получил даже больше удовольствия от игры роли Хогана в третьей части «Железного человека», не занимаясь при этом режиссурой фильма. Как он выразился, он был как «гордый дедушка, который может играть с ребенком, но при этом ему не придется менять подгузники».

    ★ Одна из сцен была снята в помещении компании Epic Games. Этот разработчик видеоигр известен своей франшизой Gears of War.

    ★ В комиксах псевдоним Железный Патриот принадлежал противнику Человека-паука, Зеленому Гоблину. В этом фильме это новый набор брони Железного Человека, на которую нанесена расцветка Капитана Америка. Продюсер Кевин Файги сказал: «Это «Мстители» спасли всех, а не правительство, которое чувствует, что ему нужен свой собственный герой. Это дало нам больший простор, чтобы поработать над персонажем Роуди, показать, как он разрывается между лояльностью к своему другу и своими должностными обязанностями».

    ★ Работа над фильмом была приостановлена 15 августа 2012 года, когда Роберт Дауни-мл. повредил лодыжку во время исполнения трюка.

    ★ Шейн Блэк описал фильм как «триллер Тома Клэнси» с акцентом на реальных злодеях, а не на «двух мужчинах в железных костюмах, сражающихся друг с другом».

    ★ Кевин Файги описал этот фильм так: «Фильм полностью сконцентрирован на Тони Старке. Его лишили всего, и ему придется использовать свой интеллект, чтобы найти выход из этого положения. Он не может позвать Тора, Капитана Америка или Ника Фьюри». Роберт Дауни-мл. описал своего персонажа как находящегося под влиянием мира после событий фильма «Мстители» (2012).

    ★ Роберт Дауни-мл. ранее снимался в фильме Шейна Блэка «Поцелуй навылет» (2005) и положительно отзывался о том, что он пришел на смену Джону Фавро, сказав, что «привлечение в проект Блэка на роль сценариста и режиссера было единственным возможным вариантом, на который Фавро, студия Marvel и я могли подписаться».

    ★ Это первый раз, когда Сэмюэл Л. Джексон не появится в фильме о Железном Человеке как Ник Фьюри.

    ★ Фильм снят отчасти по комиксам серии Extremis Уоррена Эллиса и Sentient Armor Джо Куэсады, а также по оригинальной истории о противнике Железного Человека, Мандарине.

    ★ В отличие от первых двух фильмов серии, в этом компания Industrial Light and Magic уже не работала над видеоэффектами. Вместо нее этим занимались Digital Domain и Weta Digital.

    ★ По словам Кевина Файги, персонаж Мандарина был создан по образу полковника Курца из фильма «Апокалипсис сегодня» (1979). «Он представляет такой род террористов, которые работали на разведывательное ведомство и сходили с ума, становясь одержимыми военными тактиками».

    ★ A. I. M. («Передовые идеи механики») — это научная организация, возглавляемая Олдричем Киллианом. В комиксах это была более простая организация злых ученых-террористов.

    ★ Разрушение особняка Старка снималось в водяном баке на студии EUE/Screen Gems Studios.

    ★ Декорации знаменитого особняка Старка были отстроены за 16 недель в Уилмингтоне, Новая Каролина. Вся конструкция была построена на шарнирной платформе, позволяющей наклонять здание под углом 45 градусов, что расширило возможности для съемок сцены атаки на дом.

    ★ Художник по реквизиту Рассел Боббит, который уже работал над предыдущими частями франшизы «Железный человек», вновь присоединился к проекту. Его любимый реквизит — 10 колец Мандарина. Он много общался с ювелирными мастерскими, и в результате удалось разработать 10 уникальных колец с разными камнями, выполненных по индивидуальному рисунку. Весь процесс создания украшений занял несколько месяцев.

    ★ Поп-арт художник Баск из Флориды был нанят специально для создания картин из офиса и спальни Мандарина. Картины должны были отражать сущность злодея. Несмотря на то, что Баск работает в жанре поп-арт, его работы для фильма были вдохновлены комиксами, граффити и панк-рок эстетикой.

    ★ В фильме есть сцена, где 13 человек выпадают из самолета и Железный человек пытается спасти их всех, несмотря на то, что костюм позволяет удержать лишь четверых. При участии профессиональной команды скайдайверов Red Bull, тщательнейшим образом спланированные и выверенные до секунды прыжки осуществлялись в течение 10 дней, всего же в съемках сцены приняли участие 630 парашютистов.

    allbesta.cc

    rutor.org :: Железный человек 3 / Iron Man 3 (2013) BDRip 1080p ::: Скачать торрент

    main-rutor.org

    Информация о фильмеНазвание: Железный человек 3Оригинальное название: Iron Man 3Год выхода: 2013Жанр: фантастика, боевик, приключенияРежиссер: Шейн БлэкВ ролях: Роберт Дауни мл., Гвинет Пэлтроу, Дон Чидл, Гай Пирс, Бен Кингсли, Джеймс Бэдж Дэйл, Ребекка Холл, Тай Симпкинс, Уильям Сэдлер, Джон Фавро

    О фильме: Когда мир Старка рушится на его глазах по вине неизвестных противников, Тони жаждет найти виновных и свести с ними счеты. Оказавшись в безвыходной ситуации, Старк может рассчитывать только на себя и свою изобретательность, чтобы защитить тех, кто ему дорог. Это становится настоящим испытанием для героя, которому придется не только сражаться с коварным врагом, но и разобраться в себе, чтобы найти ответ на вопрос, который давно его тревожит: что важнее - человек или костюм?

    Выпущено: США, КитайСтудия: Marvel Studios, DMG EntertainmentПродолжительность: 02:10:32Перевод: Дублированный + Оригинал

    ФайлКодек: x264Качество: BDRip (источник: Blu-ray Disc)Видео: 1920x800 (2,40:1), 23.976 fps, 11,4 MbpsАудио #1: AC-3, 6 ch, 640 kbps (Rus)Аудио #2: AC-3, 6 ch, 640 kbps (Eng)Субтитры: Русские (Forced), Русские, Украинские (Forced), Украинские, АнглийскиеСкачать: семпл

    MI

    Общее Уникальный идентификатор : 224379397500970857147671445542590198986 (0xA8CDE66A024C5C56BE11F625AA27B4CA) Полное имя : E:Iron.Man.3.2013.BDRip.1080p.Rus.Eng.mkv Формат : Matroska Версия формата : Version 2 Размер файла : 11,5 Гбайт Продолжительность : 2 ч. 10 м. Общий поток : 12,7 Мбит/сек Название фильма : Железный человек 3 / Iron Man 3 (2013) Дата кодирования : UTC 2013-09-02 09:01:23 Программа кодирования : mkvmerge v5.8.0 ('No Sleep / Pillow') built on Sep 2 2012 15:37:04 Библиотека кодирования : libebml v1.2.3 + libmatroska v1.3.0 Attachment : Yes

    Видео Идентификатор : 1 Формат : AVC Формат/Информация : Advanced Video Codec Профиль формата : [email protected] Параметр CABAC формата : Да Параметр ReFrames формата : 5 кадров Идентификатор кодека : V_MPEG4/ISO/AVC Продолжительность : 2 ч. 10 м. Битрейт : 11,4 Мбит/сек Ширина : 1920 пикселей Высота : 800 пикселей Соотношение сторон : 2,40:1 Режим частоты кадров : Постоянный Частота кадров : 23,976 кадра/сек Цветовое пространство : YUV Субдискретизация насыщенности : 4:2:0 Битовая глубина : 8 бит Тип развёртки : Прогрессивная Бит/(Пиксели*Кадры) : 0.309 Размер потока : 10,1 Гбайт (88%) Заголовок : Release by N1NT3NDO Библиотека кодирования : x264 core 138 r2358 9e941d1 Настройки программы : cabac=1 / ref=5 / deblock=1:-3:-3 / analyse=0x3:0x133 / me=tesa / subme=11 / psy=1 / psy_rd=1.00:0.00 / mixed_ref=1 / me_range=32 / chroma_me=1 / trellis=2 / 8x8dct=1 / cqm=0 / deadzone=21,11 / fast_pskip=0 / chroma_qp_offset=-2 / threads=12 / lookahead_threads=1 / sliced_threads=0 / nr=0 / decimate=0 / interlaced=0 / bluray_compat=0 / constrained_intra=0 / bframes=6 / b_pyramid=2 / b_adapt=2 / b_bias=0 / direct=3 / weightb=1 / open_gop=0 / weightp=2 / keyint=240 / keyint_min=23 / scenecut=40 / intra_refresh=0 / rc_lookahead=80 / rc=2pass / mbtree=0 / bitrate=11375 / ratetol=1.0 / qcomp=0.60 / qpmin=0 / qpmax=69 / qpstep=4 / cplxblur=20.0 / qblur=0.5 / vbv_maxrate=50000 / vbv_bufsize=62500 / nal_hrd=none / ip_ratio=1.40 / pb_ratio=1.30 / aq=1:0.90 Язык : English Default : Да Forced : Нет

    Аудио #1 Идентификатор : 2 Формат : AC-3 Формат/Информация : Audio Coding 3 Расширение режима : CM (complete main) Параметр Endianness формата : Big Идентификатор кодека : A_AC3 Продолжительность : 2 ч. 10 м. Вид битрейта : Постоянный Битрейт : 640 Кбит/сек Каналы : 6 каналов Расположение каналов : Front: L C R, Side: L R, LFE Частота : 48,0 КГц Битовая глубина : 16 бит Метод сжатия : С потерями Размер потока : 598 Мбайт (5%) Заголовок : Rus Язык : Russian Default : Да Forced : Нет

    Аудио #2 Идентификатор : 3 Формат : AC-3 Формат/Информация : Audio Coding 3 Расширение режима : CM (complete main) Параметр Endianness формата : Big Идентификатор кодека : A_AC3 Продолжительность : 2 ч. 10 м. Вид битрейта : Постоянный Битрейт : 640 Кбит/сек Каналы : 6 каналов Расположение каналов : Front: L C R, Side: L R, LFE Частота : 48,0 КГц Битовая глубина : 16 бит Метод сжатия : С потерями Размер потока : 598 Мбайт (5%) Заголовок : Eng Язык : English Default : Нет Forced : Нет

    Текст #1 Идентификатор : 4 Формат : UTF-8 Идентификатор кодека : S_TEXT/UTF8 Идентификатор кодека/Информация : UTF-8 Plain Text Заголовок : Rus (Forced) Язык : Russian Default : Нет Forced : Нет

    Текст #2 Идентификатор : 5 Формат : UTF-8 Идентификатор кодека : S_TEXT/UTF8 Идентификатор кодека/Информация : UTF-8 Plain Text Заголовок : Rus Язык : Russian Default : Нет Forced : Нет

    Текст #3 Идентификатор : 6 Формат : UTF-8 Идентификатор кодека : S_TEXT/UTF8 Идентификатор кодека/Информация : UTF-8 Plain Text Заголовок : Ukr (Forced) Язык : Ukrainian Default : Нет Forced : Нет

    Текст #4 Идентификатор : 7 Формат : UTF-8 Идентификатор кодека : S_TEXT/UTF8 Идентификатор кодека/Информация : UTF-8 Plain Text Заголовок : Ukr Язык : Ukrainian Default : Нет Forced : Нет

    Текст #5 Идентификатор : 8 Формат : UTF-8 Идентификатор кодека : S_TEXT/UTF8 Идентификатор кодека/Информация : UTF-8 Plain Text Заголовок : Eng Язык : English Default : Нет Forced : Нет

    Меню 00:00:00.000 : :Chapter 01 00:04:52.750 : :Chapter 02 00:07:55.433 : :Chapter 03 00:12:12.440 : :Chapter 04 00:19:04.101 : :Chapter 05 00:23:47.884 : :Chapter 06 00:29:47.702 : :Chapter 07 00:39:46.384 : :Chapter 08 00:45:56.044 : :Chapter 09 00:59:19.639 : :Chapter 10 01:01:56.921 : :Chapter 11 01:09:24.451 : :Chapter 12 01:18:41.508 : :Chapter 13 01:23:52.944 : :Chapter 14 01:37:55.995 : :Chapter 15 01:56:18.304 : :Chapter 16 01:59:38.754 : :Chapter 17

    x264

    x264 [info]: frame I:1883 Avg QP: 9.82 size:262577 x264 [info]: frame P:53607 Avg QP:12.80 size:106536 x264 [info]: frame B:132311 Avg QP:14.01 size: 37257

    Смотрите также