Железная хватка скачать торрент в хорошем качестве


Железная хватка 2010 - скачать бесплатно через торрент в хорошем качестве. Без регистрации

Название: Железная хватка / True Grit (2010) BDRemux 1080p | D, L, L1, A
Качество видео: BDRemux 1080p
Перевод: Дублированный, любительский многоголосый, авторский, любительский одноголосый
Видео: MPEG-4 AVC 30,5 Мбит/с, 1920x1080, 23.976 кадр/с
Аудио: Русский (AC3, 6 ch, 640 Кбит/с) - ДубляжРусский (AC3, 6 ch, 448 Кбит/с) -Любительский многоголосый (OzzTV)Русский (DTS-HD HR Audio, 6 ch, 48 kHz, 2559 Кбит/с) - Авторский (Гаврилов)Русский (DTS-HD HR Audio, 6 ch, 48 kHz, 2559 Кбит/с) - Авторский (Назаров)Русский (DTS-HD МА Audio, 6 ch, 48 kHz, 3683 Кбит/с) - Авторский (Сербин)Русский (DTS, 6 ch, 1510 Кбит/с) - Авторский (Володарский)Русский (DTS, 6 ch, 1510 Кбит/с) - Авторский (Карповский)Русский (AC3, 6 ch, 448 Кбит/с) - Авторский (Пучков - «Гоблин»)Русский (AC3, 6 ch, 448 Кбит/с) - Авторский (Чадов)Русский (AC3, 6 ch, 448 Кбит/с) - Любительский одноголосый (SOLDLUCK)Украинский (AC3, 6 ch, 448 Кбит/с) - ДубляжАнглийский (DTS-HD МА Audio, 6 ch, 48 kHz, 3685 Кбит/с) - Оригинал
Скачать

Загрузка начнется в течение 5 сек.

38.20 GB

Название: Железная хватка / True Grit (2010) HDTV 1080p | Open Matte | D, P
Качество видео: HDTV 1080p
Перевод: Профессиональный (дублированный)
Видео: AVC 1920x1080 (16:9), 25 fps, VBR
Аудио: Аудио: Русский (Dolby AC3, 6 ch) 448 Кбит/сек, 48,0 КГц Дубляж
Скачать

Загрузка начнется в течение 5 сек.

3.95 GB

Название: Железная хватка / True Grit (2010) HDTV 1080p | Open Matte | D, P
Качество видео: HDTV 1080p
Перевод: Профессиональный (дублированный)
Видео: AVC 1920x1080 (16:9), 25 fps, VBR
Аудио: Аудио: Русский (Dolby AC3, 6 ch) 448 Кбит/сек, 48,0 КГц Дубляж
Скачать

Загрузка начнется в течение 5 сек.

3.96 GB

Название: Железная хватка / True Grit (2010) BDRip 720p от Leonardo and Scarabey
Качество видео: BDRip 720p Исходник: Blu-ray
Перевод: Профессиональный (полное дублирование) Лицензия BD CEE
Формат видео: MKV Видео кодек: MPEG-4 AVC Аудио кодек: AC3
Видео: AVC, 1280x544 (2.35:1) at 23.976 fps, AVC at 4016 kbps avg, 0.241 bit/pixel
Аудио: Russian; AC3; 640 Kbps; CBR; 6 ch; 16 bit; Dub
Скачать

Загрузка начнется в течение 5 сек.

3.66 GB

Название: Железная хватка / True Grit (2010) BDRemux 1080p | D, A
Качество видео: BDRemux 1080p
Перевод: Профессиональный (полное дублирование), Авторский (одноголосый, закадровый) - Ю. Сербин, А. Гаврилов, В. Назаров
Формат видео: MKV
Видео: MPEG4/AVC, 1920х1080 (16:9), 34.0 Мбит/сек, 23.976 кадра/сек
Аудио: AC3, 6 каналов, 640 Кбит/сек | ДубляжAC3, 6 каналов, 640 Кбит/сек | Авторский - Ю. СербинAC3, 6 каналов, 640 Кбит/сек | Авторский - А. ГавриловAC3, 6 каналов, 640 Кбит/сек | Авторский - В. НазаровAC3, 6 каналов, 640 Кбит/сек | АнглийскийDTS, 6 каналов, 1509 Кбит/сек | Английский
Скачать

Загрузка начнется в течение 5 сек.

29.33 GB

Название: Железная хватка / True Grit (2010) BDRip 720p от Dream Team | Лицензия
Качество видео: BDRip 720p
Перевод: Профессиональный (полное дублирование) | Лицензия, Профессиональный многоголосый
Видео: h.264 1280x544 (2.35:1), 23.976 fps, 5000 kbps avg, 0.299 bit/pixel
Аудио: Rus: (48 kHz, AC3 Dolby Digital, 3/2 (L,C,R,l,r) + LFE ch, 640 kbps) / DUB (Blu-ray)
Скачать

Загрузка начнется в течение 5 сек.

5.04 GB

Название: Железная хватка / True Grit (2010) BDRip-AVC | D, P2, A, L1
Качество видео: BDRip (AVC)
Перевод: Дублированный, профессиональный (двухголосый закадровый), авторский (одноголосый), любительский (одноголосый)
Видео: MPEG-4 AVC, 1407 Кбит/с, 1024x436
Аудио: AC3 , 6 ch, 384 Кбит/с - ДублированныйAC3 , 6 ch, 448 Кбит/с - Профессионльный двухголосый (OzzTV)AC3 , 6 ch, 448 Кбит/с - Авторский (Андрей Гаврилов)AC3 , 6 ch, 448 Кбит/с - Авторский (Леонид Володарский)AC3 , 6 ch, 448 Кбит/с - Авторский (Юрий Сербин)AC3 , 6 ch, 448 Кбит/с - Авторский (Антон Карповский)AC3 , 6 ch, 384 Кбит/с - Авторский (Вадим Назаров)AC3 , 6 ch, 448 Кбит/с - Любительский одноголосый (Михаил Чадов по Гоблину)
Скачать

Загрузка начнется в течение 5 сек.

3.82 GB

Название: Железная хватка / True Grit (2010) BDRip 1080p | D, A
Качество видео: BDRip 1080p
Перевод: Дублированный + Авторский [Ю. Сербин, А. Гаврилов, В. Назаров]
Формат видео: MKV
Видео: AVC, 1920x816 at 23.976 fps, AVC at 7492 kbps avg, 0.199 bit/pixel
Аудио: Русский / AC3 / 6ch / 640 kbps | DUBРусский / AC3 / 6ch / 640 kbps | Авторский [Ю. Сербин]Русский / AC3 / 6ch / 640 kbps | Авторский [А. Гаврилов]Русский / AC3 / 6ch / 640 kbps | Авторский [В. Назаров]
Скачать

Загрузка начнется в течение 5 сек.

7.75 GB

Название: Железная хватка / True Grit (2010) BDRip-AVC
Качество видео: BDRip-AVC - исх. BDRemux 1080p
Перевод: Профессиональный (полное дублирование) + Оригинал
Видео: x264 708x300 (2.35:1), 23.976 fps, H.264 ~838 kbps, 0.165 b/p
Аудио: 1 (DUB): AАС-НЕ, 48000Hz, 2 channels (L+R), ~56 Kbps
Скачать

Загрузка начнется в течение 5 сек.

746.12 MB

Название: Железная хватка / True Grit (2010) BDRip-AVC от potroks
Перевод: Профессиональный (полное дублирование)
Формат видео: MKV
Видео: H.264, 1056x448 (2,35:1), 23,976 кадр/сек, 2399 Кбит/сек, 0.212 bit/pixel1056x448 (2,35:1), 23,976 кадр/сек, 2399 Кбит/сек, 0.212 bit/pixel
Аудио: 48 kHz, AC3 Dolby Digital, 3/2 (L,C,R,l,r) + LFE ch, ~384.00 kbps avg | DUB48 kHz, AC3 Dolby Digital, 3/2 (L,C,R,l,r) + LFE ch, ~384.00 kbps avg | MVO [OzzTV]48 kHz, AC3 Dolby Digital, 3/2 (L,C,R,l,r) + LFE ch, ~384.00 kbps avg | AVO [Ю.Сербин]48 kHz, AC3 Dolby Digital, 3/2 (L,C,R,l,r) + LFE ch, ~384.00 kbps avg | AVO [А.Гаврилов]48 kHz, AC3 Dolby Digital, 3/2 (L,C,R,l,r) + LFE ch, ~384.00 kbps avg | AVO [В.Назаров]48 kHz, AC3 Dolby Digital, 3/2 (L,C,R,l,r) + LFE ch, ~384.00 kbps avg | ENG
Скачать

Загрузка начнется в течение 5 сек.

3.63 GB

Название: Железная хватка / True Grit (2010) HDRip-AVC от R.G. AVI | AVC
Перевод: Профессиональный (полное дублирование
Формат видео: MKV
Видео: H.264, 1224x520 (2,35:1), 24,000 кадр/сек, 1848 Кбит/сек, 0.121 bit/pixel
Аудио: 48 kHz, AC3 Dolby Digital, 3/2 (L,C,R,l,r) + LFE ch, ~448.00 kbps avg | RUS48 kHz, AC3 Dolby Digital, 3/2 (L,C,R,l,r) + LFE ch, ~448.00 kbps avg | ENG
Скачать

Загрузка начнется в течение 5 сек.

2.12 GB

www.kinovit.net

Скачать фильм Железная хватка (2010) через торрент

13 января 2016 08:15 Железная хватка / True Grit (2010) BDRip 720p от Leonardo and Scarabey .torrent   [Информация о файле (нажмите для просмотра)] Перевод: Профессиональный (полное дублирование) Лицензия BD CEEФормат: MKVВидео кодек: MPEG-4 AVC Аудио кодек: AC3Видео: AVC, 1280x544 (2.35:1) at 23.976 fps, AVC at 4016 kbps avg, 0.241 bit/pixelАудио: Russian; AC3; 640 Kbps; CBR; 6 ch; 16 bit; DubСубтитры: Русские, английские 3,66 Gb 244 14 13 января 2016 08:15 Железная хватка / True Grit (2010) BDRemux 1080p | D, A .torrent   [Информация о файле (нажмите для просмотра)] Перевод: Профессиональный (полное дублирование), Авторский (одноголосый, закадровый) - Ю. Сербин, А. Гаврилов, В. НазаровКачество: BDRemux 1080pФормат: MKVВидео: MPEG4/AVC, 1920х1080 (16:9), 34.0 Мбит/сек, 23.976 кадра/секАудио 1: AC3, 6 каналов, 640 Кбит/сек |ДубляжАудио 2: AC3, 6 каналов, 640 Кбит/сек |Авторский - Ю. СербинАудио 3: AC3, 6 каналов, 640 Кбит/сек |Авторский - А. ГавриловАудио 4: AC3, 6 каналов, 640 Кбит/сек |Авторский - В. НазаровАудио 5: AC3, 6 каналов, 640 Кбит/сек |АнглийскийАудио 6: DTS, 6 каналов, 1509 Кбит/сек |АнглийскийСубтитры: Русские (форс., полные - два вида), английские (Full - два вида, SDH)Видео: Идентификатор : 1 Формат : AVC Формат/Информация : Advanced Video Codec Профиль формата : [email protected] Параметр CABAC формата : Да Параметр ReFrames формата : 4 кадра Идентификатор кодека : V_MPEG4/ISO/AVC Продолжительность : 1 ч. 50 м. Вид битрейта : Переменный Максимальный битрейт : 34,0 Мбит/сек Ширина : 1920 пикселей Высота : 1080 пикселей Соотношение сторон : 16:9 Режим частоты кадров : Постоянный Частота кадров : 23,976 кадра/сек Цветовое пространство : YUV Субдискретизация насыщенности : 4:2:0 Битовая глубина : 8 бит Тип развёртки : Прогрессивная Заголовок : BuR | CHD Язык : English Default : Да Forced : Нет Основные цвета : BT.709 Характеристики трансфера : BT.709 Коэффициенты матрицы : BT.709 Аудио #1: Идентификатор : 2 Формат : AC-3 Формат/Информация : Audio Coding 3 Расширение режима : CM (complete main) Параметр Endianness формата : Big Идентификатор кодека : A_AC3 Продолжительность : 1 ч. 50 м. Вид битрейта : Постоянный Битрейт : 640 Кбит/сек Каналы : 6 каналов Расположение каналов : Front: L C R, Side: L R, LFE Частота : 48,0 КГц Битовая глубина : 16 бит Метод сжатия : С потерями Размер потока : 505 Мбайт (2%) Заголовок : AC3 5.1 | 640 Kbps | Dub-BD Язык : Russian Default : Да Forced : Нет Аудио #2: Идентификатор : 3 Формат : AC-3 Формат/Информация : Audio Coding 3 Расширение режима : CM (complete main) Параметр Endianness формата : Big Идентификатор кодека : A_AC3 Продолжительность : 1 ч. 50 м. Вид битрейта : Постоянный Битрейт : 640 Кбит/сек Каналы : 6 каналов Расположение каналов : Front: L C R, Side: L R, LFE Частота : 48,0 КГц Битовая глубина : 16 бит Метод сжатия : С потерями Размер потока : 505 Мбайт (2%) Заголовок : AC3 5.1 | 640 Kbps | Ю.Сербин Язык : Russian Default : Нет Forced : Нет Аудио #3: Идентификатор : 4 Формат : AC-3 Формат/Информация : Audio Coding 3 Расширение режима : CM (complete main) Параметр Endianness формата : Big Идентификатор кодека : A_AC3 Продолжительность : 1 ч. 50 м. Вид битрейта : Постоянный Битрейт : 640 Кбит/сек Каналы : 6 каналов Расположение каналов : Front: L C R, Side: L R, LFE Частота : 48,0 КГц Битовая глубина : 16 бит Метод сжатия : С потерями Размер потока : 505 Мбайт (2%) Заголовок : AC3 5.1 | 640 Kbps | А.Гаврилов Язык : Russian Default : Нет Forced : Нет Аудио #4: Идентификатор : 5 Формат : AC-3 Формат/Информация : Audio Coding 3 Расширение режима : CM (complete main) Параметр Endianness формата : Big Идентификатор кодека : A_AC3 Продолжительность : 1 ч. 50 м. Вид битрейта : Постоянный Битрейт : 640 Кбит/сек Каналы : 6 каналов Расположение каналов : Front: L C R, Side: L R, LFE Частота : 48,0 КГц Битовая глубина : 16 бит Метод сжатия : С потерями Размер потока : 505 Мбайт (2%) Заголовок : AC3 5.1 | 640 Kbps | В.Назаров Язык : Russian Default : Нет Forced : Нет Аудио #5: Идентификатор : 6 Формат : AC-3 Формат/Информация : Audio Coding 3 Расширение режима : CM (complete main) Параметр Endianness формата : Big Идентификатор кодека : A_AC3 Продолжительность : 1 ч. 50 м. Вид битрейта : Постоянный Битрейт : 640 Кбит/сек Каналы : 6 каналов Расположение каналов : Front: L C R, Side: L R, LFE Частота : 48,0 КГц Битовая глубина : 16 бит Метод сжатия : С потерями Размер потока : 505 Мбайт (2%) Заголовок : AC3 5.1 | 640 Kbps | BD Язык : English Default : Нет Forced : Нет Аудио #6: Идентификатор : 7 Формат : DTS Формат/Информация : Digital Theater Systems Профиль формата : MA / Core Режим : 16 Параметр Endianness формата : Big Идентификатор кодека : A_DTS Продолжительность : 1 ч. 50 м. Вид битрейта : Переменный Битрейт : Неизвестно / 1509 Кбит/сек Каналы : 6 каналов Расположение каналов : Front: L C R, Side: L R, LFE Частота : 48,0 КГц Битовая глубина : 24 бит Метод сжатия : Без потерь / Lossy Задержка видео : 194 мс. Заголовок : DTS 5.1 | 1509 Kbps | BD Язык : English Default : Нет Forced : Нет 29,33 Gb 6 8 13 января 2016 08:15 Железная хватка / True Grit (2010) BDRip от HQCLUB | Лицензия .torrent   [Информация о файле (нажмите для просмотра)] Перевод: Профессиональный (полное дублирование)Blu-Ray EUR + Оригинальная английская дорожкаСубтитры: Русские (4 вида; форсированные), украинские, английские (внешние, srt*)Формат: AVIКачество: BDRip (источник:Видео: 720x304 (2.37:1), 23.976 fps, XviD build 63 ~1928 kbps avg, 0.37 bit/pixelАудио #1: 48 kHz, AC3 Dolby Digital, 3/2 (L,C,R,l,r) + LFE ch, ~448.00 kbps avg|DUB: Blu-Ray EUR|Аудио #2: 48 kHz, AC3 Dolby Digital, 3/2 (L,C,R,l,r) + LFE ch, ~448.00 kbps avg|Original: English|Аудио #3: 48 kHz, AC3 Dolby Digital, 3/2 (L,C,R,l,r) + LFE ch, ~448.00 kbps avg|DVO: OzzTV| (отдельно, на drive.hqclub.net)Аудио #4: 48 kHz, AC3 Dolby Digital, 3/2 (L,C,R,l,r) + LFE ch, ~448.00 kbps avg|AVO: А. Гаврилов| (отдельно, на drive.hqclub.net)Аудио #5: 48 kHz, AC3 Dolby Digital, 3/2 (L,C,R,l,r) + LFE ch, ~448.00 kbps avg|AVO: Ю. Сербин| (отдельно, на drive.hqclub.net)Аудио #6: 48 kHz, AC3 Dolby Digital, 3/2 (L,C,R,l,r) + LFE ch, ~448.00 kbps avg|AVO: А. Карповский| (отдельно, на drive.hqclub.net)Аудио #7: 48 kHz, AC3 Dolby Digital, 3/2 (L,C,R,l,r) + LFE ch, ~448.00 kbps avg|AVO: Л. Володарский| (отдельно, на drive.hqclub.net)Аудио #8: 48 kHz, AC3 Dolby Digital, 3/2 (L,C,R,l,r) + LFE ch, ~448.00 kbps avg|AVO: В. Назаров| (отдельно, на drive.hqclub.net)Аудио #9: 48 kHz, AC3 Dolby Digital, 2/0 (L,R) ch, ~224 kbps avg|AVO: Дмитрий «Гоблин» Пучков / VoiceRipHQ v.1.0| (отдельно, на drive.hqclub.net)Аудио #10: 48 kHz, AC3 Dolby Digital, 3/2 (L,C,R,l,r) + LFE ch, ~448.00 kbps avg|VO: М. Чадов| (отдельно, на drive.hqclub.net)Аудио #11: 48 kHz, AC3 Dolby Digital, 3/2 (L,C,R,l,r) + LFE ch, ~448.00 kbps avg|VO: Штрих aka REN_313| (отдельно, на drive.hqclub.net)Аудио #12: 48 kHz, AC3 Dolby Digital, 3/2 (L,C,R,l,r) + LFE ch, ~448.00 kbps avg|VO: SOLDLUCK| (отдельно, на drive.hqclub.net)Аудио #13: 48 kHz, AC3 Dolby Digital, 3/2 (L,C,R,l,r) + LFE ch, ~448.00 kbps avg|UKR: DUB - DVD| (отдельно, на drive.hqclub.net) 2,18 Gb 98 7 13 января 2016 08:15 Железная хватка / True Grit (2010) BDRip 720p от Dream Team | Лицензия .torrent   [Информация о файле (нажмите для просмотра)] Перевод: Профессиональный (полное дублирование) | Лицензия, Профессиональный многоголосыйКодек: h.264Качество: BDRip 720pВидео: 1280x544 (2.35:1), 23.976 fps, 5000 kbps avg, 0.299 bit/pixelЗвук: Rus: (48 kHz, AC3 Dolby Digital, 3/2 (L,C,R,l,r) + LFE ch, 640 kbps) / DUB (Blu-ray) Ukr: (48 kHz, AC3 Dolby Digital, 3/2 (L,C,R,l,r) + LFE ch, 448 kbps) / DUB (R5) Rus: (48 kHz, AC3 Dolby Digital, 3/2 (L,C,R,l,r) + LFE ch, 448 kbps) / Профессиональный многоголосый (OzzTV) 5,04 Gb 18 2 13 января 2016 08:15 Железная хватка / True Grit (2010) BDRip-AVC | D, P2, A, L1 .torrent   [Информация о файле (нажмите для просмотра)] Перевод: Дублированный, профессиональный (двухголосый закадровый), авторский (одноголосый), любительский (одноголосый)Качество: BDRip (AVC)Видео: MPEG-4 AVC, 1407 Кбит/с, 1024x436Аудио 1: AC3 , 6 ch, 384 Кбит/с - ДублированныйАудио 2: AC3 , 6 ch, 448 Кбит/с - Профессионльный двухголосый (OzzTV)Аудио 3: AC3 , 6 ch, 448 Кбит/с - Авторский (Андрей Гаврилов)Аудио 4: AC3 , 6 ch, 448 Кбит/с - Авторский (Леонид Володарский)Аудио 5: AC3 , 6 ch, 448 Кбит/с - Авторский (Юрий Сербин)Аудио 6: AC3 , 6 ch, 448 Кбит/с - Авторский (Антон Карповский)Аудио 7: AC3 , 6 ch, 384 Кбит/с - Авторский (Вадим Назаров)Аудио 8: AC3 , 6 ch, 448 Кбит/с - Любительский одноголосый (Михаил Чадов по Гоблину) 3,82 Gb 20 4 13 января 2016 08:15 Железная хватка / True Grit (2010) BDRip 1080p | D, A .torrent   [Информация о файле (нажмите для просмотра)] Перевод: Дублированный + Авторский [Ю. Сербин, А. Гаврилов, В. Назаров]Качество: BDRip 1080pФормат: MKVВидео: AVC, 1920x816 at 23.976 fps, AVC at 7492 kbps avg, 0.199 bit/pixelАудио 1: Русский / AC3 / 6ch / 640 kbps | DUBАудио 2: Русский / AC3 / 6ch / 640 kbps | Авторский [Ю. Сербин]Аудио 3: Русский / AC3 / 6ch / 640 kbps | Авторский [А. Гаврилов]Аудио 4: Русский / AC3 / 6ch / 640 kbps | Авторский [В. Назаров]Субтитры: Русские, Английские 7,75 Gb 82 18 13 января 2016 08:15 Железная хватка / True Grit (2010) BDRip-AVC | iPad .torrent   [Информация о файле (нажмите для просмотра)] Перевод: ДублированныйСубтитры: русские, английскиеФормат: MP4 (контейнер m4v)Видео: AVC, 1024x432 (2.35:1) at 23.976 fps, AVC at 2839 kbps avg, 0.268 bit/pixelАудио: 48 kHz, AAC, 2ch, 164 Kbps | Russian | ДублированныйАудио: 48 kHz, AAC, 2ch, 164 Kbps | English | Original 2,45 Gb 17 4 13 января 2016 08:15 Железная хватка / True Grit (2010) BDRip-AVC .torrent   [Информация о файле (нажмите для просмотра)] Перевод: Профессиональный (полное дублирование) + ОригиналКодек: x264Качество: BDRip-AVC - исх. BDRemux 1080pВидео: 708x300 (2.35:1), 23.976 fps, H.264 ~838 kbps, 0.165 b/pЗвук: 1 (DUB): AАС-НЕ, 48000Hz, 2 channels (L+R), ~56 Kbps 2 (ENG): AАС-НЕ, 48000Hz, 2 channels (L+R), ~52 KbpsСубтитры: русские, английские (*.srt) 746,12 Mb 38 2 13 января 2016 08:15 Железная хватка / True Grit (2010) HDRip от Scarabey .torrent   [Информация о файле (нажмите для просмотра)] Перевод: Профессиональный (полное дублирование) - лицензияВидео: 720x304 (2.37:1), 23.976 fps, XviD build 50 ~1427 kbps avg, 0.27 bit/pixelАудио: 48 kHz, AC3 Dolby Digital, 3/2 (L,C,R,l,r) + LFE ch, ~448.00 kbps avg 1,45 Gb 530 15 13 января 2016 08:15 Железная хватка / True Grit (2010) BDRip-AVC от potroks .torrent   [Информация о файле (нажмите для просмотра)] Перевод: Профессиональный (полное дублирование)Субтитры: Русские (el_brujo), русские (Д.Пучков (Гоблин)), русские (R5)Качество: BDRip-AVC [Blu-Ray Remux]Формат: MKVВидео: H.264, 1056x448 (2,35:1), 23,976 кадр/сек, 2399 Кбит/сек, 0.212 bit/pixelВидео: 1056x448 (2,35:1), 23,976 кадр/сек, 2399 Кбит/сек, 0.212 bit/pixelАудио#1: 48 kHz, AC3 Dolby Digital, 3/2 (L,C,R,l,r) + LFE ch, ~384.00 kbps avg |DUBАудио#2: 48 kHz, AC3 Dolby Digital, 3/2 (L,C,R,l,r) + LFE ch, ~384.00 kbps avg |MVO [OzzTV]Аудио#3: 48 kHz, AC3 Dolby Digital, 3/2 (L,C,R,l,r) + LFE ch, ~384.00 kbps avg |AVO [Ю.Сербин]Аудио#4: 48 kHz, AC3 Dolby Digital, 3/2 (L,C,R,l,r) + LFE ch, ~384.00 kbps avg |AVO [А.Гаврилов]Аудио#5: 48 kHz, AC3 Dolby Digital, 3/2 (L,C,R,l,r) + LFE ch, ~384.00 kbps avg |AVO [В.Назаров]Аудио#6: 48 kHz, AC3 Dolby Digital, 3/2 (L,C,R,l,r) + LFE ch, ~384.00 kbps avg |ENG 3,63 Gb 12 4 13 января 2016 08:15 Железная хватка / True Grit (2010) HDRip-AVC от R.G. AVI | AVC .torrent   [Информация о файле (нажмите для просмотра)] Перевод: Профессиональный (полное дублированиеСубтитры: Русские (Full, Forced), английскиеКачество: HDRip-AVC [BDRip 1080p]Формат: MKVВидео: H.264, 1224x520 (2,35:1), 24,000 кадр/сек, 1848 Кбит/сек, 0.121 bit/pixelАудио#1: 48 kHz, AC3 Dolby Digital, 3/2 (L,C,R,l,r) + LFE ch, ~448.00 kbps avg |RUSАудио#2: 48 kHz, AC3 Dolby Digital, 3/2 (L,C,R,l,r) + LFE ch, ~448.00 kbps avg |ENG 2,12 Gb 36 4 13 января 2016 08:15 Железная хватка / True Grit (2010) HDRip | Гоблин (VoiceRipHQ) .torrent   [Информация о файле (нажмите для просмотра)] Перевод: Авторский (одноголосый закадровый) - Дмитрий «Гоблин» Пучков (ДВЕ ВЕРСИИ)Кодек: XviDКачество: HDRipВидео: 720x304 (2.37:1), 23.976 fps, XviD build 50 ~1850 kbps avg, 0.35 bit/pixelАудио 1: AC3 Dolby Digital, 2.0, 48 kHz, 224 kbps (Гоблин, v.1.0)Аудио 2: AC3 Dolby Digital, 2.0, 48 kHz, 224 kbps (Гоблин, v.1.1) 1,78 Gb 146 11 13 января 2016 08:15 Железная хватка / True Grit (2010) BDRip 1080p Rip by Neofilm .torrent   [Информация о файле (нажмите для просмотра)] Перевод: ДублированныйКодек: x.264Качество: BDRip 1080pВидео: 8626, 1920x816, 23.976 fpsЗвук: AC3, 640 kb/s (6Ch)-Дублированный AC3, 640 kb/s (6Ch)-ОригиналСубтитры: Русские, Английские 7,7 Gb 18 10 13 января 2016 08:15 Железная хватка / True Grit (2010) BDRip от HQ-ViDEO .torrent   [Информация о файле (нажмите для просмотра)] Перевод: Русский дублированный перевод + Оригинальная дорожкаКодек: XviD, build 64 codecКачество: BDRip (Исходник: BD Remux)Видео: 720 x 304 (2.37:1), 23.976 fps, XviD, build 64 ~ 1921 kbps avg, ~ 0.37 bit/pixelЗвук #1: 48 kHz, AC3 Dolby Digital, 3/2 (L,C,R,l,r) + LFE ch, ~448.00 kbps avgЗвук #2: 48 kHz, AC3 Dolby Digital, 3/2 (L,C,R,l,r) + LFE ch, ~448.00 kbps avgСубтитры: Русские (полные (2 вида), форсированные), Английские. 2,18 Gb 179 12 13 января 2016 08:15 Железная хватка / True Grit (2010) BDRip [720p] от HQ-ViDEO. .torrent   [Информация о файле (нажмите для просмотра)] Видео: Идентификатор : 1 Формат : AVC Формат/Информация : Advanced Video Codec Профайл формата : [email protected] Параметры CABAC формата : Да Параметры ReFrames формата : 6 кадры Format_Settings_GOP : M=1, N=50 Режим смешивания : Container [email protected] Идентификатор кодека : V_MPEG4/ISO/AVC Продолжительность : 1 ч. 50 м. Битрейт : 5111 Кбит/сек Ширина : 1280 пикс. Высота : 544 пикс. Соотношение кадра : 2,35:1 Частота кадров : 23,976 кадр/сек ColorSpace : YUV ChromaSubsampling : 4:2:0 BitDepth/String : 8 бит Тип развёртки : Прогрессивная Бит/(Пиксели*Кадры) : 0.306 Размер потока : 3,94 ГиБ (90%) Заголовок : Encoded by GYNАудио: Идентификатор : 2 Формат : AC-3 Формат/Информация : Audio Coding 3 Format_Settings_ModeExtension : CM (complete main) Идентификатор кодека : A_AC3 Продолжительность : 1 ч. 50 м. Вид битрейта : Постоянный Битрейт : 448 Кбит/сек Канал(ы) : 6 канала(ов) Расположение каналов : Front: L C R, Side: L R, LFE Частота : 48,0 КГц BitDepth/String : 16 бит Размер потока : 354 МиБ (8%) Заголовок : DUB Язык : RussianСубтитры: Русские, Английские. 4,72 Gb 10 6 13 января 2016 08:15 Железная хватка / True Grit (2010) HDRip от CoNSoLeR | PSP .torrent   [Информация о файле (нажмите для просмотра)] Перевод: Профессиональный (дублированный)Кодек: H.264, AACКачество: HDRipВидео: 480x208, 512 kbps, 23.976 fpsЗвук: 48 kHz, 2 ch, 128 kbps 508,34 Mb 2 4 13 января 2016 08:15 Железная хватка / True Grit (2010) BDRip 1080p .torrent   [Информация о файле (нажмите для просмотра)] Перевод: ДублированныйКодек: x264Качество: BDRip (источник: Blu-ray Disc)Видео: 1920x816 (2,35:1), 23.976 fps, 5035 kbpsЗвук: 48 kHz, AC-3, 6 ch, 640 kbpsСубтитры: АнглийскиеВидео: Идентификатор : 1 Формат : AVC Формат/Информация : Advanced Video Codec Профиль формата : [email protected] Параметр CABAC формата : Да Параметр ReFrames формата : 5 кадров Идентификатор кодека : V_MPEG4/ISO/AVC Продолжительность : 1 ч. 50 м. Битрейт : 5035 Кбит/сек Ширина : 1920 пикс. Высота : 816 пикс. Соотношение сторон : 2,35:1 Частота кадров : 23,976 кадр/сек Цветовое пространство : YUV Подвыборка цветности : 4:2:0 Битовая глубина : 8 бит Тип развёртки : Прогрессивная Бит/(Пиксели*Кадры) : 0.134 Размер потока : 3,79 Гбайт (87%) Библиотека кодирования : x264 core 115 r1995 c1e60b9 Настройки программы : cabac=1 / ref=5 / deblock=1:0:0 / analyse=0x3:0x133 / me=umh / subme=10 / psy=1 / psy_rd=1.00:0.10 / mixed_ref=1 / me_range=24 / chroma_me=1 / trellis=2 / 8x8dct=1 / cqm=0 / deadzone=21,11 / fast_pskip=0 / chroma_qp_offset=-3 / threads=12 / sliced_threads=0 / nr=0 / decimate=1 / interlaced=0 / bluray_compat=0 / constrained_intra=0 / bframes=5 / b_pyramid=2 / b_adapt=2 / b_bias=0 / direct=3 / weightb=1 / open_gop=0 / weightp=2 / keyint=250 / keyint_min=23 / scenecut=40 / intra_refresh=0 / rc_lookahead=60 / rc=2pass / mbtree=1 / bitrate=5035 / ratetol=1.0 / qcomp=0.60 / qpmin=0 / qpmax=69 / qpstep=4 / cplxblur=20.0 / qblur=0.5 / ip_ratio=1.40 / aq=1:1.00 Язык : EnglishАудио: Идентификатор : 2 Формат : AC-3 Формат/Информация : Audio Coding 3 Расширение режима : CM (complete main) Идентификатор кодека : A_AC3 Продолжительность : 1 ч. 50 м. Вид битрейта : Постоянный Битрейт : 640 Кбит/сек Каналы : 6 каналов Расположение каналов : Front: L C R, Side: L R, LFE Частота : 48,0 КГц Битовая глубина : 16 бит Метод сжатия : С потерями Размер потока : 505 Мбайт (11%) Язык : Russian 4,37 Gb 17 2 13 января 2016 08:14 Железная хватка / True Grit (2010) BDRip от HELLYWOOD .torrent   2,18 Gb 1 2 13 января 2016 08:14 Железная хватка / True Grit (2010) BDRip 1080p .torrent   [Информация о файле (нажмите для просмотра)] Перевод: Дублированное [лицензия]Кодек: MKVКачество: BDRip 1080pВидео: 1920х816, 23.976 fps, ~12600 kbpsАудио#1: Russian, 48 kHz, AC3, 3/2 (L,C,R,l,r) + LFE ch, ~640.00 kbps avg ДублированныйАудио#2: Russian, 48 kHz, AC3, 3/2 (L,C,R,l,r) + LFE ch, ~448.00 kbps avg Двухголосый закадровый [OzzTV]Аудио#3: English, 48 kHz, DTS, 3/2 (L,C,R,l,r) + LFE ch, ~1510.00 kbps avg ОригиналСубтитры: русские, английские 11,71 Gb 11 1 13 января 2016 08:14 Железная хватка / True Grit (2010) Blu-ray 1080p .torrent   [Информация о файле (нажмите для просмотра)] Перевод: профессиональный (полное дублирование)Качество: Blu-ray CEE (tnx HDChina)Формат: BDAVВидео: MPEG-4 AVC Video / 31294 kbps / 1920x1080p / 23.976 fps / 16:9 / High Profile 4.1Аудио #1: 3685 kbps / 5.1 / 48 kHz / 24-bit (DTS Core: 5.1 / 48 kHz / 1509 kbps / 24-bit)|Английский|Аудио #2: 640 kbps / 5.1 / 48 kHz / 640 kbps / DN -4dB|Чешский|Аудио #3: 640 kbps / 5.1 / 48 kHz / 640 kbps / DN -4dB|Венгерский|Аудио #4: 640 kbps / 5.1 / 48 kHz / 640 kbps / DN -4dB|Польский|Аудио #5: 640 kbps / 5.1 / 48 kHz / 640 kbps / DN -4dB|Дубляж Русский|Аудио #6: 640 kbps / 5.1 / 48 kHz / 640 kbps / DN -4dB|Тайский|Аудио #7: 640 kbps / 5.1 / 48 kHz / 640 kbps / DN -4dB|Турецкий|Субтитры: Английский, Арабский, Болгарский, Китайский, Хорватский, Чешский, Эстонский, Греческий, Иврит, Хинди, Венгерский, Исландский, Индонезийский, Корейский, Латышский, Литовский, Малайский, Польский, Португальский, Румынский,Русский, Сербский, Словацкий, Словенский, Тайский, Турецкий, Украинский 43,81 Gb 2 6 13 января 2016 08:14 Железная хватка / True Grit (2010) HDRip | Лицензия .torrent   [Информация о файле (нажмите для просмотра)] Перевод: Дублированное [лицензия]Кодек: AVI (XviD)Качество: HDRip [Рип с BDRip 720p]Видео: 640x272, 857 kb/s, 23.976 fpsЗвук: MP3, 128 kb/s, 2 канала, 48.0 KHz 676,41 Mb 16 1 13 января 2016 08:14 Железная хватка / True Grit (2010) HDRip | Лицензия .torrent   [Информация о файле (нажмите для просмотра)] Перевод: Дублированный [лицензия]Кодек: XviDКачество: HDRip [Рип с BDRip 720p]Видео: 1382 kb/s, 720x304Звук: AC3, 384 kb/s (6 ch) 1,37 Gb 44 3

gig-torrent.net

rutor.org :: Железная хватка / True Grit (2010) HDRip

Информация о фильмеНазвание: Железная хваткаОригинальное название: True GritГод выхода: 2010Жанр: драма, приключения, вестернРежиссер: Итэн Коэн, Джоэл КоэнВ ролях: Джефф Бриджес, Хейли Стайнфелд, Мэтт Дэймон, Джош Бролин, Бэрри Пеппер, Дэкин Мэтьюз, Ярлат Конрой, Пол Рэй, Домналл Глисон, Элизабет Марвел

О фильме: Описание фильма

«Punishment comes one way or another»

В этом фильме рассказывается история 14-летней девочки, стареющего судебного пристава Рустера Когберна и ещё одного законника. Вместе они идут по следам убийцы отца девочки, которые ведут во враждебную индейскую территорию.

Жанр: драма, приключения, вестерн

Описание Дмитрия Пучкова

У маленькой девочки злой человек убивает папу. И никто не хочет девочке помочь, все как один советуют отправляться домой, к маме. Но у четырнадцатилетней девочки, как нетрудно догадаться, железная хватка. И никто не уйдет обиженным. Замечательный новый фильм братьев Коганов в любимом многими жанре вестерна. Мастерский дебют Хэлли Стенфилд в компании с Джеффом Бриджесом ("Большой Лебовски", "Трон" ), Мэттом Дэймоном (сериал про Борна, "Отряд Америка" ), Джошем Бролином ("Старикам тут не место", "Американский бандит" ) и Барри Пеппером (снайпер из "Спасти рядового Райана" ). Нехороших слов нет. Фильм обязателен к просмотру.

Интересные факты

Майкл Бьен проходил пробы на роль Нэда Пэппера.

Джефф Бриджес и Джош Бролин сыграли Дикого Билла Хикока в «Диком Билле» (1995) и «Молодых наездниках» (1989) соответственно.

Один из немногих фильмов, спродюссированный Стивеном Спилбергом, в начале которого не появляется заставка компании «Amblin Entertainment» или «DreamWorks Pictures».

В «Настоящем мужестве» (1969) Рустер Когберн носит повязку на левом глазе. В ремейке повязка надета на правый глаз.

Рустеру Когберну около 40 лет, однако и Джону Уэйну и Джеффу Бриджесу было за шестьдесят, когда они сыграли роль.

Дж. К. Симмонс озвучил Нобла Дэггетта, адвоката Мэтти.

Рецензия журнала "Афиша"

Ремейк знаменитого вестерна про девочку и убийцу

Трус и подлец Том Чейни (Бролин) спьяну пристрелил достойного человека Фрэнка Росса, украл его кобылу и две золотые монеты и скрылся на индейских территориях. Дочка Росса, 14-летняя Мэтти (Стайнфелд), похоронив отца и удачно решив некоторые деликатные финансовые вопросы, предлагает сто долларов Рустеру Когберну (Бриджес), известному дурным нравом и эффективностью (и слегка спившемуся) охотнику за головами, чтобы тот вместе с ней доставил негодяя на виселицу. К ним присоединяется техасский рейнджер ЛаБеф (Деймон), у которого к Чейни собственный интерес.

Все замечают, что коэновский ремейк закатного шедевра Генри Хэтэуэя, за который стареющий Джон Уэйн получил свой единственный «Оскар» (если быть точным, экранизация той же книжки), выглядит менее коэновским, чем оригинальный фильм — снятый в конце 60-х, когда делать вестерны всерьез давно перестали. Первая «Хватка» проникнута иронией, которую задним числом тянет обозвать постмодернистской, — тем эффектнее моменты, когда авторы вдруг перестают улыбаться. Коэны поступили ровно наоборот: честно оживи­ли нафталиновый жанр, раскавычили месть и смерть, раздвинули временные рамки ради неожиданно элегического финала, но при этом их специфический юмор никуда не делся и в малых дозах жалит даже сильнее — все равно это очень смешной фильм. Последовательность событий осталась почти нетронутой; заострились диалоги, немного преобразились герои. Бриджес, которому в отличие от Уэйна не приходилось каждую секунду тащить собственную ле­генду, сыграл Когберна чуть угрюмее и очевидно расслабленнее: когда он не ­убивает, он только бурчит и чешется. Персонаж Деймона, наоборот, превратился в чистую пародию — что-то вроде соломинского доктора Ватсона. Наконец, главная героиня стала более естественной и более жуткой — среди прочего за счет того, что одержимую жаждой смерти девочку играет не 20-летняя актриса, как в оригинале, а натуральная крошка. Наверное, на фоне того, что Коэны насни­мали за последнее время, «Хватка» выглядит немного необязательной — то ли причудливой рифмой к «Старикам тут не место», то ли возвращением в начало нулевых, когда братья играли то в Престона Стерджеса, то в Эрнста Любича, то в Александра Маккендрика. Но в 2011 году уже совсем понятно, что Коэны никакие не стилизаторы и не подделывают чужие почерка — а целые пласты кинематографа сами поднимаются из-под земли, чтобы подстроиться под их каллиграфический почерк.

Награды и номинации

Оскар, 2011 год

Номинации (10):

Лучший фильм Лучшая мужская роль (Джефф Бриджес) Лучшая женская роль второго плана (Хейли Стайнфелд) Лучший режиссер (Итэн Коэн, Джоэл Коэн) Лучший адаптированный сценарий Лучшая работа оператора Лучшие декорации Лучшие костюмы Лучший звук Лучший монтаж звука

Премия канала «MTV», 2011 год

Номинации (1):

Прорыв года (Хейли Стайнфелд)

Британская академия, 2011 год

Победитель (1):

Лучшая работа оператора (Роджер Дикинс)

Номинации (7):

Лучший фильм Лучшая мужская роль (Джефф Бриджес) Лучшая женская роль (Хейли Стайнфелд) Лучший адаптированный сценарий Лучшие костюмы Лучший звук Лучшая работа художника-постановщика (Джесс Гончор, Нэнси Хэй)

Сатурн, 2011 год

Номинации (2):

Лучший молодой актер/актриса (Хейли Стайнфелд) Лучший приключенческий фильм или боевик

Страна: СШАСтудия: Paramount PicturesПродолжительность: 01:50:20Перевод: Авторский (одноголосый закадровый) - Дмитрий «Гоблин» Пучков (ДВЕ ВЕРСИИ)

ФайлКодек: XviD Качество: HDRipВидео: 720x304 (2.37:1), 23.976 fps, XviD build 50 ~1850 kbps avg, 0.35 bit/pixelАудио 1: AC3 Dolby Digital, 2.0, 48 kHz, 224 kbps (Гоблин, v.1.0)Аудио 2: AC3 Dolby Digital, 2.0, 48 kHz, 224 kbps (Гоблин, v.1.1)

http://narod.ru/disk/31450799001/True.Grit.2011.AVO.Goblin-Bloodymetall.sample.avi.html

ЦитатаКто-то писал:Внимание! Звуковая дорога качества VoiceRipHQ (улучшенная запись со спец.показа). Голос записан в кинотеатре на диктофон, обработан и сведён с оригинальной дорожкой. Исключительно для преданных ценителей переводов Гоблина! Данный релиз - единственная возможность ознакомиться с переводом х/ф "Железная хватка" голосом Д.Ю. Пучкова! Прежде чем качать релиз - внимательно слушаем сэмпл. Ценителям качественного звука КАЧАТЬ СТРОГО НЕ РЕКОМЕНДУЕТСЯ! Если вы скачали не то, что ожидали, значит, вы не изучили описание.

Релиз от

main-rutor.org

Скачать фильм Железная хватка через торрент в хорошем качестве бесплатно 2010

Общее Уникальный идентификатор : 190305259514581002097899973963799685867 (0x8F2B75B49FB602ECAFF8B98C62856AEB) Полное имя : Zheleznaya.Hvatka.2010.BD-Remux 1080p.mkv Формат : Matroska Версия формата : Version 2 Размер файла : 30,3 Гбайт Продолжительность : 1 ч. 50 м. Режим общего битрейта : Переменный Общий поток : 39,3 Мбит/сек Название фильма : Железная хватка / True Grit (2010) BD-Remux 1080p Дата кодирования : UTC 2014-01-15 16:45:18 Программа кодирования : mkvmerge v5.8.0 ('No Sleep / Pillow') built on Sep 2 2012 15:37:04 Библиотека кодирования : libebml v1.2.3 + libmatroska v1.3.0

Видео Идентификатор : 1 Формат : AVC Формат/Информация : Advanced Video Codec Профиль формата : [email protected] Параметр CABAC формата : Да Параметр ReFrames формата : 4 кадра Идентификатор кодека : V_MPEG4/ISO/AVC Продолжительность : 1 ч. 50 м. Вид битрейта : Переменный Битрейт : 30,5 Мбит/сек Максимальный битрейт : 34,0 Мбит/сек Ширина : 1920 пикселей Высота : 1080 пикселей Соотношение сторон : 16:9 Режим частоты кадров : Постоянный Частота кадров : 23,976 кадра/сек Цветовое пространство : YUV Субдискретизация насыщенности : 4:2:0 Битовая глубина : 8 бит Тип развёртки : Прогрессивная Бит/(Пиксели*Кадры) : 0.612 Размер потока : 23,5 Гбайт (78%) Язык : English Default : Да Forced : Нет Основные цвета : BT.709 Характеристики трансфера : BT.709 Коэффициенты матрицы : BT.709

Аудио #1 Идентификатор : 2 Формат : AC-3 Формат/Информация : Audio Coding 3 Расширение режима : CM (complete main) Параметр Endianness формата : Big Идентификатор кодека : A_AC3 Продолжительность : 1 ч. 50 м. Вид битрейта : Постоянный Битрейт : 640 Кбит/сек Каналы : 6 каналов Расположение каналов : Front: L C R, Side: L R, LFE Частота : 48,0 КГц Битовая глубина : 16 бит Метод сжатия : С потерями Размер потока : 505 Мбайт (2%) Заголовок : Dub (Blu-ray) Язык : Russian Default : Да Forced : Нет

Аудио #2 Идентификатор : 3 Формат : AC-3 Формат/Информация : Audio Coding 3 Расширение режима : CM (complete main) Параметр Endianness формата : Big Идентификатор кодека : A_AC3 Продолжительность : 1 ч. 50 м. Вид битрейта : Постоянный Битрейт : 448 Кбит/сек Каналы : 6 каналов Расположение каналов : Front: L C R, Side: L R, LFE Частота : 48,0 КГц Битовая глубина : 16 бит Метод сжатия : С потерями Размер потока : 354 Мбайт (1%) Заголовок : Dub (R5) Язык : Ukrainian Default : Нет Forced : Нет

Аудио #3 Идентификатор : 4 Формат : AC-3 Формат/Информация : Audio Coding 3 Расширение режима : CM (complete main) Параметр Endianness формата : Big Идентификатор кодека : A_AC3 Продолжительность : 1 ч. 50 м. Вид битрейта : Постоянный Битрейт : 448 Кбит/сек Каналы : 6 каналов Расположение каналов : Front: L C R, Side: L R, LFE Частота : 48,0 КГц Битовая глубина : 16 бит Метод сжатия : С потерями Размер потока : 354 Мбайт (1%) Заголовок : MVO (OzzTV) Default : Нет Forced : Нет

Аудио #4 Идентификатор : 5 Формат : AC-3 Формат/Информация : Audio Coding 3 Расширение режима : CM (complete main) Параметр Endianness формата : Big Идентификатор кодека : A_AC3 Продолжительность : 1 ч. 50 м. Вид битрейта : Постоянный Битрейт : 448 Кбит/сек Каналы : 6 каналов Расположение каналов : Front: L C R, Side: L R, LFE Частота : 48,0 КГц Битовая глубина : 16 бит Метод сжатия : С потерями Размер потока : 354 Мбайт (1%) Заголовок : AVO (Д, «Гоблин» Пучков / VoiceRipHQ) Язык : Russian Default : Нет Forced : Нет

Аудио #5 Идентификатор : 6 Формат : DTS Формат/Информация : Digital Theater Systems Режим : 16 Параметр Endianness формата : Big Идентификатор кодека : A_DTS Продолжительность : 1 ч. 50 м. Вид битрейта : Постоянный Битрейт : 1510 Кбит/сек Каналы : 6 каналов Расположение каналов : Front: L C R, Side: L R, LFE Частота : 48,0 КГц Битовая глубина : 24 бит Метод сжатия : С потерями Размер потока : 1,16 Гбайт (4%) Заголовок : AVO (Ю.Сербин) Язык : Russian Default : Нет Forced : Нет

Аудио #6 Идентификатор : 7 Формат : DTS Формат/Информация : Digital Theater Systems Режим : 16 Параметр Endianness формата : Big Идентификатор кодека : A_DTS Продолжительность : 1 ч. 50 м. Вид битрейта : Постоянный Битрейт : 1509 Кбит/сек Каналы : 6 каналов Расположение каналов : Front: L C R, Side: L R, LFE Частота : 48,0 КГц Битовая глубина : 24 бит Метод сжатия : С потерями Размер потока : 1,16 Гбайт (4%) Заголовок : AVO (А.Гаврилов) Язык : Russian Default : Нет Forced : Нет

Аудио #7 Идентификатор : 8 Формат : DTS Формат/Информация : Digital Theater Systems Режим : 16 Параметр Endianness формата : Big Идентификатор кодека : A_DTS Продолжительность : 1 ч. 50 м. Вид битрейта : Постоянный Битрейт : 1509 Кбит/сек Каналы : 6 каналов Расположение каналов : Front: L C R, Side: L R, LFE Частота : 48,0 КГц Битовая глубина : 24 бит Метод сжатия : С потерями Размер потока : 1,16 Гбайт (4%) Заголовок : AVO (В.Назаров) Язык : Russian Default : Нет Forced : Нет

Аудио #8 Идентификатор : 9 Формат : DTS Формат/Информация : Digital Theater Systems Режим : 16 Параметр Endianness формата : Big Идентификатор кодека : A_DTS Продолжительность : 1 ч. 50 м. Вид битрейта : Постоянный Битрейт : 1509 Кбит/сек Каналы : 6 каналов Расположение каналов : Front: L C R, Side: L R, LFE Частота : 48,0 КГц Битовая глубина : 24 бит Метод сжатия : С потерями Размер потока : 1,16 Гбайт (4%) Заголовок : Original Язык : English Default : Нет Forced : Нет

Текст #1 Идентификатор : 10 Формат : PGS Режим смешивания : zlib Идентификатор кодека : S_HDMV/PGS Идентификатор кодека/Информация : The same subtitle format used on BDs/HD-DVDs Default : Да Forced : Нет

Текст #2 Идентификатор : 11 Формат : PGS Режим смешивания : zlib Идентификатор кодека : S_HDMV/PGS Идентификатор кодека/Информация : The same subtitle format used on BDs/HD-DVDs Default : Нет Forced : Нет

Текст #3 Идентификатор : 12 Формат : PGS Режим смешивания : zlib Идентификатор кодека : S_HDMV/PGS Идентификатор кодека/Информация : The same subtitle format used on BDs/HD-DVDs Default : Нет Forced : Нет

Текст #4 Идентификатор : 13 Формат : PGS Режим смешивания : zlib Идентификатор кодека : S_HDMV/PGS Идентификатор кодека/Информация : The same subtitle format used on BDs/HD-DVDs Default : Нет Forced : Нет

Текст #5 Идентификатор : 14 Формат : PGS Режим смешивания : zlib Идентификатор кодека : S_HDMV/PGS Идентификатор кодека/Информация : The same subtitle format used on BDs/HD-DVDs Default : Нет Forced : Нет

piratbit.ru

Скачать фильм Железная хватка через торрент в хорошем качестве бесплатно HDRip

Размер: 1.37 GB | Добавлен: 6 лет 5 мес. назад | Торрент скачан:1247 раз
Реклама Дарим 3000 рублей за регистрацию, не упусти свой шанс получить шикарный бонус!!!

25-05-2011 18:43 Железная хватка Скачать торрент  

Железная хватка / True Grit«Punishment comes one way or another» Год выпуска: 2010Страна: США, Paramount Pictures Жанр: драма, приключения, вестерн Продолжительность: 01:50:20 Перевод: Дублированный [Лицензия]Режиссер: Итэн Коэн, Джоэл КоэнВ ролях: Мэтт Дэймон, Джефф Бриджес,Джош Бролин, Хейли Стайнфелд, Бэрри Пеппер, Дэкин Мэтьюз, Ярлат Конрой, Пол Рэй, Домналл Глисон, Элизабет МарвелОписание: Сюжет рассказывает историю 14-летней девочки, стареющего судебного пристава Рустера Когберна и ещё одного законника. Вместе они идут по следам убийцы отца девочки, которые ведут во враждебную индейскую территорию. Качество: HDRip [Рип с BDRip 720p]Формат: AVI Видео кодек: XviD Аудио кодек: AC3 Видео:720x304 (2.35:1), 23.975 fps, XviD build 50 ~1317 kbps avg, 0.32 bit/pixel Аудио:AC3, 384 kb/s, 6 каналов, 48.0 KHz Скачать Железная хватка через торрент http://lostpic.net/images/322af4a09b43231d41795203fafd5953.jpg Скачать фильм Железная хватка через торрент бесплантно в хорошем качестве Описание: Сюжет рассказывает историю 14-летней девочки, стареющего судебного пристава Рустера Когберна и ещё одного законника. Вместе они ... 2011-05-25 18:43 9.5 10 11

Loading...

Loading...

Рекламный пират

26-05-2011 16:19 Железная хватка Скачать торрент  

спасибо, забираю

20-06-2011 14:02 Железная хватка Скачать торрент  

спасибо норм фильм!

13-08-2011 15:27 Железная хватка Скачать торрент  

30-04-2012 10:46 Железная хватка Скачать торрент  

спс автору и сидерам СПС :good:

02-09-2013 08:00 Железная хватка Скачать торрент  

хороший.добрый фильм .рекомендую.

Дорогой пользователь! Огромная просьба, поблагодарите релизера, оцените раздачу и оставьте свои комментарий, если Вы скачали Железная хватка через торрент бесплатно! Внесите свою лепту в развитие PiratBit!

Комментировать посты могут только пользователи прошедшие не сложную регистрацию

Железная хватка через торрент Скачать бесплатно Железная хватка Железная хватка скачать торрент Железная хватка смотреть онлайн Cкачать фильм Железная хватка бесплатно Железная хватка скачать торрент в хорошем качестве Железная хватка смотреть онлайн бесплатно в хорошем качестве

Вы не можете начинать темыВы не можете отвечать на сообщенияВы не можете редактировать свои сообщенияВы не можете удалять свои сообщенияВы не можете голосовать в опросахВы не можете прикреплять файлы к сообщениямВы можете скачивать файлы

piratbit.ru


Смотрите также