Зеленый фонарь скачать торрент в хорошем качестве


rutor.org :: Зеленый Фонарь / Green Lantern (2011) BDRip 1080p ::: Скачать торрент

Информация о фильмеНазвание: Зеленый ФонарьОригинальное название: Green LanternГод выхода: 2011Жанр: фантастика, фэнтези, боевик, триллер, приключенияРежиссер: Мартин КэмпбеллВ ролях: Райан Рейнольдс, Блейк Лайвли, Питер Сарсгаард, Марк Стронг, Анджела Бассетт, Тим Роббинс, Джей О. Сэндерс, Джон Тенни, Темуэра Моррисон, Таика Вайтити

О фильме: Во Вселенной, столь же бесконечной, сколь и загадочной, многие века существовал отряд воинов, обладающих огромной силой. Защитники мира и справедливости, их называют Корпус Зеленых Фонарей. Братство воинов, поклявшихся защищать межгалактический закон, где каждый из них носит кольцо, дарующее ему сверхспособности. Но когда новый враг по имени Параллакс угрожает нарушить равновесие во Вселенной, их судьба и судьба Земли оказывается в руках новобранца, первого человека в истории отряда — Хэла Джордана.

Хэл — дерзкий и талантливый летчик-испытатель, но Зеленые Фонари не испытывают доверия и уважения к человечеству, ведь людям до этого ни разу не удалось обуздать безграничную силу кольца. Но Хэл — как недостающий кусочек мозаики, и вместе с решимостью и силой воли он обладает тем, чего не было ни у одного звездного воителя, — человечностью. Если при поддержке напарника и подруги детства Кэрол Феррис (Блейк Лайвли) Хэл сможет быстро научиться управлять мощью кольца и найдет мужество преодолеть свои страхи, он сможет не только доказать, что он является ключом к победе над Параллаксом… но и станет величайшим Зеленым Фонарем из всех.

Выпущено: Warner Bros. PicturesПродолжительность: 01:54:01Перевод: Дублированный

ФайлКодек: x264Качество: BDRip (источник: Blu-ray Disc)Видео: 1920x800 (2,40:1), 23.976 fps, 5040 kbpsЗвук: 48 kHz, AC-3, 6 ch, 448 kbpsСубтитры: Русские (форс,полные), АнглийскиеСкачать: сэмпл

Скриншоты

MI

Общее Уникальный идентификатор : 206752109946808075801293442100722065869 (0x9B8B0209BE6FA15686137D32E072E1CD) Полное имя : Green.Lantern.2011.BDRip.1080p.Rus.mkv Формат : Matroska Версия формата : Version 2 Размер файла : 4,37 Гбайт Продолжительность : 1 ч. 54 м. Общий поток : 5489 Кбит/сек Дата кодирования : UTC 2011-10-20 05:20:17 Программа кодирования : mkvmerge v4.0.0 ('The Stars were mine') сборка от Jun 6 2010 16:18:42 Библиотека кодирования : libebml v1.0.0 + libmatroska v1.0.0

Видео Идентификатор : 1 Формат : AVC Формат/Информация : Advanced Video Codec Профиль формата : [email protected] Параметр CABAC формата : Да Параметр ReFrames формата : 5 кадров Идентификатор кодека : V_MPEG4/ISO/AVC Продолжительность : 1 ч. 54 м. Битрейт : 5040 Кбит/сек Ширина : 1920 пикселей Высота : 800 пикселей Соотношение сторон : 2,40:1 Частота кадров : 23,976 кадра/сек Цветовое пространство : YUV Субдискретизация насыщенности : 4:2:0 Битовая глубина : 8 бит Тип развёртки : Прогрессивная Бит/(Пиксели*Кадры) : 0.137 Размер потока : 3,93 Гбайт (90%) Библиотека кодирования : x264 core 118 r2085 8a62835 Настройки программы : cabac=1 / ref=5 / deblock=1:0:0 / analyse=0x3:0x133 / me=umh / subme=10 / psy=1 / psy_rd=1.00:0.10 / mixed_ref=1 / me_range=32 / chroma_me=1 / trellis=2 / 8x8dct=1 / cqm=0 / deadzone=21,11 / fast_pskip=0 / chroma_qp_offset=-3 / threads=12 / sliced_threads=0 / nr=0 / decimate=1 / interlaced=0 / bluray_compat=0 / constrained_intra=0 / bframes=5 / b_pyramid=2 / b_adapt=2 / b_bias=0 / direct=3 / weightb=1 / open_gop=0 / weightp=2 / keyint=240 / keyint_min=24 / scenecut=40 / intra_refresh=0 / rc_lookahead=60 / rc=2pass / mbtree=1 / bitrate=5040 / ratetol=1.0 / qcomp=0.60 / qpmin=0 / qpmax=69 / qpstep=4 / cplxblur=20.0 / qblur=0.5 / ip_ratio=1.40 / aq=1:1.00 Язык : English

Аудио Идентификатор : 2 Формат : AC-3 Формат/Информация : Audio Coding 3 Расширение режима : CM (complete main) Идентификатор кодека : A_AC3 Продолжительность : 1 ч. 54 м. Вид битрейта : Постоянный Битрейт : 448 Кбит/сек Каналы : 6 каналов Расположение каналов : Front: L C R, Side: L R, LFE Частота : 48,0 КГц Битовая глубина : 16 бит Метод сжатия : С потерями Размер потока : 365 Мбайт (8%) Язык : Russian

Текст #1 Идентификатор : 3 Формат : UTF-8 Идентификатор кодека : S_TEXT/UTF8 Идентификатор кодека/Информация : UTF-8 Plain Text Язык : Russian

Текст #2 Идентификатор : 4 Формат : UTF-8 Идентификатор кодека : S_TEXT/UTF8 Идентификатор кодека/Информация : UTF-8 Plain Text Язык : Russian

Текст #3 Идентификатор : 5 Формат : UTF-8 Идентификатор кодека : S_TEXT/UTF8 Идентификатор кодека/Информация : UTF-8 Plain Text Язык : English

Меню 00:00:00.000 : :Chapter 01 00:06:37.814 : :Chapter 02 00:16:36.078 : :Chapter 03 00:24:36.141 : :Chapter 04 00:33:13.908 : :Chapter 05 00:40:33.806 : :Chapter 06 00:48:23.817 : :Chapter 07 00:57:05.463 : :Chapter 08 01:04:24.527 : :Chapter 09 01:15:01.830 : :Chapter 10 01:23:11.486 : :Chapter 11 01:34:29.455 : :Chapter 12 01:42:22.761 : :Chapter 13 01:47:15.345 : :Chapter 14 01:54:00.959 : :Chapter 15

main-rutor.org

Скачать фильм Зеленый Фонарь через торрент в хорошем качестве бесплатно HDRip

Размер: 2.18 GB | Добавлен: 4 года 11 мес. назад | Торрент скачан:1610 раз
Реклама Дарим 3000 рублей за регистрацию, не упусти свой шанс получить шикарный бонус!!!

25-11-2012 07:52 Зеленый Фонарь Скачать торрент  

Зеленый Фонарь / Green Lantern

Год выпуска: 2011Страна: СШАЖанр: фантастика, боевик, триллер, приключенияПродолжительность: 01:54:02Перевод: Профессиональный (полное дублирование) [Rus]Профессиональный (полное дублирование) [Ukr]Субтитры: русские (полные + форсированные), английские (отдельно на narod.ru)

Режиссер: Мартин КэмпбеллПродюссер: Грег Берланти, Дональд Де Лайн, Херб ГейнсСценарий: Грег Берланти, Майкл Грин, Марк Гуггенхайм

Бюджет: $200 000 000Премьера в мире: 14 июня 2011

В ролях: Райан Рейнольдс, Блейк Лайвли, Питер Сарсгаард, Марк Стронг, Анджела Бассетт, Тим Роббинс, Джей О. Сэндерс, Джон Тенни, Темуэра Моррисон, Таика ВайтитиОписание: Во Вселенной, столь же бесконечной, сколь и загадочной, многие века существовал отряд воинов, обладающих огромной силой. Защитники мира и справедливости, их называют Корпус Зеленых Фонарей. Братство воинов, поклявшихся защищать межгалактический закон, где каждый из них носит кольцо, дарующее ему сверхспособности. Но когда новый враг по имени Параллакс угрожает нарушить равновесие во Вселенной, их судьба и судьба Земли оказывается в руках новобранца, первого человека в истории отряда — Хэла Джордана.

Хэл — дерзкий и талантливый летчик-испытатель, но Зеленые Фонари не испытывают доверия и уважения к человечеству, ведь людям до этого ни разу не удалось обуздать безграничную силу кольца. Но Хэл — как недостающий кусочек мозаики, и вместе с решимостью и силой воли он обладает тем, чего не было ни у одного звездного воителя, — человечностью. Если при поддержке напарника и подруги детства Кэрол Феррис (Блейк Лайвли) Хэл сможет быстро научиться управлять мощью кольца и найдет мужество преодолеть свои страхи, он сможет не только доказать, что он является ключом к победе над Параллаксом… но и станет величайшим Зеленым Фонарем из всех.

Качество: HDRip (source: BDRip 1080p)Формат: AVIВидео кодек: XviDАудио кодек: AC3Видео: 720x304 (2.37:1), 23.976 fps, XviD build 64 ~2350 kbps avg, 0.45 bit/pixelАудио:
  • 48 kHz, AC3 Dolby Digital, 3/2 (L,C,R,l,r) + LFE ch, ~384 kbps [Rus]
  • 48 kHz, AC3 Dolby Digital, 3/2 (L,C,R,l,r) + LFE ch, ~384 kbps [Eng] (отдельно на narod.ru)
  • 48 kHz, AC3 Dolby Digital, 3/2 (L,C,R,l,r) + LFE ch, ~384 kbps [Ukr] (отдельно на narod.ru)
Автор рипа: DiscipleРелиз-группы:

Зеленый Фонарь скачать торрент

Скачать Зеленый Фонарь через торрент http://i48.fastpic.ru/big/2012/1124/c1/1074023bf65846d957e84a55f65ce9c1.jpg Скачать фильм Зеленый Фонарь через торрент бесплантно в хорошем качестве Описание: Во Вселенной, столь же бесконечной, сколь и загадочной, многие века существовал отряд воинов, обладающих огромной силой. ... 2012-11-25 07:52 9.8 10 25

Loading...

Loading...

Рекламный пират

Дорогой пользователь! Огромная просьба, поблагодарите релизера, оцените раздачу и оставьте свои комментарий, если Вы скачали Зеленый Фонарь через торрент бесплатно! Внесите свою лепту в развитие PiratBit!

Комментировать посты могут только пользователи прошедшие не сложную регистрацию

Зеленый Фонарь через торрент Скачать бесплатно Зеленый Фонарь Зеленый Фонарь скачать торрент Зеленый Фонарь смотреть онлайн Cкачать фильм Зеленый Фонарь бесплатно Зеленый Фонарь скачать торрент в хорошем качестве Зеленый Фонарь смотреть онлайн бесплатно в хорошем качестве

Вы не можете начинать темыВы не можете отвечать на сообщенияВы не можете редактировать свои сообщенияВы не можете удалять свои сообщенияВы не можете голосовать в опросахВы не можете прикреплять файлы к сообщениямВы можете скачивать файлы

piratbit.ru

Скачать фильм Зеленый Фонарь через торрент в хорошем качестве бесплатно 720p

• Год выпуска: 2011• Страна: США• Жанр: фантастика, боевик, триллер, приключения• Продолжительность: 01:54:01

• Перевод: Дубляж, Лицензия

• Режиссер: Мартин Кэмпбелл

• В ролях: Райан Рейнольдс, Блейк Лайвли, Питер Сарсгаард, Марк Стронг, Анджела Бассетт, Тим Роббинс, Джей О. Сэндерс, Джон Тенни.

• Описание: Во Вселенной, столь же бесконечной, сколь и загадочной, многие века существовал отряд воинов, обладающих огромной силой. Защитники мира и справедливости, их называют Корпус Зеленых Фонарей. Братство воинов, поклявшихся защищать межгалактический закон, где каждый из них носит кольцо, дарующее ему сверхспособности. Но когда новый враг по имени Параллакс угрожает нарушить равновесие во Вселенной, их судьба и судьба Земли оказывается в руках новобранца, первого человека в истории отряда — Хэла Джордана.

Хэл — дерзкий и талантливый летчик-испытатель, но Зеленые Фонари не испытывают доверия и уважения к человечеству, ведь людям до этого ни разу не удалось обуздать безграничную силу кольца. Но Хэл — как недостающий кусочек мозаики, и вместе с решимостью и силой воли он обладает тем, чего не было ни у одного звездного воителя, — человечностью. Если при поддержке напарника и подруги детства Кэрол Феррис (Блейк Лайвли) Хэл сможет быстро научиться управлять мощью кольца и найдет мужество преодолеть свои страхи, он сможет не только доказать, что он является ключом к победе над Параллаксом… но и станет величайшим Зеленым Фонарем из всех.

• Качество: BDRip 720p• Формат: MKV• Видео кодек: AVC• Аудио кодек: AC3• Видео: AVC, 1280x532 (2.406), 59.940 fps, 5 440 Kbps• Аудио: AC-3, 48.0 KHz, 6 ch, 448 Kbps, CBR (Дубляж)

GeneralUnique ID : 181750543181493301115067924077053085875 (0x88BBE1A04C0922DD83A4D71A5D7E08B3)Complete name : D:\Моя музыка\Green Lantern 60fps.mkvFormat : MatroskaFormat version : Version 2File size : 4.79 GiBDuration : 1h 54mnOverall bit rate : 6 008 KbpsEncoded date : UTC 2014-04-10 09:22:17Writing application : mkvmerge v6.1.0 ('Old Devil') built on Mar 4 2013 09:10:42Writing library : libebml v1.3.0 + libmatroska v1.4.0

VideoID : 1Format : AVCFormat/Info : Advanced Video CodecFormat profile : [email protected] settings, CABAC : YesFormat settings, ReFrames : 5 framesCodec ID : V_MPEG4/ISO/AVCDuration : 1h 54mnBit rate : 5 440 KbpsWidth : 1 280 pixelsHeight : 532 pixelsDisplay aspect ratio : 2.40:1Frame rate mode : ConstantFrame rate : 59.880 fpsOriginal frame rate : 59.940 fpsColor space : YUVChroma subsampling : 4:2:0Bit depth : 8 bitsScan type : ProgressiveBits/(Pixel*Frame) : 0.133Stream size : 4.33 GiB (91%)Writing library : x264 core 130 r2273 b3065e6Encoding settings : cabac=1 / ref=5 / deblock=1:-3:-2 / analyse=0x3:0x133 / me=umh / subme=8 / psy=1 / psy_rd=1.00:0.15 / mixed_ref=1 / me_range=20 / chroma_me=1 / trellis=2 / 8x8dct=1 / cqm=0 / deadzone=21,11 / fast_pskip=0 / chroma_qp_offset=-3 / threads=6 / lookahead_threads=1 / sliced_threads=0 / nr=0 / decimate=0 / interlaced=0 / bluray_compat=0 / constrained_intra=0 / bframes=6 / b_pyramid=2 / b_adapt=2 / b_bias=0 / direct=1 / weightb=1 / open_gop=1 / weightp=2 / keyint=599 / keyint_min=59 / scenecut=40 / intra_refresh=0 / rc_lookahead=60 / rc=crf / mbtree=1 / crf=16.0 / qcomp=0.60 / qpmin=0 / qpmax=69 / qpstep=4 / ip_ratio=1.50 / aq=1:1.20Default : YesForced : No

AudioID : 2Format : AC-3Format/Info : Audio Coding 3Mode extension : CM (complete main)Format settings, Endianness : BigCodec ID : A_AC3Duration : 1h 54mnBit rate mode : ConstantBit rate : 448 KbpsChannel(s) : 6 channelsChannel positions : Front: L C R, Side: L R, LFESampling rate : 48.0 KHzBit depth : 16 bitsCompression mode : LossyStream size : 365 MiB (7%)Default : YesForced : No

piratbit.ru

Зеленый Фонарь / Green Lantern (фильм , 2011, BDRip, HDRip, DVDRip) + торрент

Вселенная всегда славилась своей безграничностью и загадочностью. В ней многие века существовал отряд воинов, обладающих огромной силой. Корпус Зеленых Фонарей защищал мир и справедливость, поддерживал баланс сил во Вселенной. Но равновесие сил рискует быть нарушено с прибытием злейшего врага Параллакса, который жаждет завладеть Вселенной. Действия фильма перемещаются на планету Земля, на которой и произойдут важнейшие события. Герой фильма Хэл – летчик-испытатель, которому суждено стать первым человеком, сумевшим получить и обуздать силу зеленых фонарей.

Зеленый Фонарь

Другое название Green Lantern
фильм выпущен: 2011
Страна (кинокомпания): США
Режиссер: Мартин Кэмпбелл
Сценарий фильма: Грег Берланти, Майкл Грин, Марк Гуггенхайм
Продюсер фильма: Грег Берланти, Дональд Де Лайн, Херб Гейнс
Оператор: Дион Биби
Композитор: Джеймс Ньютон Ховард
Художники: Грант Мейджор, Франсуа Одуи, Карл Хорнер
Монтаж: Стюарт Бейрд
Жанр фильма: фантастика, боевик, триллер, криминал
Премьера (мир): 14 июня 2011
премьера (Pоссия):
продолжительность1 час 40 мин
В главных ролях:
Райан Рейнольдс
Питер Сарсгаард
Блейк Лайвли
Марк Стронг
Майк Дойл
Темуэра Моррисон
Джон Тенни
Дженна Крэйг
и другие ...

 

Скриншоты фильма (для увеличения нажмите)

1024×68577 Кб 1024×68582 Кб 1024×68553 Кб
Смотрите фильм онлайн:

Фильм Зеленый Фонарь / Green Lantern скачать торрент - новинка кино 2011

Скачать файлы .torrent Зеленый Фонарь (фильм)

на сайте Вы можете получить ссылку на торрент файлы или скачать сами торрент файлы, в которых находится информация о местонахождении фильмов, сериалов у пользователей.

В фильме "Зеленый Фонарь" - описывает борьбу с силой зеленых фонарей, попавших не в те руки



Параметры: 28.03.2017 BDRip, 2,2 Гб -

Формат: BDRip, AVI, XviD, размер файла: 2,2 ГбВидео: 720x304, XviD - build 65 ~1753 Кбит/сАудио: Русский / Оригинал: AC3, 6 каналов, 384 Кбит/сПеревод (озвучивание): Профессиональный (полное дублирование) {со вставками BBC Saint-Petersburg!}

Параметры: 15.11.2012 BDRip 1080p | Театральная версия / Theatrical Cut, 7,76 Гб

Формат: BDRip 1080p, MKV, AC3, размер файла: 7,76 ГбВидео: 1920x800, - 8847 Кбит/сАудио: Русский: AC3, 6 каналов, 448 Кбит/с / English: AC3, 6 каналов, 448 Кбит/сПеревод (озвучивание): Дублированный + Оригинал

Параметры: 20.05.2012 HDRip от Vaippp | Extended Cut, 1,45 Гб

Формат: HDRip | исх. Green.Lantern.2011.EXTENDED.BluRay.720p.DTS.x264-CHD, AVI, XviD, AC3, размер файла: 1,45 ГбВидео: 688x288, XviD - 1226 Кбит/сАудио: Русский: AC3, 6 каналов, 448 Кбит/сПеревод (озвучивание): Профессиональный многоголосый | BBC Saint-Petersburg

Параметры: 27.11.2011 BDRip 720p от HQ-ViDEO | Extended Cut, 6,13 Гб

Формат: BDRip 720p (Исходник: Blu-ray), MKV, AVC, Формат:, размер файла: 6,13 ГбВидео: 1280x534, AVC - ; 5144 Кбит/сАудио: Русский: Формат:, 6 каналов, 448 Кбит/сПеревод (озвучивание): Русский дублированный перевод (со вставками многоголосого перевода) + Оригинальная английская дорожка

Параметры: 20.10.2011 BDRip 1080p, 4,37 Гб

Формат: BDRip (источник: Blu-ray Disc), MKV, AC3, размер файла: 4,37 ГбВидео: 1920x800, - 5040 Кбит/сАудио: AC3, 6 каналов, 448 Кбит/сПеревод (озвучивание): Дублированный

Параметры: 24.09.2011 DVDRip исходник неизвестен, 1,4 Гб -

Формат: DVDRip исходник неизвестен, A, размер файла: 1,4 ГбВидео: , MPEG-4 - ~1320 Кбит/сАудио: AC3, 6 каналов, 384 Кбит/сПеревод (озвучивание): Профессиональный (одноголосый, закадровый) (Вячеслав Замез), cубтитры: отсутствуют

 

Скачать Зеленый Фонарь, Green Lantern, фильм бесплатно скачать торрент, фантастика, боевик, триллер, криминал, новинка кино

 

hokit.ru


Смотрите также