Запрещенный прием скачать торрент в хорошем качестве hd 1080


Обсуждение Фильмов - Запрещенный прием

Gansta1388 2 596

Возраст:7 Мужской

Сообщений: 103

Очень сильно хочу увидеть этот фильм в хорошем качестве!

SALIGIA 109

Возраст:105 не указан

Сообщений: 627

Познаю смысл жизни через мучения.

На фильмы Снайдера нужно ходить в кино!!!

f1re

Возраст:21 Мужской

Сообщений: 31

Мне не понравилось. Девочки супер убийцы это даже звучит бредово.

DIDI 50

Возраст:33 Женский

Сообщений: 452

Самое важное в женской одежде - женщина, которая её носит...

Блондинка с накладными ресницами, что то не впечатляет

СТРОГИЙ,НО СПРАВЕДЛИВЫЙ

хороший фильмец,ждём качество

Peresmeshnik

Возраст:37 Мужской

Сообщений: 13

SALIGIA пишет:

На фильмы Снайдера нужно ходить в кино!!!Абсолютно согласен.На все предыдущие его работы ходил в кино,и на *Рассвет мертвецов* и на *Спартанцев*ну и на *Хранителей* и даже на *Стражей*ходили с ребенком.Ни разу не пожалел.Думаю не стоит изменять хорошей традиции и схожу в кино!!! rah7

Возраст:7 не указан

Сообщений: 200

f1re пишет:

Мне не понравилось. Девочки супер убийцы это даже звучит бредово.

За "Девочки супер убийцы это даже звучит бредово"

+100! Спасибо! Даже качать не буду.

Bassin' Dave

Возраст:4 не указан

Сообщений: 157 сначала был заинтригован.но узнав,что это очередная "работа" режиссера "300 спартанцев" ,еще несколько раз подумаю смотреть или нет.а уж в кино точно не пойду. zhukus

Возраст:34 Мужской

Сообщений: 16

ожидал лучшего((((не впечатлил!

deo1983

Karma:+5 / -2

[+] [-]

Возраст:3 не указан

Сообщений: 23

фильм вроде ничего но очень запутан !!!непонятно что к чему и почему !

a1liancepro

Возраст:28 Мужской

Сообщений: 40

эпикуреец пишет:

сначала был заинтригован.но узнав,что это очередная "работа" режиссера "300 спартанцев" ,еще несколько раз подумаю смотреть или нет.а уж в кино точно не пойду.

ппц логика

Archi97

Karma:+0 / -4

[+] [-]

Возраст:Не указан не указан

Сообщений: 1

НЕ советую этого делать, он от режсеров Скайлайн! Фильм ни о чем! Самураи с базукой и шестистволкой?! Что ж увлекательно! Робот во Вторую мировую? Интересно! Рыцари против монстров, а тут они с автоматами и самолетом с ракетами! Логики )

Ragnar_ 5

Возраст:32 не указан

Сообщений: 16

друзья, только с кинотеатра, осилил ровно час, потом не выдержал такого надругательства над своими нервами и ушел, хотел сначала написать ни в коем случае не смотрите, а теперь решил что лучше посмотреть, чтоб знать какое Дерьмище могут показывать в кино....

_joker_ 21

Возраст:28 Мужской

Сообщений: 84

Посмотрел в кинотеатре, понравился, хотя немного очень наиграно в некоторых местах, ну что ж сказка есть сказка, но еще раз посмотрел бы, спецэффекты неплохие))чем то на квест похоже, вам надо достать то-то, то-то и т.д)))ждем качества

TheDante

Karma:+1 / -2

[+] [-]

Возраст:3 не указан

Сообщений: 6

Да снято хорошо, девченки на 5+ , но сюжетная линия неочем ! Я бы не стал тратить время на этот фильм, если вам конечно не 16 лет и вы не заядлый фанат фантастических боевиков

ну что господа - посмотрим Qshar

Возраст:5 не указан

Сообщений: 24

Фильм суперский, интересно смотреть, красивые спецэффекты и качественная компьютерная графика. Смотреть в хорошем качестве в кинотеатре - дома вряд ли будет такой эффект.

KonstantinE 1

Возраст:216 не указан

Сообщений: 20

Как можно на Эмили Браунинг смотреть в таком качестве? Вы издеваетесь что ли?

Алекс77

Возраст:4 Мужской

Сообщений: 44

на 3

ivo1980 10

Возраст:34 Мужской

Сообщений: 29 01 Апрель 2011 01:38 Cудя по трелеру фильм бомба!!!! Буду ждать качества Безликий

Karma:+0 / -2

[+] [-]

Возраст:21 Женский

Сообщений: 1 01 Апрель 2011 02:08 смотрела в кинотеатре...смецэффекты классные , все аккуратненько сделано, но скучный какой-то фильмец получился до ужаса( так глаза и закрывались - сон, здоровый сон)))) 01 Апрель 2011 02:54

Осилил лишь полчаса.Начало нудно-хреновое.На 20 минуте начался какой-то бред,но то что я посмотрел перед этим не затянуло и смотреть дальше дабы понять что к чему не захотелось.Качество ни при чём.

01 Апрель 2011 10:53 Полная фигня,даже время не тратьте.... Zmey

Возраст:38 Мужской

Сообщений: 53

Zmey

01 Апрель 2011 12:02

я так думаю это бред полный, говнецо ещё то, а кто-то 5 ставит ещё и с "+", накачал всякую хрень, неделю, млин, качал думал в выходные посмотрю, отдохну, х.й, 6фильмов за 15-ть минут посмотрел, полнейший бред. Я НЕ КАЧАЮ...

[email protected]

Karma:+5 / -11

[+] [-]

Возраст:24 Мужской

Сообщений: 7 01 Апрель 2011 12:44 что за глупая критика народ вы че в Черно-Белом кино живете?красивый кинчик дождусь лучшего качевства Mr.Bono 64

Возраст:26 Мужской

Сообщений: 174 01 Апрель 2011 13:55

Archi97 пишет:

НЕ советую этого делать, он от режсеров Скайлайн! Фильм ни о чем! Самураи с базукой и шестистволкой?! Что ж увлекательно! Робот во Вторую мировую? Интересно! Рыцари против монстров, а тут они с автоматами и самолетом с ракетами! Логики )

Скайлайн вообще другие люди снимали, какое он имеет отношение к ним? Фильмы Зака это 300 спартанцев, Хранители, про мертвяков там всякие и т.д. В общем весьма популярные. Этот фильм ещё не смотрел, но планирую сходить в кинотеатр в ближайшие дни на него.

n7f7 13

Возраст:7 не указан

Сообщений: 523 01 Апрель 2011 15:00 Непонравился. 01 Апрель 2011 15:00 Ну во первых,фильм невозможно смотреть из-за качества,но это не говорит о том,что фильм не шедевр!Аналог идеи взят от фильма Трон.Наследие,только там делают ударение на виртуальном мире,а в этом фильме на подсознании хрупкой девушки!Кто нибудь из вас вообще пытался дать логическое объяснение своим снам? Так вот этот фильм и есть работа подсознания,поэтому там всё смешано и запутано!А подсознание несет ответственность за сны человека! Так что этот фильм может превзойти Трон.Наследие!

Вы не можете оставлять больше 10 комментариев в сутки!

www.fast-torrent.ru

Скачать фильм Запрещенный прием (2011) через торрент

13 января 2016 11:53 Запрещенный прием / Sucker Punch (2011) BDRip 720p от Leonardo and Scarabey .torrent   [Информация о файле (нажмите для просмотра)] Перевод: Профессиональный (дублированный) + DVO Кубик в кубе (на расширенные сцены)Формат: MKVВидео кодек: MPEG-4 AVC Аудио кодек: AC3Видео: AVC, 1280x534 (2.40:1) at 23.976 fps, AVC at 3460 kbps avg, 0.206 bit/pixelАудио: Russian: 48 kHz; AC3 5.1; 640.00 kbps avg; профессиональный, полное дублированиеСубтитры: Русские, английские 3,65 Gb 158 7 13 января 2016 11:53 Запрещенный прием / Sucker Punch (2011) BDRip от Torrange | P2, A | Кубик в Кубе, Гаврилов .torrent   [Информация о файле (нажмите для просмотра)] Перевод: Профессиональный (двухголосый закадровый)Кубик в Кубе + Aвторский (одноголосый) Андрей ГавриловКодек: XviD, AVIКачество: BDRipВидео: 720x304 (2.35:1), 23.976 fps, 1 538 Kbps (0.293 bit/pixel)Звук #1: AC-3, 48.0 KHz, 6 ch, 448 KbpsЗвук #2: AC-3, 48.0 KHz, 6 ch, 448 Kbps 2,18 Gb 12 1 13 января 2016 11:53 Запрещённый приём / Sucker Punch (2011) BDRip 720p от GORESEWAGE | Extended Cut .torrent   [Информация о файле (нажмите для просмотра)] Перевод 1: Профессиональный (дублированный) + DVO Кубик в кубе (на расширенные сцены)Перевод 2: Профессиональный (дублированный) + VO acolith (на расширенные сцены)Перевод 3: Профессиональный (двухголосый закадровый) Кубик в кубеПеревод 4: Авторский (одноголосый закадровый) А. ГавриловПеревод 5: Одноголосый закадровый acolithПеревод 6: Одноголосый закадровый Doctor_Joker (Алексей Матвеев)Перевод 7: Одноголосый закадровый С. РапсодовПеревод 8: Профессиональный (дублированный) UkrСубтитры: Русские (Forced Voronine, Full Voronine, SDH Voronine, Full Doctor_Joker), английские (Full, SDH)Качество: BDRip 720p(NiP)Контейнер: MKVВидео: MPEG-4 AVC Video / 7671 kbps / 1280x534p / 23,976 fps / 2.40:1 / High Profile 4.1Аудио 1: Russian / AC3 / 5.1 / 48 kHz / 640 kbps / 16-bit / Dub + DVO Кубик в кубеАудио 2: Russian / AC3 / 5.1 / 48 kHz / 384 kbps / 16-bit / Dub + VO acolithАудио 3: Russian / DTS / 5.1 / 48 kHz / 1536 kbps / 24-bit / DVO Кубик в кубеАудио 4: Russian / DTS / 5.1 / 48 kHz / 1536 kbps / 24-bit / AVO А. ГавриловАудио 5: Russian / DTS / 5.1 / 48 kHz / 1536 kbps / 24-bit / VO acolithАудио 6: Russian / DTS / 5.1 / 48 kHz / 1536 kbps / 24-bit / VO Doctor_Joker (Алексей Матвеев)Аудио 7: Russian / AC3 / 5.1 / 48 kHz / 640 kbps / 16-bit / VO С. РапсодовАудио 8: Ukrainian / AC3 / 5.1 / 48 kHz / 640 kbps / 16-bit / DubАудио 9: English / DTS / 5.1 / 48 kHz / 1536 kbps / 24-bit / Original 15,75 Gb 10 1 13 января 2016 11:53 Запрещённый приём / Sucker Punch (2011) BDRemux 1080p от GORESEWAGE | Extended Cut .torrent   [Информация о файле (нажмите для просмотра)] Перевод 1: Профессиональный (дублированный) + DVO Кубик в кубе (на расширенные сцены)Перевод 2: Профессиональный (дублированный) + VO acolith (на расширенные сцены)Перевод 3: Профессиональный (двухголосый закадровый) Кубик в кубеПеревод 4: Авторский (одноголосый закадровый) А. ГавриловПеревод 5: Одноголосый закадровый acolithПеревод 6: Одноголосый закадровый Doctor_Joker (Алексей Матвеев)Перевод 7: Одноголосый закадровый С. РапсодовПеревод 8: Профессиональный (дублированный) UkrСубтитры: Русские (Forced Voronine, Full Voronine, SDH Voronine, Full Doctor_Joker), английские (Full, SDH)Качество: BDRemux 1080p(Sucker Punch Extended Cut 2011 BluRay 1080p AVC DTS-HD MA5.1-CHDBits)Контейнер: MKVВидео: MPEG-4 AVC Video / 23878 kbps / 1920x1080p / 23,976 fps / 16:9 / High Profile 4.1Аудио 1: Russian / AC3 / 5.1 / 48 kHz / 640 kbps / 16-bit / Dub + DVO Кубик в кубеАудио 2: Russian / AC3 / 5.1 / 48 kHz / 384 kbps / 16-bit / Dub + VO acolithАудио 3: Russian / DTS-HD MA / 5.1 / 48 kHz / 4144 kbps / 24-bit (DTS Core: 5.1 / 48 kHz / 1509 kbps / 24-bit) / DVO Кубик в кубеАудио 4: Russian / DTS-HD MA / 5.1 / 48 kHz / 4107 kbps / 24-bit (DTS Core: 5.1 / 48 kHz / 1509 kbps / 24-bit) / AVO А. ГавриловАудио 5: Russian / DTS / 5.1 / 48 kHz / 1536 kbps / 24-bit / VO acolithАудио 6: Russian / DTS / 5.1 / 48 kHz / 1536 kbps / 24-bit / VO Doctor_Joker (Алексей Матвеев)Аудио 7: Russian / AC3 / 5.1 / 48 kHz / 640 kbps / 16-bit / VO С. РапсодовАудио 8: Ukrainian / AC3 / 5.1 / 48 kHz / 640 kbps / 16-bit / DubАудио 9: English / DTS-HD MA / 5.1 / 48 kHz / 4105 kbps / 24-bit (DTS Core: 5.1 / 48 kHz / 1509 kbps / 24-bit) / Original 36,85 Gb 10 13 13 января 2016 11:53 Запрещённый приём / Sucker Punch (2011) BDRip 1080p от GORESEWAGE | Extended Cut .torrent   [Информация о файле (нажмите для просмотра)] Перевод 1: Профессиональный (дублированный) + DVO Кубик в кубе (на расширенные сцены)Перевод 2: Профессиональный (дублированный) + VO acolith (на расширенные сцены)Перевод 3: Профессиональный (двухголосый закадровый) Кубик в кубеПеревод 4: Авторский (одноголосый закадровый) А. ГавриловПеревод 5: Одноголосый закадровый acolithПеревод 6: Одноголосый закадровый Doctor_Joker (Алексей Матвеев)Перевод 7: Одноголосый закадровый С. РапсодовПеревод 8: Профессиональный (дублированный) UkrСубтитры: Русские (Forced Voronine, Full Voronine, SDH Voronine, Full Doctor_Joker), английские (Full, SDH)Качество: BDRip 1080p(NiP)Контейнер: MKVВидео: MPEG-4 AVC Video / 16000 kbps / 1920x800p / 23,976 fps / 2.40:1 / High Profile 4.1Аудио 1: Russian / AC3 / 5.1 / 48 kHz / 640 kbps / 16-bit / Dub + DVO Кубик в кубеАудио 2: Russian / AC3 / 5.1 / 48 kHz / 384 kbps / 16-bit / Dub + VO acolithАудио 3: Russian / DTS / 5.1 / 48 kHz / 1536 kbps / 24-bit / DVO Кубик в кубеАудио 4: Russian / DTS / 5.1 / 48 kHz / 1536 kbps / 24-bit / AVO А. ГавриловАудио 5: Russian / DTS / 5.1 / 48 kHz / 1536 kbps / 24-bit / VO acolithАудио 6: Russian / DTS / 5.1 / 48 kHz / 1536 kbps / 24-bit / VO Doctor_Joker (Алексей Матвеев)Аудио 7: Russian / AC3 / 5.1 / 48 kHz / 640 kbps / 16-bit / VO С. РапсодовАудио 8: Ukrainian / AC3 / 5.1 / 48 kHz / 640 kbps / 16-bit / DubАудио 9: English / DTS / 5.1 / 48 kHz / 1536 kbps / 24-bit / Original 23,32 Gb 15 3 13 января 2016 11:53 Запрещенный прием / Sucker Punch (2011) BDRip 1080p от FREEISLAND | Extended Cut .torrent   [Информация о файле (нажмите для просмотра)] Перевод: Профессиональный (двухголосый закадровый)«Кубик в кубе»Субтитры: Russian (forced), Russian (full), English (srt)Качество: BDRipФормат: MKVВидео: 1920x800 (2.40:1), 23.976 fps, AVC, 6 559 KbpsАудио: Аудио #1: AC3, 640 Kbps, 48.0 KHz, 6 ch RUS DVO «Кубик в кубе»Аудио #2: AC3, 640 Kbps, 48.0 KHz, 6 ch RUS Dub Дубляж CEE + «Кубик в кубе»Аудио #3: AC3, 640 Kbps, 48.0 KHz, 6 ch RUS Dub Дубляж CEE + субтитры на не переведенные местаАудио #4: AC3, 448 Kbps, 48.0 KHz, 6 ch ENG 7,95 Gb 78 9 13 января 2016 11:53 Запрещенный прием / Sucker Punch (2011) BDRip-AVC от potroks | Extended Cut .torrent   [Информация о файле (нажмите для просмотра)] Перевод: Профессиональный (полное дублирование) + VO (на расширенные места)Субтитры: Английские, английские (SDH), русские (полные + форс.)Качество: BDRip-AVC [Sucker Punch 2011 Extended Cut Blu ray US 1080p AVC DTS HD MA 5 1]Формат: MKVВидео: H.264, 1032x430 (2,40:1), 23,976 fps, 1630 Кbps, 0.153 bit/pixelАудио#1: 48 kHz, AC3 Dolby Digital, 3/2 (L,C,R,l,r) + LFE ch, 448.00 kbps |RUSАудио#2: 48 kHz, AC3 Dolby Digital, 3/2 (L,C,R,l,r) + LFE ch, 384.00 kbps |ENGВидео: Идентификатор : 1 Формат : AVC Формат/Информация : Advanced Video Codec Профиль формата : [email protected] Параметр CABAC формата : Да Параметр ReFrames формата : 10 кадров Идентификатор кодека : V_MPEG4/ISO/AVC Продолжительность : 2 ч. 7 м. Битрейт : 1630 Кбит/сек Ширина : 1032 пикселя Высота : 430 пикселей Соотношение сторон : 2,40:1 Режим частоты кадров : Постоянный Частота кадров : 23,976 кадра/сек Цветовое пространство : YUV Субдискретизация насыщенности : 4:2:0 Битовая глубина : 8 бит Тип развёртки : Прогрессивная Бит/(Пиксели*Кадры) : 0.153 Размер потока : 1,41 Гбайт (64%) Заголовок : Sucker Punch Библиотека кодирования : x264 core 125 r2208 d9d2288 Настройки программы : cabac=1 / ref=10 / deblock=1:-3:-3 / analyse=0x3:0x133 / me=umh / subme=9 / psy=1 / psy_rd=1.05:0.00 / mixed_ref=1 / me_range=32 / chroma_me=1 / trellis=2 / 8x8dct=1 / cqm=0 / deadzone=21,11 / fast_pskip=0 / chroma_qp_offset=-2 / threads=9 / lookahead_threads=1 / sliced_threads=0 / nr=0 / decimate=1 / interlaced=0 / bluray_compat=0 / constrained_intra=0 / bframes=11 / b_pyramid=2 / b_adapt=2 / b_bias=0 / direct=3 / weightb=1 / open_gop=0 / weightp=2 / keyint=240 / keyint_min=23 / scenecut=40 / intra_refresh=0 / rc_lookahead=150 / rc=2pass / mbtree=1 / bitrate=1630 / ratetol=1.0 / qcomp=0.70 / qpmin=0 / qpmax=69 / qpstep=4 / cplxblur=20.0 / qblur=0.5 / vbv_maxrate=20000 / vbv_bufsize=22500 / nal_hrd=none / ip_ratio=1.35 / aq=1:0.90 Язык : English Default : Да Forced : НетАудио #1: Идентификатор : 2 Формат : AC-3 Формат/Информация : Audio Coding 3 Расширение режима : CM (complete main) Параметр Endianness формата : Big Идентификатор кодека : A_AC3 Продолжительность : 2 ч. 7 м. Вид битрейта : Постоянный Битрейт : 448 Кбит/сек Каналы : 6 каналов Расположение каналов : Front: L C R, Side: L R, LFE Частота : 48,0 КГц Битовая глубина : 16 бит Метод сжатия : С потерями Размер потока : 409 Мбайт (18%) Заголовок : Dub | DD 5.1 @ 448 kbps Язык : Russian Default : Да Forced : ДаАудио #2: Идентификатор : 3 Формат : AC-3 Формат/Информация : Audio Coding 3 Расширение режима : CM (complete main) Параметр Endianness формата : Big Идентификатор кодека : A_AC3 Продолжительность : 2 ч. 7 м. Вид битрейта : Постоянный Битрейт : 384 Кбит/сек Каналы : 6 каналов Расположение каналов : Front: L C R, Side: L R, LFE Частота : 48,0 КГц Битовая глубина : 16 бит Метод сжатия : С потерями Размер потока : 350 Мбайт (16%) Заголовок : Original | DD 5.1 @ 384 kbps Язык : English Default : Нет Forced : Нет 2,19 Gb 54 2 13 января 2016 11:53 Запрещенный прием / Sucker Punch (2011) BDRip-AVC | Театральная версия .torrent   [Информация о файле (нажмите для просмотра)] Перевод: Проф. (полное дублирование) + ОригиналКодек: H.264Качество: BDRip-AVC - исх. BDRemux 1080pВидео: 720x300 (2.40:1), 23.976 fps, ~835 kbps, 0.161 b/pЗвук: 1 (RUS): AАС-НЕ, 48000Hz, 2 channels (L+R), ~60 Kbps 2 (ENG): AАС-НЕ, 48000Hz, 2 channels (L+R), ~56 Kbps 746,27 Mb 16 6 13 января 2016 11:53 Запрещенный прием / Sucker Punch (2011) HDRip от Scarabey | Расширенная версия / Extended Cut .torrent   [Информация о файле (нажмите для просмотра)] Перевод: Профессиональное (полное дублирование)[Лицензия]+ acolith одноголосый, закадровый перевод расширенных моментов!Кодек: XviDКачество: HDRipВидео: 720x304 (2.37:1), 23.976 fps, XviD build 50 ~1428 kbps avg, 0.27 bit/pixelЗвук: 48 kHz, AC3 Dolby Digital, 2/0 (L,R) ch, ~192.00 kbps avg 1,45 Gb 233 14 13 января 2016 11:53 Запрещенный прием / Sucker Punch (2011) HDRip-AVC | Лицензия | Extended Cut .torrent   [Информация о файле (нажмите для просмотра)] Перевод: Дублированный (одноголосый на расширенные сцены)Формат: MP4Качество: HDRip-AVCВидео: 720x304, 1968 Kb/sЗвук 1: AC3, 384 Kb/s (6 ch) | РусскийЗвук 2: AC3, 384 Kb/s (6 ch) | АнглийскийСубтитры: Английские / Русские (Внешние .srt) 2,42 Gb 30 7 13 января 2016 11:53 Запрещенный прием / Sucker Punch (2011) Blu-Ray | Extended Cut .torrent   [Информация о файле (нажмите для просмотра)] Перевод: Дублированное [лицензия] c субтитрами на непереведенные местаКодек: m2tsКачество: Blu-RayВидео: 1920x1080p / 23,976 fps / 16:9 / High Profile 4.1, H.264, ~ 23880 kbpsАудио: Russian / Ukrainian: AC3, 640 kb/s (6 ch) / English: DTS-HD MA, 4105 kb/s (6 ch) / DTS Express, 96 kb/s (1 ch)Субтитры: Russian [Full-length Voronine], Russian [SDH Voronine], Russian [Forced Voronine], English 31,51 Gb 6 5 13 января 2016 11:53 Запрещённый приём / Sucker Punch (2011) BDRip 720p от HQCLUB | Extended Cut .torrent   [Информация о файле (нажмите для просмотра)] Контейнер: MKVВидео: 1280x534 (2.40:1), 23.976 fps,, 2pass, ~5827 kbpsАудио #1: Russian: 48 kHz/24-bit,DTS, 3/2 (L,C,R,l,r) + LFE ch, ~Аудио #2: Russian: 48 kHz/24-bit,DTS, 3/2 (L,C,R,l,r) + LFE ch, ~Аудио #3: English: 48 kHz/24-bit,DTS, 3/2 (L,C,R,l,r) + LFE ch, ~Субтитры: русские @ voronine, русские @ Doctor_Joker, английские 9,22 Gb 7 2 13 января 2016 11:53 Запрещенный прием / Sucker Punch (2011) BDRip 720p | Extended Cut by R.G. Barking iron .torrent   [Информация о файле (нажмите для просмотра)] Перевод: Дубляж + ОригиналКодек: h.264Качество: BDRip 720pВидео: , 1280x536 , 23.976 fps, ~3819 kbps avg, 0.232 bit/pixel.Аудио 1: 48 kHz, AC3 Dolby Digital, 3/2 (L,C,R,l,r) + LFE ch, ~640.00 kbps avg | ДубляжАудио 2: 48 kHz, AC3 Dolby Digital, 3/2 (L,C,R,l,r) + LFE ch, ~448.00 kbps avg | ОригиналСубтитры: Русские (forced, full), English 4,37 Gb 11 3 13 января 2016 11:53 Запрещенный прием / Sucker Punch (2011) BDRip от HQCLUB | Extended Cut | PROPER .torrent   [Информация о файле (нажмите для просмотра)] Перевод: Профессиональный (Дублированный) +Профессиональный (Двухголосый, закадровый) Кубик в кубе отдельно на Narod.ru + Любительский (Одноголосый, закадровый) acolith отдельно на Narod.ru + Профессиональный (Дублированный) Украинский отдельно на Narod.ru + Оригинальная звуковая дорожка отдельно на Narod.ruСубтитры: Русские SDH, Русские FORCED, Английские SDH (внешние, srt) спасибо SnakePФормат: AVIКачество: BDRip (источник:Видео: 720x304 (2.37:1), 23.976 fps, XviD build 64 ~2060 kbps avg, 0.39 bit/pixelАудио 1: 48 kHz, AC3 Dolby Digital, 3/2 (L,C,R,l,r) + LFE ch, ~384 kbps (DUB)Аудио 2: 48 kHz, AC3 Dolby Digital, 3/2 (L,C,R,l,r) + LFE ch, ~384 kbps (DVO) Кубик в кубеОтдельно на Narod.ruАудио 3: 48 kHz, AC3 Dolby Digital, 3/2 (L,C,R,l,r) + LFE ch, ~384 kbps (VO) acolithОтдельно на Narod.ruАудио 4: 48 kHz, AC3 Dolby Digital, 3/2 (L,C,R,l,r) + LFE ch, ~384 kbps (DUB) УкраинскийОтдельно на Narod.ruАудио 5: 48 kHz, AC3 Dolby Digital, 3/2 (L,C,R,l,r) + LFE ch, ~384 kbps (ENG)Отдельно на Narod.ru 2,18 Gb 3 3 13 января 2016 11:53 Запрещенный прием / Sucker Punch (2011) BDRip от HELLYWOOD | Расширенная версия / Extended Cut .torrent   [Информация о файле (нажмите для просмотра)] Перевод: Дубляж CEE (со вставками «Кубик в кубе») + Оригинал + Двухголосый, закадровый («Кубик в кубе»)Субтитры: Русские, АнглийскиеФормат: AVIКачество: BDRip (источник:Видео: 720x304 (2.37:1), 23.976 fps, XviD build 64 ~1995 kbps avg, 0.38 bit/pixelАудио #1: 48 kHz, AC3 Dolby Digital, 3/2 (L,C,R,l,r) + LFE ch, ~448 kbps|Дубляж (со вставками «Кубик в кубе»)|Аудио #2: 48 kHz, AC3 Dolby Digital, 3/2 (L,C,R,l,r) + LFE ch, ~448 kbps|Оригинал|Аудио #3: 48 kHz, AC3 Dolby Digital, 3/2 (L,C,R,l,r) + LFE ch, ~448 kbps|DVO| 2,98 Gb 7 1 13 января 2016 11:53 Запрещенный прием / Sucker Punch (2011) BDRip 1080p .torrent   [Информация о файле (нажмите для просмотра)] Перевод: Дублированный (лицензия)Кодек: x264Качество: BDRip (источник: Blu-ray Disc)Видео: 1920x800 (2,40:1), 23.976 fps, 5316 kbpsЗвук: 48 kHz, AC-3, 6 ch, 384 kbpsСубтитры: Русские форсированные, АнглийскиеВидео: Идентификатор : 1 Формат : AVC Формат/Информация : Advanced Video Codec Профиль формата : [email protected] Параметр CABAC формата : Да Параметр ReFrames формата : 5 кадров Идентификатор кодека : V_MPEG4/ISO/AVC Продолжительность : 1 ч. 49 м. Битрейт : 5316 Кбит/сек Ширина : 1920 пикс. Высота : 800 пикс. Соотношение сторон : 2,40:1 Частота кадров : 23,976 кадр/сек Цветовое пространство : YUV Подвыборка цветности : 4:2:0 Битовая глубина : 8 бит Тип развёртки : Прогрессивная Бит/(Пиксели*Кадры) : 0.144 Размер потока : 3,99 Гбайт (91%) Библиотека кодирования : x264 core 116 r2019 9cc407d Настройки программы : cabac=1 / ref=5 / deblock=1:0:0 / analyse=0x3:0x133 / me=umh / subme=10 / psy=1 / psy_rd=1.00:0.10 / mixed_ref=1 / me_range=32 / chroma_me=1 / trellis=2 / 8x8dct=1 / cqm=0 / deadzone=21,11 / fast_pskip=0 / chroma_qp_offset=-3 / threads=12 / sliced_threads=0 / nr=0 / decimate=1 / interlaced=0 / bluray_compat=0 / constrained_intra=0 / bframes=5 / b_pyramid=2 / b_adapt=2 / b_bias=0 / direct=3 / weightb=1 / open_gop=0 / weightp=2 / keyint=250 / keyint_min=23 / scenecut=40 / intra_refresh=0 / rc_lookahead=60 / rc=2pass / mbtree=1 / bitrate=5316 / ratetol=1.0 / qcomp=0.60 / qpmin=0 / qpmax=69 / qpstep=4 / cplxblur=20.0 / qblur=0.5 / ip_ratio=1.40 / aq=1:1.00 Язык : EnglishАудио: Идентификатор : 2 Формат : AC-3 Формат/Информация : Audio Coding 3 Расширение режима : CM (complete main) Идентификатор кодека : A_AC3 Продолжительность : 1 ч. 49 м. Вид битрейта : Постоянный Битрейт : 384 Кбит/сек Каналы : 6 каналов Расположение каналов : Front: L C R, Side: L R, LFE Частота : 48,0 КГц Битовая глубина : 16 бит Метод сжатия : С потерями Размер потока : 301 Мбайт (7%) Язык : Russian 4,37 Gb 26 2 13 января 2016 11:53 Запрещенный прием / Sucker Punch (2011) BDRip 1080p | Лицензия .torrent   [Информация о файле (нажмите для просмотра)] Перевод: Профессиональный (дублированный)[Лицензия]Формат: MKVКачество: BDRip 1080p [WiKi]Видео: 14.4 mb/s, 1920x800Аудио: Russian: AC3, 448 kb/s (6 ch) / English: DTS, 1510 kb/s (6 ch)Субтитры: Russian, Russian [SDH], English 14,56 Gb 7 5 13 января 2016 11:53 Запрещенный прием / Sucker Punch (2011) BDRip от HQCLUB | Theatratical Cut .torrent   [Информация о файле (нажмите для просмотра)] Перевод: Профессиональный (Полное дублирование) + Оригинальная звуковая дорожка +Авторский (Одноголосый, закадровый) Дольский отдельно на Narod.ru + Любительский (Одноголосый, закадровый) zamez отдельно на Narod.ru + Профессиональный (Полное дублирование) Украинский отдельно на Narod.ruСубтитры: Русские, Английские (внешние, srt)Формат: AVIКачество: BDRip (источник:Видео: 720x304 (2.37:1), 23.976 fps, XviD build 63 ~2006 kbps avg, 0.38 bit/pixelАудио 1: 48 kHz, AC3 Dolby Digital, 3/2 (L,C,R,l,r) + LFE ch, ~384 kbps (DUB)Аудио 2: 48 kHz, AC3 Dolby Digital, 3/2 (L,C,R,l,r) + LFE ch, ~448 kbps (ENG)Аудио 3: 48 kHz, AC3 Dolby Digital, 3/2 (L,C,R,l,r) + LFE ch, ~384 kbps (AVO) ДольскийОтдельно на Narod.ruАудио 4: 48 kHz, AC3 Dolby Digital, 3/2 (L,C,R,l,r) + LFE ch, ~384 kbps (VO) zamezОтдельно на Narod.ruАудио 5: 48 kHz, AC3 Dolby Digital, 3/2 (L,C,R,l,r) + LFE ch, ~384 kbps (UKR) ДублированныйОтдельно на Narod.ru 2,18 Gb 5 1 13 января 2016 11:53 Запрещенный прием / Sucker Punch (2011) HDRip | Театральная версия .torrent   [Информация о файле (нажмите для просмотра)] Перевод: Профессиональный (дублированный) [Лицензия]Кодек: XviDКачество: HDRipВидео: 688x288 (2.39:1), 23.976 fps, ~808 kbps avg, 0.17 bit/pixelЗвук: 48 kHz, MPEG Layer 3, 2 ch, ~128.00 kbps avg 739,23 Mb 10 2 13 января 2016 11:53 Запрещенный прием / Sucker Punch (2011) BDRip 1080p .torrent   [Информация о файле (нажмите для просмотра)] Перевод: Дублированный [Лицензия]Кодек: H.264Качество: BDRip 1080pВидео: 1920X800, 23.976 fps, 8839 KbpsЗвук: • Russian: AC3, 488 Kbps (6 ch) • English: DTS, 1510 Kbps (6 ch)Субтитры: Russian, English 8,27 Gb 11 1

gig-torrent.net

Скачать фильм Запрещенный прием через торрент в хорошем качестве бесплатно 1080p (custom)

ОбщееПолное имя : Запрещенный прием-Расширенная версияФормат : Blu-ray movieПрофиль формата : BD-JavaПродолжительность : 2 ч. 7 м.Режим общего битрейта : ПеременныйОбщий поток : 1 бит/сек

Видео #1Идентификатор : 4113 (0x1011)Идентификатор меню : 1 (0x1)Формат : AVCФормат/Информация : Advanced Video CodecПрофиль формата : [email protected]Параметр CABAC формата : ДаПараметр ReFrames формата : 2 кадраПараметр GOP формата : M=1, N=10Идентификатор кодека : 27Продолжительность : 2 ч. 7 м.Вид битрейта : ПеременныйШирина : 1920 пикселейВысота : 1080 пикселейСоотношение сторон : 16:9Частота кадров : 23,976 кадра/секЦветовое пространство : YUVСубдискретизация насыщенности : 4:2:0Битовая глубина : 8 битОригинал : 00100.m2ts

Видео #2Идентификатор : 6912 (0x1B00)Идентификатор меню : 1 (0x1)Формат : AVCФормат/Информация : Advanced Video CodecПрофиль формата : [email protected]Параметр CABAC формата : ДаПараметр ReFrames формата : 2 кадраПараметр GOP формата : M=1, N=22Идентификатор кодека : 27Продолжительность : 2 ч. 7 м.Вид битрейта : ПеременныйШирина : 720 пикселейВысота : 480 пикселейСоотношение сторон : 16:9Частота кадров : 23,976 кадра/секСтандарт вещания : NTSCЦветовое пространство : YUVСубдискретизация насыщенности : 4:2:0Битовая глубина : 8 битТип развёртки : ПрогрессивнаяОригинал : 00100.m2ts

Аудио #1Идентификатор : 4352 (0x1100)Идентификатор меню : 1 (0x1)Формат : DTSФормат/Информация : Digital Theater SystemsПрофиль формата : MA / CoreРежим смешивания : Stream extensionИдентификатор кодека : 134Продолжительность : 2 ч. 7 м.Вид битрейта : ПеременныйБитрейт : 2812 Кбит/сек / 1510 Кбит/секКаналы : 6 каналовРасположение каналов : Front: L C R, Side: L R, LFEЧастота : 48,0 КГцБитовая глубина : 24 битМетод сжатия : Без потерь / LossyЯзык : EnglishОригинал : 00100.m2ts

Аудио #2Идентификатор : 4353 (0x1101)Идентификатор меню : 1 (0x1)Формат : AC-3Формат/Информация : Audio Coding 3Расширение режима : CM (complete main)Параметр Endianness формата : BigИдентификатор кодека : 129Продолжительность : 2 ч. 7 м.Вид битрейта : ПостоянныйБитрейт : 640 Кбит/секКаналы : 6 каналовРасположение каналов : Front: L C R, Side: L R, LFEЧастота : 48,0 КГцБитовая глубина : 16 битМетод сжатия : С потерямиРазмер потока : 584 Мбайт (2%)Язык : nondialnorm : -27dialnorm/String : -27 dBcompr : -0.28compr/String : -0.28 dBbsid : 6dialnorm_Average : -27dialnorm_Average/String : -27 dBdialnorm_Minimum : -27dialnorm_Minimum/String : -27 dBdialnorm_Maximum : -27dialnorm_Maximum/String : -27 dBdialnorm_Count : 2compr_Average : -0.28compr_Average/String : -0.28 dBcompr_Minimum : -0.28compr_Minimum/String : -0.28 dBcompr_Maximum : -0.28compr_Maximum/String : -0.28 dBcompr_Count : 2Оригинал : 00100.m2ts

Аудио #3Идентификатор : 4354 (0x1102)Идентификатор меню : 1 (0x1)Формат : AC-3Формат/Информация : Audio Coding 3Расширение режима : CM (complete main)Параметр Endianness формата : BigИдентификатор кодека : 129Продолжительность : 2 ч. 7 м.Вид битрейта : ПостоянныйБитрейт : 640 Кбит/секКаналы : 6 каналовРасположение каналов : Front: L C R, Side: L R, LFEЧастота : 48,0 КГцБитовая глубина : 16 битМетод сжатия : С потерямиРазмер потока : 584 Мбайт (2%)Язык : nondialnorm : -27dialnorm/String : -27 dBcompr : -0.28compr/String : -0.28 dBbsid : 6dialnorm_Average : -27dialnorm_Average/String : -27 dBdialnorm_Minimum : -27dialnorm_Minimum/String : -27 dBdialnorm_Maximum : -27dialnorm_Maximum/String : -27 dBdialnorm_Count : 2compr_Average : -0.28compr_Average/String : -0.28 dBcompr_Minimum : -0.28compr_Minimum/String : -0.28 dBcompr_Maximum : -0.28compr_Maximum/String : -0.28 dBcompr_Count : 2Оригинал : 00100.m2ts

Аудио #4Идентификатор : 4355 (0x1103)Идентификатор меню : 1 (0x1)Формат : AC-3Формат/Информация : Audio Coding 3Профиль формата : HDРасширение режима : CM (complete main)Параметр Endianness формата : BigИдентификатор кодека : 129Продолжительность : 2 ч. 7 м.Вид битрейта : ПостоянныйБитрейт : 640 Кбит/секКаналы : 6 каналовРасположение каналов : Front: L C R, Side: L R, LFEЧастота : 48,0 КГцБитовая глубина : 16 битМетод сжатия : С потерямиРазмер потока : 584 Мбайт (2%)Язык : nondialnorm : -27dialnorm/String : -27 dBcompr : -0.28compr/String : -0.28 dBbsid : 6dialnorm_Average : -27dialnorm_Average/String : -27 dBdialnorm_Minimum : -27dialnorm_Minimum/String : -27 dBdialnorm_Maximum : -27dialnorm_Maximum/String : -27 dBdialnorm_Count : 2compr_Average : -0.28compr_Average/String : -0.28 dBcompr_Minimum : -0.28compr_Minimum/String : -0.28 dBcompr_Maximum : -0.28compr_Maximum/String : -0.28 dBcompr_Count : 2Оригинал : 00100.m2ts

Аудио #5Идентификатор : 4356 (0x1104)Идентификатор меню : 1 (0x1)Формат : AC-3Формат/Информация : Audio Coding 3Расширение режима : CM (complete main)Параметр Endianness формата : BigИдентификатор кодека : 129Продолжительность : 2 ч. 7 м.Вид битрейта : ПостоянныйБитрейт : 640 Кбит/секКаналы : 6 каналовРасположение каналов : Front: L C R, Side: L R, LFEЧастота : 48,0 КГцБитовая глубина : 16 битМетод сжатия : С потерямиРазмер потока : 584 Мбайт (2%)Язык : Russiandialnorm : -27dialnorm/String : -27 dBcompr : -0.28compr/String : -0.28 dBbsid : 8dialnorm_Average : -27dialnorm_Average/String : -27 dBdialnorm_Minimum : -27dialnorm_Minimum/String : -27 dBdialnorm_Maximum : -27dialnorm_Maximum/String : -27 dBdialnorm_Count : 354compr_Average : 15.17compr_Average/String : 15.17 dBcompr_Minimum : -0.28compr_Minimum/String : -0.28 dBcompr_Maximum : 15.19compr_Maximum/String : 15.19 dBcompr_Count : 354dynrng_Average : 0.63dynrng_Average/String : 0.63 dBdynrng_Minimum : 0.00dynrng_Minimum/String : 0.00 dBdynrng_Maximum : 1.02dynrng_Maximum/String : 1.02 dBdynrng_Count : 354Оригинал : 00100.m2ts

Аудио #6Идентификатор : 4357 (0x1105)Идентификатор меню : 1 (0x1)Формат : AC-3Формат/Информация : Audio Coding 3Расширение режима : CM (complete main)Параметр Endianness формата : BigИдентификатор кодека : 129Продолжительность : 2 ч. 7 м.Вид битрейта : ПостоянныйБитрейт : 640 Кбит/секКаналы : 6 каналовРасположение каналов : Front: L C R, Side: L R, LFEЧастота : 48,0 КГцБитовая глубина : 16 битМетод сжатия : С потерямиРазмер потока : 584 Мбайт (2%)Язык : nondialnorm : -27dialnorm/String : -27 dBcompr : -0.28compr/String : -0.28 dBbsid : 6dialnorm_Average : -27dialnorm_Average/String : -27 dBdialnorm_Minimum : -27dialnorm_Minimum/String : -27 dBdialnorm_Maximum : -27dialnorm_Maximum/String : -27 dBdialnorm_Count : 2compr_Average : -0.28compr_Average/String : -0.28 dBcompr_Minimum : -0.28compr_Minimum/String : -0.28 dBcompr_Maximum : -0.28compr_Maximum/String : -0.28 dBcompr_Count : 2Оригинал : 00100.m2ts

Аудио #7Идентификатор : 4358 (0x1106)Идентификатор меню : 1 (0x1)Формат : AC-3Формат/Информация : Audio Coding 3Расширение режима : CM (complete main)Параметр Endianness формата : BigИдентификатор кодека : 129Продолжительность : 2 ч. 7 м.Вид битрейта : ПостоянныйБитрейт : 640 Кбит/секКаналы : 6 каналовРасположение каналов : Front: L C R, Side: L R, LFEЧастота : 48,0 КГцБитовая глубина : 16 битМетод сжатия : С потерямиРазмер потока : 584 Мбайт (2%)Язык : Ukrainiandialnorm : -27dialnorm/String : -27 dBcompr : -0.28compr/String : -0.28 dBbsid : 8dialnorm_Average : -27dialnorm_Average/String : -27 dBdialnorm_Minimum : -27dialnorm_Minimum/String : -27 dBdialnorm_Maximum : -27dialnorm_Maximum/String : -27 dBdialnorm_Count : 354compr_Average : 15.17compr_Average/String : 15.17 dBcompr_Minimum : -0.28compr_Minimum/String : -0.28 dBcompr_Maximum : 15.19compr_Maximum/String : 15.19 dBcompr_Count : 354dynrng_Average : 0.88dynrng_Average/String : 0.88 dBdynrng_Minimum : 0.00dynrng_Minimum/String : 0.00 dBdynrng_Maximum : 1.02dynrng_Maximum/String : 1.02 dBdynrng_Count : 354Оригинал : 00100.m2ts

Аудио #8Идентификатор : 4359 (0x1107)Идентификатор меню : 1 (0x1)Формат : AC-3Формат/Информация : Audio Coding 3Профиль формата : Dolby DigitalРасширение режима : CM (complete main)Параметр Endianness формата : BigИдентификатор кодека : 129Продолжительность : 2 ч. 7 м.Вид битрейта : ПостоянныйБитрейт : 192 Кбит/секКаналы : 2 каналаРасположение каналов : Front: L RЧастота : 48,0 КГцБитовая глубина : 16 битМетод сжатия : С потерямиРазмер потока : 175 Мбайт (1%)Язык : nondsurmod : 2dsurmod/String : Dolby Surround encodeddialnorm : -27dialnorm/String : -27 dBcompr : -0.28compr/String : -0.28 dBbsid : 6dialnorm_Average : -27dialnorm_Average/String : -27 dBdialnorm_Minimum : -27dialnorm_Minimum/String : -27 dBdialnorm_Maximum : -27dialnorm_Maximum/String : -27 dBdialnorm_Count : 2compr_Average : -0.28compr_Average/String : -0.28 dBcompr_Minimum : -0.28compr_Minimum/String : -0.28 dBcompr_Maximum : -0.28compr_Maximum/String : -0.28 dBcompr_Count : 2Оригинал : 00100.m2ts

Аудио #9Идентификатор : 6656 (0x1A00)Идентификатор меню : 1 (0x1)Формат : DTSФормат/Информация : Digital Theater SystemsПрофиль формата : ExpressИдентификатор кодека : 162Продолжительность : 2 ч. 7 м.Вид битрейта : ПостоянныйБитрейт : 96,0 Кбит/секКаналы : 1 каналЧастота : 48,0 КГцБитовая глубина : 16 битМетод сжатия : С потерямиРазмер потока : 87,6 Мбайт (0%)Язык : EnglishОригинал : 00100.m2ts

Текст #1Идентификатор : 4608 (0x1200)Идентификатор меню : 1 (0x1)Формат : PGSИдентификатор кодека : 144Продолжительность : 2 ч. 7 м.Задержка видео : 8 с. 926 мс.Язык : EnglishОригинал : 00100.m2ts

Текст #2Идентификатор : 4609 (0x1201)Идентификатор меню : 1 (0x1)Формат : PGSИдентификатор кодека : 144Продолжительность : 2 ч. 7 м.Язык : nonОригинал : 00100.m2ts

Текст #3Идентификатор : 4610 (0x1202)Идентификатор меню : 1 (0x1)Формат : PGSИдентификатор кодека : 144Продолжительность : 2 ч. 7 м.Язык : nonОригинал : 00100.m2ts

Текст #4Идентификатор : 4611 (0x1203)Идентификатор меню : 1 (0x1)Формат : PGSИдентификатор кодека : 144Продолжительность : 2 ч. 7 м.Язык : nonОригинал : 00100.m2ts

Текст #5Идентификатор : 4612 (0x1204)Идентификатор меню : 1 (0x1)Формат : PGSИдентификатор кодека : 144Язык : nonОригинал : 00100.m2ts

Текст #6Идентификатор : 4613 (0x1205)Идентификатор меню : 1 (0x1)Формат : PGSИдентификатор кодека : 144Язык : nonОригинал : 00100.m2ts

Текст #7Идентификатор : 4614 (0x1206)Идентификатор меню : 1 (0x1)Формат : PGSИдентификатор кодека : 144Язык : nonОригинал : 00100.m2ts

Текст #8Идентификатор : 4615 (0x1207)Идентификатор меню : 1 (0x1)Формат : PGSИдентификатор кодека : 144Язык : nonОригинал : 00100.m2ts

Текст #9Идентификатор : 4616 (0x1208)Идентификатор меню : 1 (0x1)Формат : PGSИдентификатор кодека : 144Язык : nonОригинал : 00100.m2ts

Текст #10Идентификатор : 4617 (0x1209)Идентификатор меню : 1 (0x1)Формат : PGSИдентификатор кодека : 144Язык : nonОригинал : 00100.m2ts

Текст #11Идентификатор : 4618 (0x120A)Идентификатор меню : 1 (0x1)Формат : PGSИдентификатор кодека : 144Язык : nonОригинал : 00100.m2ts

Текст #12Идентификатор : 4619 (0x120B)Идентификатор меню : 1 (0x1)Формат : PGSИдентификатор кодека : 144Язык : nonОригинал : 00100.m2ts

Текст #13Идентификатор : 4620 (0x120C)Идентификатор меню : 1 (0x1)Формат : PGSИдентификатор кодека : 144Язык : nonОригинал : 00100.m2ts

Текст #14Идентификатор : 4621 (0x120D)Идентификатор меню : 1 (0x1)Формат : PGSИдентификатор кодека : 144Язык : nonОригинал : 00100.m2ts

Текст #15Идентификатор : 4622 (0x120E)Идентификатор меню : 1 (0x1)Формат : PGSИдентификатор кодека : 144Язык : nonОригинал : 00100.m2ts

Текст #16Идентификатор : 4623 (0x120F)Идентификатор меню : 1 (0x1)Формат : PGSИдентификатор кодека : 144Язык : nonОригинал : 00100.m2ts

Текст #17Идентификатор : 4624 (0x1210)Идентификатор меню : 1 (0x1)Формат : PGSИдентификатор кодека : 144Язык : nonОригинал : 00100.m2ts

Текст #18Идентификатор : 4625 (0x1211)Идентификатор меню : 1 (0x1)Формат : PGSИдентификатор кодека : 144Язык : nonОригинал : 00100.m2ts

Текст #19Идентификатор : 4626 (0x1212)Идентификатор меню : 1 (0x1)Формат : PGSИдентификатор кодека : 144Задержка видео : 8 с. 926 мс.Язык : RussianОригинал : 00100.m2ts

Текст #20Идентификатор : 4627 (0x1213)Идентификатор меню : 1 (0x1)Формат : PGSИдентификатор кодека : 144Язык : nonОригинал : 00100.m2ts

Текст #21Идентификатор : 4628 (0x1214)Идентификатор меню : 1 (0x1)Формат : PGSИдентификатор кодека : 144Язык : nonОригинал : 00100.m2ts

Текст #22Идентификатор : 4629 (0x1215)Идентификатор меню : 1 (0x1)Формат : PGSИдентификатор кодека : 144Язык : nonОригинал : 00100.m2ts

Текст #23Идентификатор : 4630 (0x1216)Идентификатор меню : 1 (0x1)Формат : PGSИдентификатор кодека : 144Задержка видео : 8 с. 926 мс.Язык : RussianОригинал : 00100.m2ts

Текст #24Идентификатор : 4631 (0x1217)Идентификатор меню : 1 (0x1)Формат : PGSИдентификатор кодека : 144Язык : nonОригинал : 00100.m2ts

Текст #25Идентификатор : 4632 (0x1218)Идентификатор меню : 1 (0x1)Формат : PGSИдентификатор кодека : 144Язык : nonОригинал : 00100.m2ts

Текст #26Идентификатор : 4633 (0x1219)Идентификатор меню : 1 (0x1)Формат : PGSИдентификатор кодека : 144Язык : RussianОригинал : 00100.m2ts

Текст #27Идентификатор : 4634 (0x121A)Идентификатор меню : 1 (0x1)Формат : PGSИдентификатор кодека : 144Язык : RussianОригинал : 00100.m2ts

Меню00:00:00.000 : Chapter 102:07:29.642 : Chapter 2

piratbit.ru

Запрещенный прием 2011 - скачать бесплатно через торрент в хорошем качестве. Без регистрации

Название: Запрещенный прием / Sucker Punch (2011) BDRip 720p от HELLYWOOD | Расширенная версия | D, P2, A, L1
Перевод: Дубляж [Blu-ray CEE + DVO], профессиональный двухголосый, авторский (одноголосый), любительский одноголосый
Видео: AVC, 1280x534 (2.40:1), 6541 kbps, 23,976 fps, 0,399 bpp
Аудио: AC3 / 5.1 / 48 kHz / 640 kbps / 16 bit | DUB - Blu-ray CEE + DVOAC3 / 5.1 / 48 kHz / 640 kbps / 16 bit | DVO - Кубик в кубеAC3 / 5.1 / 48 kHz / 640 kbps / 16 bit | AVO - А.МатвеевAC3 / 5.1 / 48 kHz / 640 kbps / 16 bit | AVO - А.ГавриловAC3 / 5.1 / 48 kHz / 640 kbps / 16 bit | VO - acolithAC3 / 5.1 / 48 kHz / 448 kbps / 16 bit | VO - С.РапсодовAC3 / 5.1 / 48 kHz / 640 kbps / 16 bit | ENG
Скачать

Загрузка начнется в течение 5 сек.

9.64 GB

Название: Запрещенный прием / Sucker Punch (2011) HDRip от Scarabey | Театральная версия
Качество видео: HDRip
Перевод: Профессиональный (полное дублирование)
Видео: 656x272 (2.41:1), 23.976 fps, XviD build 50 ~814 kbps avg, 0.19 bit/pixel
Аудио: 48 kHz, MPEG Layer 3, 2 ch, ~128.00 kbps avg
Скачать

Загрузка начнется в течение 5 сек.

747.49 MB

Название: Запрещенный прием / Sucker Punch (2011) HDRip от Scarabey | Театральная версия
Качество видео: HDRip
Перевод: Профессиональный (полное дублирование)
Видео: 720x304 (2.37:1), 23.976 fps, XviD build 50 ~1434 kbps avg, 0.27 bit/pixel
Аудио: 48 kHz, AC3 Dolby Digital, 3/2 (L,C,R,l,r) + LFE ch, ~384.00 kbps avg
Скачать

Загрузка начнется в течение 5 сек.

1.40 GB

Название: Запрещенный прием / Sucker Punch (2011) BDRip от Torrange | P2, A | Кубик в Кубе, Гаврилов
Качество видео: BDRip
Перевод: Профессиональный (двухголосый закадровый) Кубик в Кубе + Aвторский (одноголосый) Андрей Гаврилов
Видео: XviD, AVI 720x304 (2.35:1), 23.976 fps, 1 538 Kbps (0.293 bit/pixel)
Аудио: AC-3, 48.0 KHz, 6 ch, 448 KbpsAC-3, 48.0 KHz, 6 ch, 448 Kbps
Скачать

Загрузка начнется в течение 5 сек.

2.18 GB

Название: Запрещенный прием / Sucker Punch (2011) BDRip 1080p от FREEISLAND | Extended Cut
Качество видео: BDRip
Перевод: Профессиональный (двухголосый закадровый)«Кубик в кубе»
Формат видео: MKV
Видео: H.264 (AVC) 1920x800 (2.40:1), 23.976 fps, AVC, 6 559 Kbps
Аудио: AC3AC3, 640 Kbps, 48.0 KHz, 6 ch RUS DVO «Кубик в кубе»AC3, 640 Kbps, 48.0 KHz, 6 ch RUS Dub Дубляж CEE + «Кубик в кубе»AC3, 640 Kbps, 48.0 KHz, 6 ch RUS Dub Дубляж CEE + субтитры на не переведенные местаAC3, 448 Kbps, 48.0 KHz, 6 ch ENG
Скачать

Загрузка начнется в течение 5 сек.

7.95 GB

Название: Запрещенный прием / Sucker Punch (2011) BDRip-AVC от potroks | Extended Cut
Перевод: Профессиональный (полное дублирование) + DVO (на расширенные места)
Формат видео: MKV
Видео: H.264, 1032x430 (2,40:1), 23,976 fps, 1630 Кbps, 0.153 bit/pixel
Аудио: 48 kHz, AC3 Dolby Digital, 3/2 (L,C,R,l,r) + LFE ch, 448.00 kbps | RUS48 kHz, AC3 Dolby Digital, 3/2 (L,C,R,l,r) + LFE ch, 384.00 kbps | ENG
Скачать

Загрузка начнется в течение 5 сек.

2.19 GB

Название: Запрещенный прием / Sucker Punch (2011) BDRip-AVC | Театральная версия
Качество видео: BDRip-AVC - исх. BDRemux 1080p
Перевод: Проф. (полное дублирование) + Оригинал
Видео: H.264 720x300 (2.40:1), 23.976 fps, ~835 kbps, 0.161 b/p
Аудио: 1 (RUS): AАС-НЕ, 48000Hz, 2 channels (L+R), ~60 Kbps
Скачать

Загрузка начнется в течение 5 сек.

746.27 MB

Название: Запрещенный прием / Sucker Punch (2011) HDRip от Scarabey | Расширенная версия / Extended Cut
Качество видео: HDRip
Перевод: Профессиональное (полное дублирование)[Лицензия]+ acolith одноголосый, закадровый перевод расширенных моментов!
Видео: XviD 720x304 (2.37:1), 23.976 fps, XviD build 50 ~1428 kbps avg, 0.27 bit/pixel
Аудио: 48 kHz, AC3 Dolby Digital, 2/0 (L,R) ch, ~192.00 kbps avg
Скачать

Загрузка начнется в течение 5 сек.

1.45 GB

Название: Запрещенный прием / Sucker Punch (2011) HDRip-AVC | Лицензия | Extended Cut
Качество видео: HDRip-AVC
Перевод: Дублированный (одноголосый на расширенные сцены)
Формат видео: MP4
Видео: AVC/H.264 720x304, 1968 Kb/s
Аудио: AC3, 384 Kb/s (6 ch) | РусскийAC3, 384 Kb/s (6 ch) | Английский
Скачать

Загрузка начнется в течение 5 сек.

2.42 GB

Название: Запрещенный прием / Sucker Punch (2011) Blu-Ray | Extended Cut
Качество видео: Blu-Ray
Перевод: Дублированное [лицензия] c субтитрами на непереведенные места
Видео: m2ts 1920x1080p / 23,976 fps / 16:9 / High Profile 4.1, H.264, ~ 23880 kbps
Аудио: Russian / Ukrainian: AC3, 640 kb/s (6 ch) / English: DTS-HD MA, 4105 kb/s (6 ch) / DTS Express, 96 kb/s (1 ch)
Скачать

Загрузка начнется в течение 5 сек.

31.51 GB

Название: Запрещенный прием / Sucker Punch (2011) BDRip 720p от ELEMENT-TEAM | Extended Cut
Качество видео: BDRip [720p]
Перевод: Дублированный [лицензия] со вставками любительского (одноголосого) [acolith]
Видео: 1280x536, 2069 Кбит/сек, 23,976 кадр/сек, AVC, x264, 2,35:1, 0.123 Бит/[Пиксели*Кадры], 2pass
Аудио: AC-3, 384 Кбит/сек, 6 канала(ов), 48,0 КГц
Скачать

Загрузка начнется в течение 5 сек.

2.19 GB

www.kinovit.net


Смотрите также