Всегда говори да скачать бесплатно в хорошем качестве через торрент бесплатно


Скачать фильм Всегда говори «ДА» через торрент в хорошем качестве бесплатно BDRip

piratbit.ru

Раздают: 8 [ 0 KB/s ]
Размер: 1.46 GB | Добавлен: 4 года 1 мес. назад | Торрент скачан:584 раза
Реклама Дарим 3000 рублей за регистрацию, не упусти свой шанс получить шикарный бонус!!!

23-09-2013 20:42 Всегда говори «ДА» Скачать торрент  

Всегда говори «ДА» / Yes Man«Одно слово может изменить твою жизнь» Год выпуска: 2008Страна: США, АвстралияЖанр: комедияПродолжительность: 01:44:23Перевод: Профессиональный (многоголосный)Cубтитры: Русские (только на корейскую речь и песню)Режиссер: Пейтон Рид / Peyton ReedВ ролях: Джим Керри (Carl), Зои Дешанель (Allison), Брэдли Купер (Peter), Джон Майкл Хиггинс (Nick), Риз Дэрби (Norman), Дэнни Мастерсон (Rooney), Фионнула Флэнаган (Tillie), Теренс Стэмп (Terrence), Саша Александр (Lucy), Молли Симс (Stephanie), Брент Бриско (Homeless Guy), Роки Кэрролл (Wes), Джон Котрэн мл. (Tweed), Спенсер Гаррет (Multack)Описание: Депрессивный главный герой всегда и всем говорил «нет» — например, друзьям, если они зовут куда-то. Но в один прекрасный день он заключает соглашение, по которому всегда должен отвечать «Да» на любое предложение…Качество: BDRipФормат: AVIВидео кодек: XviD Аудио кодек: AC3 Видео: 720x304 (2.37:1), 23.976 fps, XviD build 73 ~1605 kbps avg, 0.31 bit/pixelАудио: 48 kHz, AC3 Dolby Digital, 3/2 (L,C,R,l,r) + LFE ch, ~384.00 kbps avg (RUS)

Цитата:

автор собранной дорожки Infestead говорит:

Так как я сам терпеть не могу дубляж, потому что считаю, что для получения полного удовольствия от фильма просто необходимо слышать оригинальные голоса актеров, не только видеть но и слышать их игру, и уж тем более Джима Керри, искал этот фильм с закадровым.Но безуспешно.Поэтому сделал его сам из оригинальной дорожки и дубляжа.(Кому интересны подробности: Разобрал дорожки, смикшировал центральные каналы, собрал)

Получилось вполне нормально. Есть еле заметное эхо и пара щелчков за весь фильм.Сам смотрел фильм с удовольствием.Делал в первую очередь для себя, но решил выложить для таких же любителей закадрового перевода.

GeneralComplete name : E:INTERNETVsegda govori DA.2008Yes_Man.2008.BDRip.[MVO] + Rus SUB.km.aviFormat : AVIFormat/Info : Audio Video InterleaveFile size : 1.46 GiBDuration : 1h 44mnOverall bit rate : 1 999 KbpsWriting application : VirtualDubMod 1.5.10.3 (build 2550/release)Writing library : VirtualDubMod build 2550/release

VideoID : 0Format : MPEG-4 VisualFormat profile : Advanced [email protected] settings, BVOP : YesFormat settings, QPel : NoFormat settings, GMC : No warppointsFormat settings, Matrix : CustomCodec ID : XVIDCodec ID/Hint : XviDDuration : 1h 44mnBit rate : 1 606 KbpsWidth : 720 pixelsHeight : 304 pixelsDisplay aspect ratio : 2.35:1Frame rate : 23.976 fpsColor space : YUVChroma subsampling : 4:2:0Bit depth : 8 bitsScan type : ProgressiveBits/(Pixel*Frame) : 0.306Stream size : 1.17 GiB (80%)Writing library : XviD 73

AudioID : 1Format : AC-3Format/Info : Audio Coding 3Mode extension : CM (complete main)Codec ID : 2000Duration : 1h 44mnBit rate mode : ConstantBit rate : 384 KbpsChannel(s) : 6 channelsChannel positions : Front: L C R, Side: L R, LFESampling rate : 48.0 KHzBit depth : 16 bitsStream size : 287 MiB (19%)Alignment : Split accross interleavesInterleave, duration : 42 ms (1.00 video frame)Interleave, preload duration : 500 ms

Скачать Всегда говори «ДА» через торрент http://i079.radikal.ru/1309/0a/f892dd9c38b9.jpg Скачать фильм Всегда говори «ДА» через торрент бесплантно в хорошем качестве Описание: Депрессивный главный герой всегда и всем говорил «нет» — например, друзьям, если они зовут куда-то. Но в один прекрасный день он ... 2013-09-23 20:42 9.9 10 17

Loading...

Loading...

Рекламный пират

23-09-2013 21:23 Всегда говори «ДА» Скачать торрент  

Одна из моих любимых комедий с участием Джима Керри.

23-09-2013 21:31 Всегда говори «ДА» Скачать торрент  

Отличная комедия! Кто не смотрел- обязательно посмотрите :good:

Дорогой пользователь! Огромная просьба, поблагодарите релизера, оцените раздачу и оставьте свои комментарий, если Вы скачали Всегда говори «ДА» через торрент бесплатно! Внесите свою лепту в развитие PiratBit!

Комментировать посты могут только пользователи прошедшие не сложную регистрацию

Всегда говори «ДА» через торрент Скачать бесплатно Всегда говори «ДА» Всегда говори «ДА» скачать торрент Всегда говори «ДА» смотреть онлайн Cкачать фильм Всегда говори «ДА» бесплатно Всегда говори «ДА» скачать торрент в хорошем качестве Всегда говори «ДА» смотреть онлайн бесплатно в хорошем качестве

Вы не можете начинать темыВы не можете отвечать на сообщенияВы не можете редактировать свои сообщенияВы не можете удалять свои сообщенияВы не можете голосовать в опросахВы не можете прикреплять файлы к сообщениямВы можете скачивать файлы

Скачать фильм Всегда говори «ДА» через торрент в хорошем качестве бесплатно 720p)

ОбщееУникальный идентификатор : 216468507171438167471234144727748377827 (0xA2DA51684E3DAFFF893473F60CD4FCE3)Полное имя : C:\Users\Артём\Desktop\ЗагрУззки\Yes.Man.2008.720p.BluRay.HDclub.mkvФормат : MatroskaВерсия формата : Version 1Размер файла : 5,94 ГбайтПродолжительность : 1 ч. 44 м.Общий поток : 8144 Кбит/секНазвание фильма : Yes Man (2008) - Release for HDClubДата кодирования : UTC 2009-04-15 18:05:21Программа кодирования : mkvmerge v2.1.0 ('Another Place To Fall') built on Aug 19 2007 13:40:07Библиотека кодирования : libebml v0.7.7 + libmatroska v0.8.1

ВидеоИдентификатор : 1Формат : AVCФормат/Информация : Advanced Video CodecПрофиль формата : [email protected]Параметр CABAC формата : ДаПараметр ReFrames формата : 8 кадровИдентификатор кодека : V_MPEG4/ISO/AVCПродолжительность : 1 ч. 44 м.Битрейт : 5350 Кбит/секШирина : 1280 пикселейВысота : 532 пикселяСоотношение сторон : 2,40:1Частота кадров : 23,976 кадра/секЦветовое пространство : YUVСубдискретизация насыщенности : 4:2:0Битовая глубина : 8 битТип развёртки : ПрогрессивнаяБит/(Пиксели*Кадры) : 0.328Размер потока : 3,79 Гбайт (64%)Заголовок : Release for HDClubБиблиотека кодирования : x264 core 67 r1137M 1fda882Настройки программы : cabac=1 / ref=8 / deblock=1:-3:-3 / analyse=0x3:0x133 / me=umh / subme=9 / psy_rd=1.0:0.0 / mixed_ref=1 / me_range=34 / chroma_me=1 / trellis=2 / 8x8dct=1 / cqm=0 / deadzone=21,11 / chroma_qp_offset=-2 / threads=6 / nr=0 / decimate=1 / mbaff=0 / bframes=4 / b_pyramid=1 / b_adapt=2 / b_bias=0 / direct=3 / wpredb=1 / keyint=250 / keyint_min=25 / scenecut=40 / rc=2pass / bitrate=5350 / ratetol=1.0 / qcomp=0.60 / qpmin=10 / qpmax=51 / qpstep=4 / cplxblur=20.0 / qblur=0.5 / ip_ratio=1.40 / pb_ratio=1.30 / aq=1:0.50Язык : EnglishDefault : ДаForced : Нет

Аудио #1Идентификатор : 2Формат : AC-3Формат/Информация : Audio Coding 3Расширение режима : CM (complete main)Параметр Endianness формата : BigИдентификатор кодека : A_AC3Продолжительность : 1 ч. 44 м.Вид битрейта : ПостоянныйБитрейт : 640 Кбит/секКаналы : 6 каналовРасположение каналов : Front: L C R, Side: L R, LFEЧастота : 48,0 КГцБитовая глубина : 16 битМетод сжатия : С потерямиРазмер потока : 478 Мбайт (8%)Заголовок : AC3 5.1 @ 640 ДубляжЯзык : RussianDefault : ДаForced : Нет

Аудио #2Идентификатор : 3Формат : AC-3Формат/Информация : Audio Coding 3Расширение режима : CM (complete main)Параметр Endianness формата : BigИдентификатор кодека : A_AC3Продолжительность : 1 ч. 44 м.Вид битрейта : ПостоянныйБитрейт : 640 Кбит/секКаналы : 6 каналовРасположение каналов : Front: L C R, Side: L R, LFEЧастота : 48,0 КГцБитовая глубина : 16 битМетод сжатия : С потерямиРазмер потока : 478 Мбайт (8%)Заголовок : AC3 5.1 @ 640 ДубляжЯзык : UkrainianDefault : НетForced : Нет

Аудио #3Идентификатор : 4Формат : DTSФормат/Информация : Digital Theater SystemsИдентификатор кодека : A_DTSПродолжительность : 1 ч. 44 м.Вид битрейта : ПостоянныйБитрейт : 1510 Кбит/секКаналы : 6 каналовРасположение каналов : Front: L C R, Side: L R, LFEЧастота : 48,0 КГцБитовая глубина : 24 битМетод сжатия : С потерямиРазмер потока : 1,10 Гбайт (19%)Заголовок : DTS 5.1 @ 1536Язык : EnglishDefault : НетForced : Нет

Текст #1Идентификатор : 5Формат : UTF-8Идентификатор кодека : S_TEXT/UTF8Идентификатор кодека/Информация : UTF-8 Plain TextЯзык : RussianDefault : ДаForced : Нет

Текст #2Идентификатор : 6Формат : UTF-8Идентификатор кодека : S_TEXT/UTF8Идентификатор кодека/Информация : UTF-8 Plain TextЗаголовок : надписи и пр.Язык : RussianDefault : НетForced : Нет

Текст #3Идентификатор : 7Формат : UTF-8Идентификатор кодека : S_TEXT/UTF8Идентификатор кодека/Информация : UTF-8 Plain TextЗаголовок : надписи и пр.Язык : UkrainianDefault : НетForced : Нет

Текст #4Идентификатор : 8Формат : UTF-8Идентификатор кодека : S_TEXT/UTF8Идентификатор кодека/Информация : UTF-8 Plain TextЯзык : EnglishDefault : НетForced : Нет

Текст #5Идентификатор : 9Формат : UTF-8Идентификатор кодека : S_TEXT/UTF8Идентификатор кодека/Информация : UTF-8 Plain TextЯзык : FinnishDefault : НетForced : Нет

Текст #6Идентификатор : 10Формат : UTF-8Идентификатор кодека : S_TEXT/UTF8Идентификатор кодека/Информация : UTF-8 Plain TextЯзык : FrenchDefault : НетForced : Нет

Текст #7Идентификатор : 11Формат : UTF-8Идентификатор кодека : S_TEXT/UTF8Идентификатор кодека/Информация : UTF-8 Plain TextЯзык : DutchDefault : НетForced : Нет

Текст #8Идентификатор : 12Формат : UTF-8Идентификатор кодека : S_TEXT/UTF8Идентификатор кодека/Информация : UTF-8 Plain TextЯзык : NorwegianDefault : НетForced : Нет

Текст #9Идентификатор : 13Формат : UTF-8Идентификатор кодека : S_TEXT/UTF8Идентификатор кодека/Информация : UTF-8 Plain TextЯзык : PolishDefault : НетForced : Нет

Текст #10Идентификатор : 14Формат : UTF-8Идентификатор кодека : S_TEXT/UTF8Идентификатор кодека/Информация : UTF-8 Plain TextЯзык : SpanishDefault : НетForced : Нет

Текст #11Идентификатор : 15Формат : UTF-8Идентификатор кодека : S_TEXT/UTF8Идентификатор кодека/Информация : UTF-8 Plain TextЯзык : SwedishDefault : НетForced : Нет

piratbit.ru

Скачать фильм Всегда говори «ДА» через торрент в хорошем качестве бесплатно 720p

piratbit.ru

Раздают: 6 [ 4 KB/s ]
Размер: 3.06 GB | Добавлен: 3 мес. 24 д. назад | Торрент скачан:173 раза
Реклама Дарим 3000 рублей за регистрацию, не упусти свой шанс получить шикарный бонус!!!

22-08-2010 15:01 Всегда говори «ДА» Скачать торрент  

  • Год выпуска: 2008
  • Страна: США
  • Жанр: Комедия
  • Продолжительность: 01:44:23
  • Перевод: Профессиональный (полное дублирование)
  • Режиссер: Пейтон Рид
  • В ролях: Джим Керри, Зуи Дешанель, Брэдли Купер, Джон Майкл Хиггинс, Риз Дэрби, Дэнни Мастерсон, Фионнула Флэнеган, Теренс Стэмп, Саша Александр, Молли Симс, Брент Бриско, Роки Кэрролл
  • Описание:
  • Депрессивный главный герой всегда и всем говорил «нет» — например, друзьям, если они зовут куда-то. Но в один прекрасный день он заключает соглашение, по которому всегда должен отвечать «Да» на любое предложение…
  • Качество: BDRip
  • Формат: MKV
  • Видео: H.264, 1280x532 at 23.976 fps, ~5355 Kbps avg
  • Аудио 1: 48 kHz, AС3, 3/2 (L,C,R,l,r) + LFE ch, ~640.00 kbps avg
  • Аудио 2: 48 kHz, DTS, 3/2 (L,C,R,l,r) + LFE ch, ~1536.00 kbps avg
  • Субтитры: Rus, Ukr, Eng, Fin, Fre, Nl, Nor, Pol, Spa, Swe
Скачать Всегда говори «ДА» через торрент http://linkme.ufanet.ru/images/111595f903f0847d739512313e846d6f.png Скачать фильм Всегда говори «ДА» через торрент бесплантно в хорошем качестве Описание: Депрессивный главный герой всегда и всем говорил «нет» — например, друзьям, если они зовут куда-то. Но в один прекрасный день он ... 2017-07-01 22:03 10 10 7

Loading...

Loading...

Рекламный пират

22-08-2010 15:04 Всегда говори «ДА» Скачать торрент  

Очень классный фильм) Смотреть всем)

22-08-2010 16:28 Всегда говори «ДА» Скачать торрент  

Любимый фильм с Джимом Керри...Не раздумывайте смотрите,если не видели эту картину!

"-Лежать.-Лежу...-Встань чего ты лежишь?"

22-08-2010 17:29 Всегда говори «ДА» Скачать торрент  

фильм отличный...

22-08-2010 17:37 Всегда говори «ДА» Скачать торрент  

Мне еще вот это нравиться:

Норман: Карл, по крайней мере, тебе не дали пинка под зад! Знаешь, что это значит?Карл: Уволили?Норман: А... откуда ты знаешь? Я уже так говорил?Карл: Нет, это известное выражение.Норман: В моём кругу. Я его придумал.Карл: Мда? А все пользуются.

Клиент банка: Я пеку торты в форме лиц знаменитостей. /показывает тортКарл: Ух ты, здорово — Микки Рурк!Клиент банка: Нет, это Боно.Карл: О... Да, точно. Надеюсь, на вкус он тоже не Микки Рурк.

22-08-2010 18:46 Всегда говори «ДА» Скачать торрент  

Да, клёвый-всем советую!

Дорогой пользователь! Огромная просьба, поблагодарите релизера, оцените раздачу и оставьте свои комментарий, если Вы скачали Всегда говори «ДА» через торрент бесплатно! Внесите свою лепту в развитие PiratBit!

Комментировать посты могут только пользователи прошедшие не сложную регистрацию

Всегда говори «ДА» через торрент Скачать бесплатно Всегда говори «ДА» Всегда говори «ДА» скачать торрент Всегда говори «ДА» смотреть онлайн Cкачать фильм Всегда говори «ДА» бесплатно Всегда говори «ДА» скачать торрент в хорошем качестве Всегда говори «ДА» смотреть онлайн бесплатно в хорошем качестве

Вы не можете начинать темыВы не можете отвечать на сообщенияВы не можете редактировать свои сообщенияВы не можете удалять свои сообщенияВы не можете голосовать в опросахВы не можете прикреплять файлы к сообщениямВы можете скачивать файлы

Скачать фильм Всегда говори «ДА» через торрент в хорошем качестве бесплатно DVDRip

piratbit.ru

Размер: 1.36 GB | Добавлен: 8 лет 7 мес. назад | Торрент скачан:788 раз
Реклама Дарим 3000 рублей за регистрацию, не упусти свой шанс получить шикарный бонус!!!

25-03-2009 19:27 Всегда говори «ДА» Скачать торрент  

Всегда говори «ДА» / Yes Man

Год выпуска: 2008Страна: США / АвстралияЖанр: комедияПродолжительность: 01:44:29Перевод: Профессиональный (многоголосый, закадровый)

Режиссер: Пейтон Рид

В ролях: Джим Керри, Зуи Дешанель, Брэдли Купер, Джон Майкл Хиггинс, Риз Дэрби, Дэнни Мастерсон, Фионнула Флэнаган, Теренс Стэмп, Саша Александр, Молли Симс

Описание: Депрессивный главный герой всегда и всем говорил «нет» — например, друзьям, если они зовут куда-то. Но в один прекрасный день он заключает соглашение, по которому всегда должен отвечать «Да» на любое предложение…

Качество: DVDRipФормат: AVIВидео кодек: XviDАудио кодек: AC3Видео: 704x288, ~1477 кб/сАудио: AC3, 384 кб/с

Скачать Всегда говори «ДА» через торрент http://img1.immage.de/19028f0f.jpg Скачать фильм Всегда говори «ДА» через торрент бесплантно в хорошем качестве Описание: Депрессивный главный герой всегда и всем говорил «нет» — например, друзьям, если они зовут куда-то. Но в один прекрасный день он ... 2009-03-25 19:27 9.8 10 10

Loading...

Loading...

Рекламный пират

25-03-2009 20:35 Всегда говори «ДА» Скачать торрент  

25-03-2009 20:40 Всегда говори «ДА» Скачать торрент  

1go Видео: 704x288, ~1477 кб/с

25-03-2009 21:44 Всегда говори «ДА» Скачать торрент  

paul08 писал(а):

1go Видео: 704x288, ~1477 кб/с

каюсь - грешен) ориентируюсь на матюки типа ДВДрип и размер файла и толи ошибся-запутался, толи на 710м была ошибка в размере на стр.)))спасибо

31-03-2009 23:38 Всегда говори «ДА» Скачать торрент  

Последний раз редактировалось: a (2009-04-01 00:03), всего редактировалось 1 раз

31-03-2009 23:49 Всегда говори «ДА» Скачать торрент  

СУПЕР фильм - смотреть ВСЕМ!) худ версия д/ф "Секрет") Р качество не существенно лучше версии в 694МБ

06-04-2009 19:17 Всегда говори «ДА» Скачать торрент  

02-04-2011 10:45 Всегда говори «ДА» Скачать торрент  

Хрен с ним, с качеством. Фильм отличный!

Дорогой пользователь! Огромная просьба, поблагодарите релизера, оцените раздачу и оставьте свои комментарий, если Вы скачали Всегда говори «ДА» через торрент бесплатно! Внесите свою лепту в развитие PiratBit!

Комментировать посты могут только пользователи прошедшие не сложную регистрацию

Всегда говори «ДА» через торрент Скачать бесплатно Всегда говори «ДА» Всегда говори «ДА» скачать торрент Всегда говори «ДА» смотреть онлайн Cкачать фильм Всегда говори «ДА» бесплатно Всегда говори «ДА» скачать торрент в хорошем качестве Всегда говори «ДА» смотреть онлайн бесплатно в хорошем качестве

Вы не можете начинать темыВы не можете отвечать на сообщенияВы не можете редактировать свои сообщенияВы не можете удалять свои сообщенияВы не можете голосовать в опросахВы не можете прикреплять файлы к сообщениямВы можете скачивать файлы


Смотрите также