Великий уравнитель скачать через торрент в хорошем качестве


Скачать фильм Великий уравнитель (2014) через торрент

gig-torrent.net

20 февраля 2016 07:35 Великий уравнитель / The Equalizer (2014) BDRip 720p от HELLYWOOD | D, A .torrent   [Информация о файле (нажмите для просмотра)] Перевод#1: Дубляж [лицензия BD CEE]Перевод#2: Авторский (одноголосый) [А.Гаврилов, Д.Есарев (x2), А.Матвеев]Субтитры: русские (полные + форс.), украинские, английские (Forced + Full + SDH + SDH-Colored)Качество: BDRip 720pФормат: MKVВидео: 1280x534 (2.40:1), 3843 kbps, 23,976 fps, 0,234 bppАудио №1: AC3 / 5.1 / 48 kHz / 640 kbps / 16 bit| DUB - BD CEE Аудио №2: AC3 / 5.1 / 48 kHz / 640 kbps / 16 bit| AVO - Д.Есарев Аудио №3: AC3 / 5.1 / 48 kHz / 640 kbps / 16 bit| AVO - Д.Есарев +18Аудио №4: AC3 / 5.1 / 48 kHz / 640 kbps / 16 bit| AVO - А.ГавриловАудио №5: AC3 / 5.1 / 48 kHz / 640 kbps / 16 bit| AVO - А.МатвеевАудио №6: AC3 / 5.1 / 48 kHz / 640 kbps / 16 bit| UKRАудио №7: AC3 / 5.1 / 48 kHz / 640 kbps / 16 bit| ENG 7,68 Gb 43 5
20 февраля 2016 07:35 Великий уравнитель / The Equalizer (2014) BDRip 1080p | 60 fps | Лицензия .torrent   [Информация о файле (нажмите для просмотра)] Перевод: Профессиональный (дублированный) Качество: BDRip1080/60fps/Исходник Blu-rayФормат: MKVВидео: 1920x800 (2.40:1), 59.940 fps, AVC, 41.5 MbpsАудио: AC3, 640 Kbps, 48.0 KHz, 6 ch 38,84 Gb 7 3
20 февраля 2016 07:35 Великий уравнитель / The Equalizer (2014) BDRip 720p .torrent   [Информация о файле (нажмите для просмотра)] Качество: BDRip (720p)Перевод: профессиональный (полное дублирование), авторский (одноголосый закадровый)Видео: MPEG-4 AVC/H.264, 1280 x 536 (2,40:1), 5 512 kbps, 23.976 fpsАудио # 1: AC3, 6 ch, 640 kbps, 48 000 Hz [дублированный (Blu-Ray CEE)]Аудио # 2: DTS, 6 ch, 1510 kbps, 48 000 Hz [одноголосый закадровый (Д.Есарев «цензурный»)]Аудио # 3: DTS, 6 ch, 1510 kbps, 48 000 Hz [одноголосый закадровый (Д.Есарев «нецензурный»)]Аудио # 4: DTS, 6 ch, 1509 kbps, 48 000 Hz [одноголосый закадровый (А.Гаврилов)]Аудио # 5: DTS, 6 ch, 1509 kbps, 48 000 Hz [одноголосый закадровый (А.Матвеев)]Аудио # 6: AC3, 6 ch, 640 kbps, 48 000 Hz [дублированный (Blu-Ray CEE) (Украинский)]Аудио # 7: DTS, 6 ch, 1509 kbps, 48 000 Hz [оригинальный]Видео: Идентификатор : 1 Формат : AVC Формат/Информация : Advanced Video Codec Профиль формата : [email protected] Параметр CABAC формата : Да Параметр ReFrames формата : 10 кадров Идентификатор кодека : V_MPEG4/ISO/AVC Продолжительность : 2 ч. 12 м. Ширина : 1280 пикселей Высота : 536 пикселей Соотношение сторон : 2,40:1 Режим частоты кадров : Постоянный Частота кадров : 23,976 кадра/сек Цветовое пространство : YUV Субдискретизация насыщенности : 4:2:0 Битовая глубина : 8 бит Тип развёртки : Прогрессивная Заголовок : [2014] Великий уравнитель / The Equalizer [BDRip] [720p] Библиотека кодирования : x264 core 142 r2491kMod 24e4fed Настройки программы : cabac=1 / ref=10 / deblock=1:-3:-3 / analyse=0x3:0x113 / me=umh / subme=11 / psy=1 / fade_compensate=0.00 / psy_rd=1.00:0.00 / mixed_ref=1 / me_range=48 / chroma_me=1 / trellis=2 / 8x8dct=1 / cqm=0 / deadzone=21,11 / fast_pskip=1 / chroma_qp_offset=-2 / threads=6 / lookahead_threads=1 / sliced_threads=0 / nr=0 / decimate=1 / interlaced=0 / bluray_compat=0 / constrained_intra=0 / fgo=0 / bframes=12 / b_pyramid=2 / b_adapt=2 / b_bias=0 / direct=1 / weightb=1 / open_gop=0 / weightp=2 / keyint=240 / keyint_min=23 / scenecut=40 / intra_refresh=0 / rc_lookahead=0 / rc=crf / mbtree=0 / crf=16.7500 / qcomp=0.65 / qpmin=0 / qpmax=69 / qpstep=4 / vbv_maxrate=62500 / vbv_bufsize=78125 / crf_max=0.0 / nal_hrd=none / filler=0 / ip_ratio=1.40 / pb_ratio=1.10 / aq=1:0.90 Язык : English Default : Да Forced : Нет Коэффициенты матрицы : BT.709 DURATION : 02:12:02.957000000 NUMBER_OF_FRAMES : 189961 NUMBER_OF_BYTES : 3558914627 _STATISTICS_WRITING_APP : mkvmerge v7.5.0 ('Glass Culture') 32bit built on Jan 4 2015 16:37:25 _STATISTICS_WRITING_DATE_UTC : 2015-02-02 19:28:53 _STATISTICS_TAGS : BPS DURATION NUMBER_OF_FRAMES NUMBER_OF_BYTESАудио #1: Идентификатор : 2 Формат : AC-3 Формат/Информация : Audio Coding 3 Расширение режима : CM (complete main) Параметр Endianness формата : Big Идентификатор кодека : A_AC3 Продолжительность : 2 ч. 12 м. Вид битрейта : Постоянный Битрейт : 640 Кбит/сек Каналы : 6 каналов Расположение каналов : Front: L C R, Side: L R, LFE Частота : 48,0 КГц Битовая глубина : 16 бит Метод сжатия : С потерями Размер потока : 604 Мбайт (5%) Заголовок : Дублированный (Blu-Ray CEE) Язык : Russian Default : Да Forced : НетАудио #2: Идентификатор : 3 Формат : DTS Формат/Информация : Digital Theater Systems Режим : 16 Параметр Endianness формата : Big Идентификатор кодека : A_DTS Продолжительность : 2 ч. 12 м. Вид битрейта : Постоянный Битрейт : 1510 Кбит/сек Каналы : 6 каналов Расположение каналов : Front: L C R, Side: L R, LFE Частота : 48,0 КГц Битовая глубина : 24 бит Метод сжатия : С потерями Размер потока : 1,39 Гбайт (11%) Заголовок : Одноголосый закадровый (Д.Есарев «цензурный») Язык : Russian Default : Нет Forced : НетАудио #3: Идентификатор : 4 Формат : DTS Формат/Информация : Digital Theater Systems Режим : 16 Параметр Endianness формата : Big Идентификатор кодека : A_DTS Продолжительность : 2 ч. 12 м. Вид битрейта : Постоянный Битрейт : 1510 Кбит/сек Каналы : 6 каналов Расположение каналов : Front: L C R, Side: L R, LFE Частота : 48,0 КГц Битовая глубина : 24 бит Метод сжатия : С потерями Размер потока : 1,39 Гбайт (11%) Заголовок : Одноголосый закадровый (Д.Есарев «нецензурный») Язык : Russian Default : Нет Forced : НетАудио #4: Идентификатор : 5 Формат : DTS Формат/Информация : Digital Theater Systems Режим : 16 Параметр Endianness формата : Big Идентификатор кодека : A_DTS Продолжительность : 2 ч. 12 м. Вид битрейта : Постоянный Битрейт : 1509 Кбит/сек Каналы : 6 каналов Расположение каналов : Front: L C R, Side: L R, LFE Частота : 48,0 КГц Битовая глубина : 16 бит Метод сжатия : С потерями Размер потока : 1,39 Гбайт (11%) Заголовок : Одноголосый закадровый (А.Гаврилов) Язык : Russian Default : Нет Forced : НетАудио #5: Идентификатор : 6 Формат : DTS Формат/Информация : Digital Theater Systems Профиль формата : MA / Core Режим : 16 Параметр Endianness формата : Big Идентификатор кодека : A_DTS Продолжительность : 2 ч. 12 м. Вид битрейта : Переменный Битрейт : Неизвестно / 1509 Кбит/сек Каналы : 8 каналов / 6 каналов Расположение каналов : Front: L C R, Side: L R, Back: L R, LFE / Front: L C R, Side: L R, LFE Частота : 48,0 КГц Битовая глубина : 16 бит Метод сжатия : Без потерь / Lossy Заголовок : Одноголосый закадровый (А.Матвеев) Язык : Russian Default : Нет Forced : НетАудио #6: Идентификатор : 7 Формат : AC-3 Формат/Информация : Audio Coding 3 Расширение режима : CM (complete main) Параметр Endianness формата : Big Идентификатор кодека : A_AC3 Продолжительность : 2 ч. 12 м. Вид битрейта : Постоянный Битрейт : 640 Кбит/сек Каналы : 6 каналов Расположение каналов : Front: L C R, Side: L R, LFE Частота : 48,0 КГц Битовая глубина : 16 бит Метод сжатия : С потерями Размер потока : 604 Мбайт (5%) Заголовок : Дублированный (Blu-Ray CEE) Язык : Ukrainian Default : Нет Forced : НетАудио #7: Идентификатор : 8 Формат : DTS Формат/Информация : Digital Theater Systems Режим : 16 Параметр Endianness формата : Big Идентификатор кодека : A_DTS Продолжительность : 2 ч. 12 м. Вид битрейта : Постоянный Битрейт : 1509 Кбит/сек Каналы : 6 каналов Расположение каналов : Front: L C R, Side: L R, LFE Частота : 48,0 КГц Битовая глубина : 24 бит Метод сжатия : С потерями Задержка видео : 11 мс. Размер потока : 1,39 Гбайт (11%) Заголовок : Оригинальный Язык : English Default : Нет Forced : Нет 12,6 Gb 25 6
20 февраля 2016 07:35 Великий уравнитель / The Equalizer (2014) HDRip | Гаврилов .torrent   [Информация о файле (нажмите для просмотра)] Перевод: Авторский (одноголосый,закадровый) А.ГавриловСубтитры: отсутствуютКачество: HDRipФормат: AVIВидео: MPEG4, XviD, 720x304 (2.35:1), 23.976 fps, 1 125 Kbps (0.214 bit/pixel)Аудио: AC-3, 48.0 KHz, 6 ch, 448 Kbps, CBR 1,46 Gb 48 7
20 февраля 2016 07:35 Великий уравнитель / The Equalizer (2014) BDRip-AVC | D, A .torrent   [Информация о файле (нажмите для просмотра)] Перевод: Дублированный, авторскийСубтитры: Русские, английскиеКачество: BDRip (AVC)Видео: MPEG-4 AVC/H.264, 3500 Kbps, 1024 x 426Аудио 1: Русский AC3 5.1, 448 Kbps, 48.0 KHz (Полное дублирование) Blu-ray CEEАудио 2: Русский AC3 5.1, 448 Kbps, 48.0 KHz (Одноголосый закадровый) А. ГавриловАудио 3: Русский AC3 5.1, 448 Kbps, 48.0 KHz (Одноголосый закадровый) А. МатвеевАудио 4: Русский AC3 5.1, 448 Kbps, 48.0 KHz (Одноголосый закадровый) Д. ЕсаревАудио 5: Английский AC3 5.1, 448 Kbps, 48.0 KHz (Оригинал)Видео: Идентификатор : 1 Формат : AVC Формат/Информация : Advanced Video Codec Профиль формата : [email protected] Параметр CABAC формата : Да Параметр ReFrames формата : 10 кадров Идентификатор кодека : V_MPEG4/ISO/AVC Продолжительность : 2 ч. 12 м. Битрейт : 3500 Кбит/сек Ширина : 1024 пикселя Высота : 426 пикселей Соотношение сторон : 2,40:1 Режим частоты кадров : Постоянный Частота кадров : 23,976 кадра/сек Цветовое пространство : YUV Субдискретизация насыщенности : 4:2:0 Битовая глубина : 8 бит Тип развёртки : Прогрессивная Бит/(Пиксели*Кадры) : 0.335 Размер потока : 3,13 Гбайт (59%) Заголовок : Великий уравнитель (2014) Библиотека кодирования : x264 core 142 r2431 ac76440 Настройки программы : cabac=1 / ref=10 / deblock=1:-3:-3 / analyse=0x3:0x133 / me=umh / subme=10 / psy=1 / psy_rd=1.00:0.10 / mixed_ref=1 / me_range=48 / chroma_me=1 / trellis=2 / 8x8dct=1 / cqm=0 / deadzone=21,11 / fast_pskip=0 / chroma_qp_offset=-3 / threads=6 / lookahead_threads=1 / sliced_threads=0 / nr=0 / decimate=1 / interlaced=0 / bluray_compat=0 / constrained_intra=0 / bframes=5 / b_pyramid=2 / b_adapt=2 / b_bias=0 / direct=3 / weightb=1 / open_gop=0 / weightp=2 / keyint=240 / keyint_min=22 / scenecut=40 / intra_refresh=0 / rc_lookahead=40 / rc=2pass / mbtree=1 / bitrate=3500 / ratetol=1.0 / qcomp=0.60 / qpmin=10 / qpmax=51 / qpstep=4 / cplxblur=20.0 / qblur=0.5 / ip_ratio=1.40 / aq=1:1.00 Язык : EnglishАудио #1: Идентификатор : 2 Формат : AC-3 Формат/Информация : Audio Coding 3 Расширение режима : CM (complete main) Параметр Endianness формата : Big Идентификатор кодека : A_AC3 Продолжительность : 2 ч. 12 м. Вид битрейта : Постоянный Битрейт : 448 Кбит/сек Каналы : 6 каналов Расположение каналов : Front: L C R, Side: L R, LFE Частота : 48,0 КГц Битовая глубина : 16 бит Метод сжатия : С потерями Размер потока : 423 Мбайт (8%) Заголовок : AC3 (Дублированный) Blu-ray CEE Язык : RussianАудио #2: Идентификатор : 3 Формат : AC-3 Формат/Информация : Audio Coding 3 Расширение режима : CM (complete main) Параметр Endianness формата : Big Идентификатор кодека : A_AC3 Продолжительность : 2 ч. 12 м. Вид битрейта : Постоянный Битрейт : 448 Кбит/сек Каналы : 6 каналов Расположение каналов : Front: L C R, Side: L R, LFE Частота : 48,0 КГц Битовая глубина : 16 бит Метод сжатия : С потерями Размер потока : 423 Мбайт (8%) Заголовок : AC3 (Одноголосый) А. Гаврилов Язык : RussianАудио #3: Идентификатор : 4 Формат : AC-3 Формат/Информация : Audio Coding 3 Расширение режима : CM (complete main) Параметр Endianness формата : Big Идентификатор кодека : A_AC3 Продолжительность : 2 ч. 12 м. Вид битрейта : Постоянный Битрейт : 448 Кбит/сек Каналы : 6 каналов Расположение каналов : Front: L C R, Side: L R, LFE Частота : 48,0 КГц Битовая глубина : 16 бит Метод сжатия : С потерями Размер потока : 423 Мбайт (8%) Заголовок : AC3 (Одноголосый) А. Матвеев Язык : RussianАудио #4: Идентификатор : 5 Формат : AC-3 Формат/Информация : Audio Coding 3 Расширение режима : CM (complete main) Параметр Endianness формата : Big Идентификатор кодека : A_AC3 Продолжительность : 2 ч. 12 м. Вид битрейта : Постоянный Битрейт : 448 Кбит/сек Каналы : 6 каналов Расположение каналов : Front: L C R, Side: L R, LFE Частота : 48,0 КГц Битовая глубина : 16 бит Метод сжатия : С потерями Размер потока : 423 Мбайт (8%) Заголовок : AC3 (Одноголосый) Д. Есарев Язык : RussianАудио #5: Идентификатор : 6 Формат : AC-3 Формат/Информация : Audio Coding 3 Расширение режима : CM (complete main) Параметр Endianness формата : Big Идентификатор кодека : A_AC3 Продолжительность : 2 ч. 12 м. Вид битрейта : Постоянный Битрейт : 448 Кбит/сек Каналы : 6 каналов Расположение каналов : Front: L C R, Side: L R, LFE Частота : 48,0 КГц Битовая глубина : 16 бит Метод сжатия : С потерями Размер потока : 423 Мбайт (8%) Заголовок : AC3 (Оригинал) Язык : English 5,3 Gb 11 1
20 февраля 2016 07:35 Великий уравнитель / The Equalizer (2014) BDRip от ExKinoRay | Матвеев .torrent   [Информация о файле (нажмите для просмотра)] Качество: BDRipВидео: XviD, 1902 Кбит/с, 720x304Аудио: AC3, 6 ch, 448 Кбит/сПеревод: Авторский (одноголосый) МатвеевСубтитры: Русские (forced, full) 2,18 Gb 15 3
20 февраля 2016 07:35 Великий уравнитель / The Equalizer (2014) BDRip от -=HD-NET=- | КПК | Лицензия .torrent   [Информация о файле (нажмите для просмотра)] Формат: х264Качество: BDRip | КПКВидео: MPEG-4, 480 х 200, 23.976 fps, 367 Кбит/сАудио: ААС LC, 2 ch, 128 Кбит/с 469,8 Mb 27 3
20 февраля 2016 07:35 Великий уравнитель / The Equalizer (2014) BDRip 720p от HELLYWOOD | Лицензия .torrent   [Информация о файле (нажмите для просмотра)] Перевод: Профессиональный (полное дублирование) [лицензия BD CEE]Субтитры: Русские (полные + форс.), украинские (полные + форс.), английские (Forced + Full + SDH + SDH-Colored)Качество: BDRip 720pФормат: MKVВидео: x.264, 1280x534 (2,40:1), 23,976 fps, 3843 kbps, 0.234 bit/pixelАудио#1: 48 kHz, AC3 Dolby Digital, 3/2 (L,C,R,l,r) + LFE ch, 448.00 kbps |RUSАудио#2: 48 kHz, AC3 Dolby Digital, 3/2 (L,C,R,l,r) + LFE ch, 448.00 kbps |ENG 4,37 Gb 83 5
20 февраля 2016 07:35 Великий уравнитель / The Equalizer (2014) HDRip-AVC | D | Лицензия .torrent   [Информация о файле (нажмите для просмотра)] Перевод: ДубляжКодек: x264Качество: HDRip-AVC | исх. BDRip 1080pВидео: 720x304 (2.35:1), 23.976 fps, x264 ~ 716 Kbps, 0.136 bit/pixelЗвук: 48 / 24 kHz, AAC-HE, (L,R) 2 ch, ~72.00 kbps avg 745,67 Mb 53 5
20 февраля 2016 07:35 Великий уравнитель / The Equalizer (2014) DVD-9 .torrent   [Информация о файле (нажмите для просмотра)] Перевод: Дублированный, авторский (Есарев)Кодек: MPEG-2Качество: DVD-9Видео: MPEG2, PAL 16:9 (720x576) VBR, 24,000 кадр/сЗвук: Русский / Английский DD 5.1 (384Kbps)Видео: Идентификатор : 224 (0xE0) Формат : MPEG Video Версия формата : Version 2 Профиль формата : [email protected] Параметр BVOP формата : Да Параметр матрицы формата : По умолчанию Параметр GOP формата : M=3, N=12 Продолжительность : 22 м. Вид битрейта : Переменный Битрейт : 4892 Кбит/сек Максимальный битрейт : 8080 Кбит/сек Ширина : 720 пикселей Высота : 576 пикселей Соотношение сторон : 16:9 Частота кадров : 24,000 кадра/сек Стандарт вещания : PAL Цветовое пространство : YUV Субдискретизация насыщенности : 4:2:0 Битовая глубина : 8 бит Тип развёртки : Прогрессивная Порядок развёртки : 2:2:2:2:2:2:2:2:2:2:2:3 Pulldown Метод сжатия : С потерями Бит/(Пиксели*Кадры) : 0.492 TimeCode_FirstFrame : 00:00:00:00 TimeCode_Source : Group of pictures header Размер потока : 793 Мбайт (79%)Аудио #1: Идентификатор : 189 (0xBD)-128 (0x80) Формат : AC-3 Формат/Информация : Audio Coding 3 Расширение режима : CM (complete main) Параметр Endianness формата : Big Режим смешивания : DVD-Video Продолжительность : 22 м. Вид битрейта : Постоянный Битрейт : 384 Кбит/сек Каналы : 6 каналов Расположение каналов : Front: L C R, Side: L R, LFE Частота : 48,0 КГц Битовая глубина : 16 бит Метод сжатия : С потерями Размер потока : 62,3 Мбайт (6%)Аудио #2: Идентификатор : 189 (0xBD)-129 (0x81) Формат : AC-3 Формат/Информация : Audio Coding 3 Расширение режима : CM (complete main) Параметр Endianness формата : Big Режим смешивания : DVD-Video Продолжительность : 22 м. Вид битрейта : Постоянный Битрейт : 384 Кбит/сек Каналы : 6 каналов Расположение каналов : Front: L C R, Side: L R, LFE Частота : 48,0 КГц Битовая глубина : 16 бит Метод сжатия : С потерями Размер потока : 62,3 Мбайт (6%)Аудио #3: Идентификатор : 189 (0xBD)-130 (0x82) Формат : AC-3 Формат/Информация : Audio Coding 3 Расширение режима : CM (complete main) Параметр Endianness формата : Big Режим смешивания : DVD-Video Продолжительность : 22 м. Вид битрейта : Постоянный Битрейт : 384 Кбит/сек Каналы : 6 каналов Расположение каналов : Front: L C R, Side: L R, LFE Частота : 48,0 КГц Битовая глубина : 16 бит Метод сжатия : С потерями Размер потока : 62,3 Мбайт (6%) 5,8 Gb 8 3
20 февраля 2016 07:35 Великий уравнитель / The Equalizer (2014) BDRip 1080p от NNNB | D,A .torrent   [Информация о файле (нажмите для просмотра)] Перевод: Дублированный, Авторский (одноголосый)Качество: BDRip 1080p (исходник Blu-ray)Формат: AVC (библиотека кодирования x.264)Видео: 1920x802 (2.40:1), 6709 Кбит/сек, 23,976 кадр/сек, 0,177 Бит/[Пиксели*Кадры]Аудио №1: русский / AC3 / 5.1 / 48 kHz / 640 kbps / 16 bit|Дублированный| Аудио №2: русский / AC3 / 5.1 / 48 kHz / 640 kbps / 16 bit|Авторский, Д. Есарев-не нормативный| Аудио №3: русский / AC3 / 5.1 / 48 kHz / 640 kbps / 16 bit|Авторский, Д. Есарев-цензурный| Аудио №4: английский / AC3 / 5.1 / 48 kHz / 640 kbps / 16 bitСубтитры: русские (Russian), русские (Forced), английские (English), английские (Forced), английские (SDH) 8,55 Gb 36 7
20 февраля 2016 07:35 Великий уравнитель / The Equalizer (2014) BDRip 1080p | D, A .torrent   [Информация о файле (нажмите для просмотра)] Перевод: Профессиональный (полное дублирование) - ЛицензияКачество: BDRip 1080pФормат: MKVВидео: MPEG4/AVC, 8795 Кбит/сек, 1920х802 (2.40:1), 23.976 кадра/секАудио 1: AC3, 6 каналов, 640 Кбит/сек |РусскийАудио 2: AC3, 6 каналов, 640 Кбит/сек |УкраинскийАудио 3: AC3, 6 каналов, 640 Кбит/сек |Д. Есарев-цензурныйАудио 4: DTS, 6 каналов, 1509 Кбит/сек |Д. Есарев-не нормативныйАудио 5: DTS, 6 каналов, 1509 Кбит/сек |АнглийскийСубтитры: Русские (Forced, Full), Украинские (Forced), Английские (Forced, Full, SDH, SDH-Colored)Видео: Идентификатор : 1 Формат : AVC Формат/Информация : Advanced Video Codec Профиль формата : [email protected] Параметр CABAC формата : Да Параметр ReFrames формата : 5 кадров Идентификатор кодека : V_MPEG4/ISO/AVC Продолжительность : 2 ч. 12 м. Битрейт : 8795 Кбит/сек Ширина : 1920 пикселей Высота : 802 пикселя Соотношение сторон : 2,40:1 Режим частоты кадров : Постоянный Частота кадров : 23,976 кадра/сек Цветовое пространство : YUV Субдискретизация насыщенности : 4:2:0 Битовая глубина : 8 бит Тип развёртки : Прогрессивная Бит/(Пиксели*Кадры) : 0.238 Размер потока : 7,86 Гбайт (62%) Заголовок : CHD Библиотека кодирования : x264 core 142 r2431 ac76440 Настройки программы : cabac=1 / ref=5 / deblock=1:-3:-3 / analyse=0x3:0x113 / me=umh / subme=10 / psy=1 / psy_rd=1.00:0.05 / mixed_ref=1 / me_range=32 / chroma_me=1 / trellis=2 / 8x8dct=1 / cqm=0 / deadzone=21,11 / fast_pskip=0 / chroma_qp_offset=-2 / threads=18 / lookahead_threads=1 / sliced_threads=0 / nr=0 / decimate=1 / interlaced=0 / bluray_compat=0 / constrained_intra=0 / bframes=4 / b_pyramid=2 / b_adapt=2 / b_bias=0 / direct=3 / weightb=1 / open_gop=0 / weightp=2 / keyint=250 / keyint_min=23 / scenecut=40 / intra_refresh=0 / rc=2pass / mbtree=0 / bitrate=8795 / ratetol=1.0 / qcomp=0.70 / qpmin=0 / qpmax=69 / qpstep=4 / cplxblur=20.0 / qblur=0.5 / ip_ratio=1.40 / pb_ratio=1.30 / aq=2:1.00 Язык : English Default : Да Forced : Нет Аудио #1: Идентификатор : 2 Формат : AC-3 Формат/Информация : Audio Coding 3 Расширение режима : CM (complete main) Параметр Endianness формата : Big Идентификатор кодека : A_AC3 Продолжительность : 2 ч. 12 м. Вид битрейта : Постоянный Битрейт : 640 Кбит/сек Каналы : 6 каналов Расположение каналов : Front: L C R, Side: L R, LFE Частота : 48,0 КГц Битовая глубина : 16 бит Метод сжатия : С потерями Размер потока : 604 Мбайт (5%) Заголовок : D | License Язык : Russian Default : Да Forced : Нет Аудио #2: Идентификатор : 3 Формат : AC-3 Формат/Информация : Audio Coding 3 Расширение режима : CM (complete main) Параметр Endianness формата : Big Идентификатор кодека : A_AC3 Продолжительность : 2 ч. 12 м. Вид битрейта : Постоянный Битрейт : 640 Кбит/сек Каналы : 6 каналов Расположение каналов : Front: L C R, Side: L R, LFE Частота : 48,0 КГц Битовая глубина : 16 бит Метод сжатия : С потерями Размер потока : 604 Мбайт (5%) Заголовок : D | License Язык : Ukrainian Default : Нет Forced : Нет Аудио #3: Идентификатор : 4 Формат : AC-3 Формат/Информация : Audio Coding 3 Расширение режима : CM (complete main) Параметр Endianness формата : Big Идентификатор кодека : A_AC3 Продолжительность : 2 ч. 12 м. Вид битрейта : Постоянный Битрейт : 640 Кбит/сек Каналы : 6 каналов Расположение каналов : Front: L C R, Side: L R, LFE Частота : 48,0 КГц Битовая глубина : 16 бит Метод сжатия : С потерями Размер потока : 604 Мбайт (5%) Заголовок : A | Д.Есарев - цензурный Язык : Russian Default : Нет Forced : Нет Аудио #4: Идентификатор : 5 Формат : DTS Формат/Информация : Digital Theater Systems Режим : 16 Параметр Endianness формата : Big Идентификатор кодека : A_DTS Продолжительность : 2 ч. 12 м. Вид битрейта : Постоянный Битрейт : 1510 Кбит/сек Каналы : 6 каналов Расположение каналов : Front: L C R, Side: L R, LFE Частота : 48,0 КГц Битовая глубина : 24 бит Метод сжатия : С потерями Размер потока : 1,39 Гбайт (11%) Заголовок : A | Д.Есарев - ненормативный Язык : Russian Default : Нет Forced : Нет Аудио #5: Идентификатор : 6 Формат : DTS Формат/Информация : Digital Theater Systems Режим : 16 Параметр Endianness формата : Big Идентификатор кодека : A_DTS Продолжительность : 2 ч. 12 м. Вид битрейта : Постоянный Битрейт : 1509 Кбит/сек Каналы : 6 каналов Расположение каналов : Front: L C R, Side: L R, LFE Частота : 48,0 КГц Битовая глубина : 24 бит Метод сжатия : С потерями Размер потока : 1,39 Гбайт (11%) Заголовок : Original Язык : English Default : Нет Forced : Нет 12,67 Gb 16 3
20 февраля 2016 07:35 Великий уравнитель / The Equalizer (2014) BDRip 720p от HQCLUB | Лицензия .torrent   [Информация о файле (нажмите для просмотра)] Перевод: Профессиональный (полное дублирование),BD EURСубтитры: русские (полные: два вида, форсированные), украинские (форсированные), английские (полные: два вида, форсированные, полные SDH, полные SDH цветные)Формат: MKVКачество: BDRip 720p (источник + / Blu-ray EUR / 1080p)Видео: 1280x534 (2.40:1), 23.976 fps, MPEG-4 AVC, ~5500 kbps avg, 0.336 bit/pixelАудио #1: 48 kHz, AC3 Dolby Digital, 3/2 (L,C,R,l,r) + LFE ch, ~640 kbps avg (DUB)Аудио #2: 48 kHz, AC3 Dolby Digital, 3/2 (L,C,R,l,r) + LFE ch, ~640 kbps avg (UKR)Аудио #3: 48 kHz, DTS, 3/2 (L,C,R,l,r) + LFE ch, ~1509 kbps avg (ENG)Видео: Идентификатор : 1 Формат : AVC Формат/Информация : Advanced Video Codec Профиль формата : [email protected] Параметр CABAC формата : Да Параметр ReFrames формата : 8 кадров Идентификатор кодека : V_MPEG4/ISO/AVC Продолжительность : 2 ч. 12 м. Битрейт : 5500 Кбит/сек Ширина : 1280 пикселей Высота : 534 пикселя Соотношение сторон : 2,40:1 Режим частоты кадров : Постоянный Частота кадров : 23,976 кадра/сек Цветовое пространство : YUV Субдискретизация насыщенности : 4:2:0 Битовая глубина : 8 бит Тип развёртки : Прогрессивная Бит/(Пиксели*Кадры) : 0.336 Размер потока : 4,92 Гбайт (64%) Заголовок : Великий уравнитель / The Equalizer (2014) BDRip 720p by HQCLUB [Elheym] Библиотека кодирования : x264 core 142 r2491kMod 24e4fed Настройки программы : cabac=1 / ref=9 / deblock=1:-3:-2 / analyse=0x3:0x113 / me=umh / subme=11 / psy=1 / fade_compensate=0.00 / psy_rd=1.00:0.00 / mixed_ref=1 / me_range=32 / chroma_me=1 / trellis=2 / 8x8dct=1 / cqm=0 / deadzone=21,11 / fast_pskip=1 / chroma_qp_offset=-4 / threads=6 / lookahead_threads=1 / sliced_threads=0 / nr=0 / decimate=1 / interlaced=0 / bluray_compat=0 / constrained_intra=0 / fgo=0 / bframes=12 / b_pyramid=1 / b_adapt=2 / b_bias=0 / direct=3 / weightb=1 / open_gop=0 / weightp=2 / keyint=230 / keyint_min=23 / scenecut=40 / intra_refresh=0 / rc_lookahead=40 / rc=2pass / mbtree=0 / bitrate=5500 / ratetol=1.0 / qcomp=0.76 / qpmin=0 / qpmax=69 / qpstep=4 / cplxblur=20.0 / qblur=0.5 / vbv_maxrate=50000 / vbv_bufsize=62500 / nal_hrd=none / filler=0 / ip_ratio=1.40 / pb_ratio=1.30 / aq=2:0.90 / zones=0,183000,b=1.14/183001,185002,b=0.36/185003,189959,b=0.28 Язык : English Default : Да Forced : НетАудио #1: Идентификатор : 2 Формат : AC-3 Формат/Информация : Audio Coding 3 Расширение режима : CM (complete main) Параметр Endianness формата : Big Идентификатор кодека : A_AC3 Продолжительность : 2 ч. 12 м. Вид битрейта : Постоянный Битрейт : 640 Кбит/сек Каналы : 6 каналов Расположение каналов : Front: L C R, Side: L R, LFE Частота : 48,0 КГц Битовая глубина : 16 бит Метод сжатия : С потерями Размер потока : 604 Мбайт (8%) Заголовок : АС3 5.1 @ 640 kbps - Dub, BD EUR Язык : Russian Default : Нет Forced : НетАудио #2: Идентификатор : 3 Формат : AC-3 Формат/Информация : Audio Coding 3 Расширение режима : CM (complete main) Параметр Endianness формата : Big Идентификатор кодека : A_AC3 Продолжительность : 2 ч. 12 м. Вид битрейта : Постоянный Битрейт : 640 Кбит/сек Каналы : 6 каналов Расположение каналов : Front: L C R, Side: L R, LFE Частота : 48,0 КГц Битовая глубина : 16 бит Метод сжатия : С потерями Размер потока : 604 Мбайт (8%) Заголовок : АС3 5.1 @ 640 kbps - Dub, BD EUR Язык : Ukrainian Default : Нет Forced : НетАудио #3: Идентификатор : 4 Формат : DTS Формат/Информация : Digital Theater Systems Режим : 16 Параметр Endianness формата : Big Идентификатор кодека : A_DTS Продолжительность : 2 ч. 12 м. Вид битрейта : Постоянный Битрейт : 1509 Кбит/сек Каналы : 6 каналов Расположение каналов : Front: L C R, Side: L R, LFE Частота : 48,0 КГц Битовая глубина : 16 бит Метод сжатия : С потерями Размер потока : 1,39 Гбайт (18%) Заголовок : DTS 5.1 @ 1509 kbps - Original Язык : English Default : Нет Forced : Нет 7,65 Gb 13 2
20 февраля 2016 07:35 Великий уравнитель / The Equalizer (2014) BDRip-AVC от HQCLUB | Лицензия .torrent   [Информация о файле (нажмите для просмотра)] Перевод: Профессиональный (полное дублирование),BD EURСубтитры: Русские (полные: два вида, форсированные), Украинские (форсированные), английские (полные: два вида, форсированные, полные SDH, полные SDH цветные)Формат: MKVКачество: BDRip-AVC (источник + / Blu-ray EUR / 1080p)Видео: 1130x472 (2.40:1), 23.976 fps, MPEG-4 AVC, ~3519 kbps avg, 0.275 bit/pixelАудио #1: 48 kHz, AC3 Dolby Digital, 3/2 (L,C,R,l,r) + LFE ch, ~448 kbps avg (DUB)Аудио #2: 48 kHz, AC3 Dolby Digital, 3/2 (L,C,R,l,r) + LFE ch, ~448 kbps avg (ENG)Аудио #3: 48 kHz, AC3 Dolby Digital, 3/2 (L,C,R,l,r) + LFE ch, ~448 kbps avg (UKR)(отдельно, в составе торрента)Аудио #4: 48 kHz, AC3 Dolby Digital, 3/2 (L,C,R,l,r) + LFE ch, ~448 kbps avg (VO.ESAREV)(отдельно)Видео: Идентификатор : 1 Формат : AVC Формат/Информация : Advanced Video Codec Профиль формата : [email protected] Параметр CABAC формата : Да Параметр ReFrames формата : 13 кадров Идентификатор кодека : V_MPEG4/ISO/AVC Продолжительность : 2 ч. 12 м. Битрейт : 3519 Кбит/сек Ширина : 1130 пикселей Высота : 472 пикселя Соотношение сторон : 2,40:1 Режим частоты кадров : Постоянный Частота кадров : 23,976 кадра/сек Цветовое пространство : YUV Субдискретизация насыщенности : 4:2:0 Битовая глубина : 8 бит Тип развёртки : Прогрессивная Бит/(Пиксели*Кадры) : 0.275 Размер потока : 3,25 Гбайт (78%) Заголовок : Великий уравнитель / The Equalizer (2014) BDRip-AVC by HQCLUB [Elheym] Библиотека кодирования : x264 core 142 r2491kMod 24e4fed Настройки программы : cabac=1 / ref=13 / deblock=1:-3:-2 / analyse=0x3:0x133 / me=umh / subme=11 / psy=1 / fade_compensate=0.00 / psy_rd=1.00:0.00 / mixed_ref=1 / me_range=32 / chroma_me=1 / trellis=2 / 8x8dct=1 / cqm=0 / deadzone=21,11 / fast_pskip=1 / chroma_qp_offset=-4 / threads=6 / lookahead_threads=1 / sliced_threads=0 / nr=0 / decimate=1 / interlaced=0 / bluray_compat=0 / constrained_intra=0 / fgo=0 / bframes=12 / b_pyramid=2 / b_adapt=2 / b_bias=0 / direct=1 / weightb=1 / open_gop=0 / weightp=2 / keyint=230 / keyint_min=23 / scenecut=40 / intra_refresh=0 / rc_lookahead=40 / rc=crf / mbtree=0 / crf=16.6000 / qcomp=0.70 / qpmin=0 / qpmax=69 / qpstep=4 / vbv_maxrate=50000 / vbv_bufsize=62500 / crf_max=0.0 / nal_hrd=none / filler=0 / ip_ratio=1.40 / pb_ratio=1.30 / aq=3:0.90 / zones=2235,182739,b=1.08/183007,189959,b=0.36 Язык : English Default : Да Forced : НетАудио #1: Идентификатор : 2 Формат : AC-3 Формат/Информация : Audio Coding 3 Расширение режима : CM (complete main) Параметр Endianness формата : Big Идентификатор кодека : A_AC3 Продолжительность : 2 ч. 12 м. Вид битрейта : Постоянный Битрейт : 448 Кбит/сек Каналы : 6 каналов Расположение каналов : Front: L C R, Side: L R, LFE Частота : 48,0 КГц Битовая глубина : 16 бит Метод сжатия : С потерями Размер потока : 423 Мбайт (10%) Заголовок : АС3 5.1 @ 448 kbps - Dub, BD EUR Язык : Russian Default : Нет Forced : НетАудио #2: Идентификатор : 3 Формат : AC-3 Формат/Информация : Audio Coding 3 Расширение режима : CM (complete main) Параметр Endianness формата : Big Идентификатор кодека : A_AC3 Продолжительность : 2 ч. 12 м. Вид битрейта : Постоянный Битрейт : 448 Кбит/сек Каналы : 6 каналов Расположение каналов : Front: L C R, Side: L R, LFE Частота : 48,0 КГц Битовая глубина : 16 бит Метод сжатия : С потерями Размер потока : 423 Мбайт (10%) Заголовок : АС3 5.1 @ 448 kbps - Original Язык : English Default : Нет Forced : Нет 4,57 Gb 3 4
20 февраля 2016 07:35 Великий уравнитель / The Equalizer (2014) HDRip от Scarabey | Лицензия .torrent   [Информация о файле (нажмите для просмотра)] Перевод: Дубляж - ЛицензияВидео: 640x272 (2.35:1), 23.976 fps, XviD build 73 ~707 kbps avg, 0.17 bit/pixelАудио: 48 kHz, MPEG Layer 3, 2 ch, ~128.00 kbps avg 798,26 Mb 25 9
20 февраля 2016 07:35 Великий уравнитель / The Equalizer (2014) Blu-ray CEE 1080p от HDClub .torrent   [Информация о файле (нажмите для просмотра)] Качество: Blu-Ray (1080p)Видео: MPEG-4 AVC, 22.3 Мбит/с, 1920x1080, 23.976 Кадр/сАудио: Русский, английский, чешский, венгерский, польский, турецкий, украинский (AC3, 6 ch, 640 Кбит/c), английский (DTS-HD MA, 8 ch, 2713 Кбит/c)Перевод: ДублированныйСубтитры: Английские, арабские, болгарские, хорватские, чешский, эстонские, греческие, иврит, хинди, венгерские, исландские, польские, португальские, румынские, русские, сербские, словацкие, словенские, турецкие 40,28 Gb 5 8
20 февраля 2016 07:35 Великий уравнитель / The Equalizer (2014) BDRip 720p | D, A | Лицензия .torrent   [Информация о файле (нажмите для просмотра)] Перевод: Перевод: Профессиональный (дублированный) Rus, Ukr Перевод 2: Одноголосый закадровый ЕсаревКодек: mkvКачество: BDRip 720pВидео: MPEG-4 AVC, 5114 Кбит/с, 1280x536, 23,976 fpsЗвук: Аудио: Rus, AC3, 640 kb/s (6 ch), 48 kHz - Русский Аудио 2: Rus, AC3, 640 kb/s (6 ch), 48 kHz - Украинский Аудио 3: Rus, AC3, 640 kb/s (6 ch), 48 kHz - Есарев Аудио 4: Eng, AC3, 640 kb/s (6 ch), 48 kHzСубтитры: Rus, Eng 7,22 Gb 10 5
20 февраля 2016 07:35 Великий уравнитель / The Equalizer (2014) BDRip 720p от Leonardo and Scarabey | Лицензия .torrent   [Информация о файле (нажмите для просмотра)] Перевод: Профессиональный (полное дублирование) ЛицензияФормат: MKVВидео кодек: MPEG-4 AVC Аудио кодек: AC3Видео: 1280x534 (2.40:1) at 23.976 fps, AVC at 2469 kbps avg, 0.151 bit/pixelСубтитры: Русские, английские 2,92 Gb 214 8
20 февраля 2016 07:35 Великий уравнитель / The Equalizer (2014) BDRip-AVC от MediaClub | D, A | Лицензия .torrent   [Информация о файле (нажмите для просмотра)] Перевод: Дублированный, авторскийКачество: BDRip (AVC)Видео: MPEG-4 AVC, 1500 Кбит/с, 1024x428, 23.976 кадр/сАудио #1: Русский (AC3, 6 ch, 448 Кбит/с) / Дублированный (BD CEE)Аудио #2: Русский (AC3, 6 ch, 448 Кбит/с) / Авторский (Есарев)Аудио #3: Украинский (AC3, 6 ch, 448 Кбит/с) / Дублированный (BD CEE)Аудио #4: Английский (AC3, 6 ch, 448 Кбит/с)Субтитры: Русские (форсированные, полные), англйские (Full, SDH, Colored)Видео: Идентификатор : 1 Формат : AVC Формат/Информация : Advanced Video Codec Профиль формата : [email protected] Параметр CABAC формата : Да Параметр ReFrames формата : 10 кадров Идентификатор кодека : V_MPEG4/ISO/AVC Продолжительность : 2 ч. 12 м. Битрейт : 1500 Кбит/сек Ширина : 1024 пикселя Высота : 428 пикселей Соотношение сторон : 2,40:1 Режим частоты кадров : Постоянный Частота кадров : 23,976 кадра/сек Цветовое пространство : YUV Субдискретизация насыщенности : 4:2:0 Битовая глубина : 8 бит Тип развёртки : Прогрессивная Бит/(Пиксели*Кадры) : 0.143 Размер потока : 1,33 Гбайт (44%) Заголовок : -=MediaClub-kaspr=- Библиотека кодирования : x264 core 142 r2431+42 c69a006 tMod [[email protected]:2:0 X86_64] Настройки программы : cabac=1 / ref=10 / deblock=1:-3:-3 / analyse=0x3:0x113 / me=umh / subme=11 / psy=1 / fade_compensate=0.00 / psy_rd=1.00:0.20 / mixed_ref=1 / me_range=32 / chroma_me=1 / trellis=2 / 8x8dct=1 / cqm=0 / deadzone=21,11 / fast_pskip=0 / chroma_qp_offset=-3 / threads=12 / lookahead_threads=3 / sliced_threads=0 / nr=0 / decimate=0 / interlaced=0 / bluray_compat=0 / constrained_intra=0 / fgo=0 / bframes=14 / b_pyramid=2 / b_adapt=2 / b_bias=0 / direct=3 / weightb=1 / open_gop=0 / weightp=2 / keyint=240 / keyint_min=23 / scenecut=40 / intra_refresh=0 / rc=2pass / mbtree=0 / bitrate=1500 / ratetol=1.0 / qcomp=0.60 / qpmin=0:0:0 / qpmax=69:69:69 / qpstep=4 / cplxblur=20.0 / qblur=0.5 / ip_ratio=1.40 / pb_ratio=1.30 / aq=4:0.80 / aq-sensitivity=10.00 / aq-factor=1.00:1.00:1.00 / aq2=0 / aq3=0 Default : Да Forced : НетАудио #1: Идентификатор : 2 Формат : AC-3 Формат/Информация : Audio Coding 3 Расширение режима : CM (complete main) Параметр Endianness формата : Big Идентификатор кодека : A_AC3 Продолжительность : 2 ч. 12 м. Вид битрейта : Постоянный Битрейт : 448 Кбит/сек Каналы : 6 каналов Расположение каналов : Front: L C R, Side: L R, LFE Частота : 48,0 КГц Битовая глубина : 16 бит Метод сжатия : С потерями Размер потока : 423 Мбайт (14%) Заголовок : Dub Язык : Russian Default : Да Forced : НетАудио #2: Идентификатор : 3 Формат : AC-3 Формат/Информация : Audio Coding 3 Расширение режима : CM (complete main) Параметр Endianness формата : Big Идентификатор кодека : A_AC3 Продолжительность : 2 ч. 12 м. Вид битрейта : Постоянный Битрейт : 448 Кбит/сек Каналы : 6 каналов Расположение каналов : Front: L C R, Side: L R, LFE Частота : 48,0 КГц Битовая глубина : 16 бит Метод сжатия : С потерями Размер потока : 423 Мбайт (14%) Заголовок : Есарев (цензура) Язык : Russian Default : Нет Forced : НетАудио #3: Идентификатор : 4 Формат : AC-3 Формат/Информация : Audio Coding 3 Расширение режима : CM (complete main) Параметр Endianness формата : Big Идентификатор кодека : A_AC3 Продолжительность : 2 ч. 12 м. Вид битрейта : Постоянный Битрейт : 448 Кбит/сек Каналы : 6 каналов Расположение каналов : Front: L C R, Side: L R, LFE Частота : 48,0 КГц Битовая глубина : 16 бит Метод сжатия : С потерями Размер потока : 423 Мбайт (14%) Заголовок : Dub Язык : Ukrainian Default : Нет Forced : НетАудио #4: Идентификатор : 5 Формат : AC-3 Формат/Информация : Audio Coding 3 Расширение режима : CM (complete main) Параметр Endianness формата : Big Идентификатор кодека : A_AC3 Продолжительность : 2 ч. 12 м. Вид битрейта : Постоянный Битрейт : 448 Кбит/сек Каналы : 6 каналов Расположение каналов : Front: L C R, Side: L R, LFE Частота : 48,0 КГц Битовая глубина : 16 бит Метод сжатия : С потерями Размер потока : 423 Мбайт (14%) Язык : English Default : Нет Forced : Нет 3,04 Gb 9 2
20 февраля 2016 07:35 Великий уравнитель / The Equalizer (2014) BDRip от HQ-ViDEO | Лицензия .torrent   [Информация о файле (нажмите для просмотра)] Перевод: Профессиональный дублированный /Лицензия Blu-Ray CEE/Субтитры: Русские (форс. + полные), Английские (+ форс., SDH)Видео: XviD, 720x304 (2.37:1), ~1907 kbps avg, 23,976 fpsАудио #1: AC3 Dolby Digital, 48 KHz, ~448 kbps, 3/2 (L,C,R,l,r) + LFE ch/RUS/Аудио #2: AC3 Dolby Digital, 48 KHz, ~448 kbps, 3/2 (L,C,R,l,r) + LFE ch/UKR, скачать отдельно с disk.yandex.ru/Аудио #3: AC3 Dolby Digital, 48 KHz, ~448 kbps, 3/2 (L,C,R,l,r) + LFE ch/ENG, скачать отдельно с disk.yandex.ru/ 2,18 Gb 630 11
20 февраля 2016 07:35 Великий уравнитель / The Equalizer (2014) BDRemux 1080p от ExKinoRay | Лицензия .torrent   [Информация о файле (нажмите для просмотра)] Качество: Blu-Ray Remux (1080p)Видео: MPEG-4 AVC, 22852 Кбит/с, 1920х1080, 23.976 кадр/сАудио: Русский, украинский (AC3, 6 ch, 640 Кбит/c), английский (DTS-HD MA, 8 ch, 2713 Кбит/с)Перевод: ДублированныйСубтитры: Русские, английские 26,25 Gb 8 3
20 февраля 2016 07:35 Великий уравнитель / The Equalizer (2014) BDRip 1080p от HQ-ViDEO | Лицензия .torrent   [Информация о файле (нажмите для просмотра)] Перевод: Профессиональный дублированный /Лицензия Blu-Ray CEE/Субтитры: Русские (форс. + полные), Английские (+ форс., SDH)Видео: x.264, 1920x804 (2.40:1), ~11568 kbps avg, 23,976 fpsАудио #1: AC3 Dolby Digital, 48 KHz, ~640 kbps, 3/2 (L,C,R,l,r) + LFE ch/RUS/Аудио #2: AC3 Dolby Digital, 48 KHz, ~640 kbps, 3/2 (L,C,R,l,r) + LFE ch/UKR/Аудио #3: AC3 Dolby Digital, 48 KHz, ~640 kbps, 3/2 (L,C,R,l,r) + LFE ch/ENG/ 12,44 Gb 63 9
20 февраля 2016 07:35 Великий уравнитель / The Equalizer (2014) BDRip от ExKinoRay | Есарев .torrent   [Информация о файле (нажмите для просмотра)] Кодек: XviDКачество: ВDRip (The.Equalizer.2014.BDRemux.(1080p).ExKinoRay)Видео: 720x304 (2,35:1), 23,976 fps, XviD 73 ~1954 kbps avg, 0.372 bit/pixelАудио 1: 48.0 kHz, Audio Coding 3, 6 ch, 384 Kbps| AVO [Дмитрий Есарев] (Rus) | Без цензуры | Аудио 2: 48.0 kHz, Audio Coding 3, 6 ch, 384 Kbps | AVO [Дмитрий Есарев] (Rus) | Цензура |Аудио 3: 48.0 kHz, Audio Coding 3, 6 ch, 384 Kbps |ОригиналВидео: Идентификатор : 0 Формат : MPEG-4 Visual Профиль формата : Advanced [email protected] Параметр BVOP формата : 2 Параметр QPel формата : Нет Параметр GMC формата : Без точки перехода Параметр матрицы формата : Выборочная Идентификатор кодека : XVID Идентификатор кодека/Подсказка : XviD Продолжительность : 2 ч. 12 м. Битрейт : 1954 Кбит/сек Ширина : 720 пикселей Высота : 304 пикселя Соотношение сторон : 2,35:1 Частота кадров : 23,976 кадра/сек Цветовое пространство : YUV Субдискретизация насыщенности : 4:2:0 Битовая глубина : 8 бит Тип развёртки : Прогрессивная Метод сжатия : С потерями Бит/(Пиксели*Кадры) : 0.372 Размер потока : 1,80 Гбайт (62%) Библиотека кодирования : XviD 73Аудио #1: Идентификатор : 1 Формат : AC-3 Формат/Информация : Audio Coding 3 Расширение режима : CM (complete main) Параметр Endianness формата : Big Идентификатор кодека : 2000 Продолжительность : 2 ч. 12 м. Вид битрейта : Постоянный Битрейт : 384 Кбит/сек Каналы : 6 каналов Расположение каналов : Front: L C R, Side: L R, LFE Частота : 48,0 КГц Битовая глубина : 16 бит Метод сжатия : С потерями Размер потока : 363 Мбайт (12%) Выравнивание : Разделение по промежуткам Продолжительность промежутка : 42 мс. (1,00 видеокадр) Время предзагрузки промежутка : 500 мс.Аудио #2: Идентификатор : 2 Формат : AC-3 Формат/Информация : Audio Coding 3 Расширение режима : CM (complete main) Параметр Endianness формата : Big Идентификатор кодека : 2000 Продолжительность : 2 ч. 12 м. Вид битрейта : Постоянный Битрейт : 384 Кбит/сек Каналы : 6 каналов Расположение каналов : Front: L C R, Side: L R, LFE Частота : 48,0 КГц Битовая глубина : 16 бит Метод сжатия : С потерями Размер потока : 363 Мбайт (12%) Выравнивание : Разделение по промежуткам Продолжительность промежутка : 42 мс. (1,00 видеокадр) Время предзагрузки промежутка : 500 мс.Аудио #3: Идентификатор : 3 Формат : AC-3 Формат/Информация : Audio Coding 3 Расширение режима : CM (complete main) Параметр Endianness формата : Big Идентификатор кодека : 2000 Продолжительность : 2 ч. 12 м. Вид битрейта : Постоянный Битрейт : 384 Кбит/сек Каналы : 6 каналов Расположение каналов : Front: L C R, Side: L R, LFE Частота : 48,0 КГц Битовая глубина : 16 бит Метод сжатия : С потерями Размер потока : 363 Мбайт (12%) Выравнивание : Разделение по промежуткам Продолжительность промежутка : 42 мс. (1,00 видеокадр) Время предзагрузки промежутка : 500 мс. 2,88 Gb 6 4
20 февраля 2016 07:35 Великий уравнитель / The Equalizer (2014) BDRip-AVC от R.G. HD-Films | 60 fps | iTunes .torrent   [Информация о файле (нажмите для просмотра)] Перевод: Дубляж - [Лицензия / iTunes]Субтитры: русские (Форсированные), русские (Полные)Качество: BDRip-AVC 60fpsФормат: MKVВидео: AVC, 1024x424 (2.40:1), 3665 kbps, 59,940 fps, 0,141 bppАудио: русский / AC3 / 5.1 / 48 kHz / 384 kbps / 16 bit|Дубляж - iTunes| 3,75 Gb 10 1
20 февраля 2016 07:34 Великий уравнитель / The Equalizer (2014) HDRip-AVC | Есарев .torrent   [Информация о файле (нажмите для просмотра)] Качество: HDRip (AVC)Видео: MPEG-4 AVC, 1463 Кбит/с, 1024x428Аудио: Русский, английский (АС3, 6 ch, 448 Кбит/c)Перевод: Авторский одноголосый (Д. Есарев)Звук: В релизе две рус. аудио дороги с переводом Есарева: первая без цензуры, вторая цензурная. Перевод Дмитрия Есарева доступен благодаря - mihey10 Работа со звуком mihaildns.Видео: Идентификатор : 1 Формат : AVC Формат/Информация : Advanced Video Codec Профиль формата : [email protected] Параметр CABAC формата : Да Параметр ReFrames формата : 9 кадров Идентификатор кодека : V_MPEG4/ISO/AVC Продолжительность : 2 ч. 12 м. Битрейт : 1463 Кбит/сек Ширина : 1024 пикселя Высота : 428 пикселей Соотношение сторон : 2,40:1 Режим частоты кадров : Постоянный Частота кадров : 23,976 кадра/сек Цветовое пространство : YUV Субдискретизация насыщенности : 4:2:0 Битовая глубина : 8 бит Тип развёртки : Прогрессивная Бит/(Пиксели*Кадры) : 0.139 Размер потока : 1,30 Гбайт (50%) Библиотека кодирования : x264 core 142 r2431 ac76440 Настройки программы : cabac=1 / ref=9 / deblock=1:-3:-3 / analyse=0x3:0x133 / me=umh / subme=10 / psy=1 / psy_rd=1.00:0.15 / mixed_ref=1 / me_range=32 / chroma_me=1 / trellis=2 / 8x8dct=1 / cqm=0 / deadzone=21,11 / fast_pskip=0 / chroma_qp_offset=-3 / threads=12 / lookahead_threads=2 / sliced_threads=0 / nr=0 / decimate=0 / interlaced=0 / bluray_compat=0 / constrained_intra=0 / bframes=9 / b_pyramid=2 / b_adapt=2 / b_bias=0 / direct=3 / weightb=1 / open_gop=0 / weightp=2 / keyint=240 / keyint_min=24 / scenecut=40 / intra_refresh=0 / rc_lookahead=40 / rc=2pass / mbtree=1 / bitrate=1463 / ratetol=1.0 / qcomp=0.60 / qpmin=10 / qpmax=51 / qpstep=4 / cplxblur=20.0 / qblur=0.5 / ip_ratio=1.40 / aq=1:1.00 Default : Да Forced : НетАудио #1: Идентификатор : 2 Формат : AC-3 Формат/Информация : Audio Coding 3 Расширение режима : CM (complete main) Параметр Endianness формата : Big Идентификатор кодека : A_AC3 Продолжительность : 2 ч. 12 м. Вид битрейта : Постоянный Битрейт : 448 Кбит/сек Каналы : 6 каналов Расположение каналов : Front: L C R, Side: L R, LFE Частота : 48,0 КГц Битовая глубина : 16 бит Метод сжатия : С потерями Размер потока : 423 Мбайт (16%) Язык : Russian Default : Да Forced : НетАудио #2: Идентификатор : 3 Формат : AC-3 Формат/Информация : Audio Coding 3 Расширение режима : CM (complete main) Параметр Endianness формата : Big Идентификатор кодека : A_AC3 Продолжительность : 2 ч. 12 м. Вид битрейта : Постоянный Битрейт : 448 Кбит/сек Каналы : 6 каналов Расположение каналов : Front: L C R, Side: L R, LFE Частота : 48,0 КГц Битовая глубина : 16 бит Метод сжатия : С потерями Размер потока : 423 Мбайт (16%) Язык : Russian Default : Нет Forced : НетАудио #3: Идентификатор : 4 Формат : AC-3 Формат/Информация : Audio Coding 3 Расширение режима : CM (complete main) Параметр Endianness формата : Big Идентификатор кодека : A_AC3 Продолжительность : 2 ч. 12 м. Вид битрейта : Постоянный Битрейт : 448 Кбит/сек Каналы : 6 каналов Расположение каналов : Front: L C R, Side: L R, LFE Частота : 48,0 КГц Битовая глубина : 16 бит Метод сжатия : С потерями Размер потока : 423 Мбайт (16%) Язык : English Default : Нет Forced : Нет 2,59 Gb 4 3
20 февраля 2016 07:34 Великий уравнитель / The Equalizer (2014) BDRip 720p | A .torrent   [Информация о файле (нажмите для просмотра)] Формат: MKVКачество: BDRip 720pВидео: MPEG-4 AVC, 5596 Кбит/с, 1280x536Аудио: Русский, английский (DTS, 6 ch, 1536 Кбит/c)Субтитры: EnglishВидео: Идентификатор : 1 Формат : AVC Формат/Информация : Advanced Video Codec Профиль формата : [email protected] Параметр CABAC формата : Да Параметр ReFrames формата : 5 кадров Идентификатор кодека : V_MPEG4/ISO/AVC Продолжительность : 2 ч. 12 м. Битрейт : 5596 Кбит/сек Ширина : 1280 пикселей Высота : 536 пикселей Соотношение сторон : 2,40:1 Режим частоты кадров : Постоянный Частота кадров : 23,976 кадра/сек Цветовое пространство : YUV Субдискретизация насыщенности : 4:2:0 Битовая глубина : 8 бит Тип развёртки : Прогрессивная Бит/(Пиксели*Кадры) : 0.340 Размер потока : 4,98 Гбайт (53%) Библиотека кодирования : x264 core 142 r2479 dd79a61 Настройки программы : cabac=1 / ref=5 / deblock=1:0:0 / analyse=0x3:0x133 / me=umh / subme=7 / psy=1 / psy_rd=1.00:0.00 / mixed_ref=1 / me_range=16 / chroma_me=1 / trellis=1 / 8x8dct=1 / cqm=0 / deadzone=21,11 / fast_pskip=0 / chroma_qp_offset=-2 / threads=18 / lookahead_threads=3 / sliced_threads=0 / nr=0 / decimate=1 / interlaced=0 / bluray_compat=0 / constrained_intra=0 / bframes=3 / b_pyramid=2 / b_adapt=1 / b_bias=0 / direct=1 / weightb=1 / open_gop=0 / weightp=2 / keyint=250 / keyint_min=23 / scenecut=40 / intra_refresh=0 / rc_lookahead=40 / rc=2pass / mbtree=1 / bitrate=5596 / ratetol=1.0 / qcomp=0.60 / qpmin=0 / qpmax=69 / qpstep=4 / cplxblur=20.0 / qblur=0.5 / ip_ratio=1.40 / aq=1:1.00 Язык : English Default : Да Forced : Нет _STATISTICS_WRITING_APP : mkvmerge v7.3.0 ('Nouages') 64bit built on Oct 22 2014 18:53:34 _STATISTICS_WRITING_DATE_UTC : 2014-12-13 03:54:07 _STATISTICS_TAGS : BPS DURATION NUMBER_OF_FRAMES NUMBER_OF_BYTES DURATION : 02:12:02.928000000 NUMBER_OF_FRAMES : 189960 NUMBER_OF_BYTES : 5541619358Аудио #1: Идентификатор : 2 Формат : DTS Формат/Информация : Digital Theater Systems Режим : 16 Параметр Endianness формата : Big Идентификатор кодека : A_DTS Продолжительность : 2 ч. 12 м. Вид битрейта : Постоянный Битрейт : 1510 Кбит/сек Каналы : 6 каналов Расположение каналов : Front: L C R, Side: L R, LFE Частота : 48,0 КГц Битовая глубина : 24 бит Метод сжатия : С потерями Размер потока : 1,39 Гбайт (15%) Заголовок : Есарев (ненормативный) Язык : Russian Default : Да Forced : НетАудио #2: Идентификатор : 3 Формат : DTS Формат/Информация : Digital Theater Systems Режим : 16 Параметр Endianness формата : Big Идентификатор кодека : A_DTS Продолжительность : 2 ч. 12 м. Вид битрейта : Постоянный Битрейт : 1510 Кбит/сек Каналы : 6 каналов Расположение каналов : Front: L C R, Side: L R, LFE Частота : 48,0 КГц Битовая глубина : 24 бит Метод сжатия : С потерями Размер потока : 1,39 Гбайт (15%) Заголовок : Есарев (цензурный) Язык : Russian Default : Нет Forced : НетАудио #3: Идентификатор : 4 Формат : DTS Формат/Информация : Digital Theater Systems Режим : 16 Параметр Endianness формата : Big Идентификатор кодека : A_DTS Продолжительность : 2 ч. 12 м. Вид битрейта : Постоянный Битрейт : 1509 Кбит/сек Каналы : 6 каналов Расположение каналов : Front: L C R, Side: L R, LFE Частота : 48,0 КГц Битовая глубина : 24 бит Метод сжатия : С потерями Размер потока : 1,39 Гбайт (15%) Язык : English Default : Нет Forced : Нет 9,34 Gb 5 4

Скачать фильм Великий уравнитель через торрент в хорошем качестве бесплатно HDRip

piratbit.ru

Раздают: 2 [ 0 KB/s ]
Размер: 1.46 GB | Добавлен: 2 года 10 мес. назад | Торрент скачан:10025 раз
Реклама Дарим 3000 рублей за регистрацию, не упусти свой шанс получить шикарный бонус!!!

19-12-2014 05:13 Великий уравнитель Скачать торрент  

Великий уравнитель / The Equalizer Год выпуска: 2014Страна: СШАЖанр: боевик, триллер, криминалПродолжительность: 02:12:02Перевод: Дубляж - [Лицензия]Режиссер: Антуан ФукуаВ ролях: Дензел Вашингтон (Robert McCall), Мартон Чокаш (Teddy), Хлоя Грейс Морец (Teri), Дэвид Харбор (Masters), Хейли Беннетт (Mandy), Билл Пуллман (Brian Plummer), Мелисса Лео (Susan Plummer), Дэвид Мюнье (Slavi), Джонни Скуртис (Ralphie), Алекс Видов (Tevi), Владимир Кулих (Vladimir Pushkin), Э. Роджер Митчелл (Lead Investigator)Описание: Роберт МакКолл - бывший спецназовец. После увольнения со службы он собирается начать нормальную мирную жизнь, дав себе обещание больше никогда не брать в руки оружия. Но в один прекрасный момент он встречает молодую девушку, зарабатывающую на жизнь проституцией, которую на его глазах избивают бандиты и увозят в неизвестном направлении. Тогда он решает отыскать ее, после чего вступает в неравную схватку с русской мафией и продажными агентами ЦРУ. Ради справедливости он готов нарушить собственное обещание и применить оружие против людей, которые просто не заслуживают жить в этом мире...Рейтинг: MPAA: R - Лицам до 17 лет обязательно присутствие взрослогоКачество: HDRipФормат: AVIВидео кодек: XviDАудио кодек:AC3Видео: XviD, 720x304 (2.35:1), 1124 kbps, 23,976 fps, 0,214 bppАудио: AC3 / 5.1 / 48 kHz / 448 kbps / 16 bit

Код:

GeneralComplete name                            : D:\Торенты\Velikii.Uravnitel.2014.D.HDRip.1400MB.aviFormat                                   : AVIFormat/Info                              : Audio Video InterleaveFile size                                : 1.46 GiBDuration                                 : 2h 12mnOverall bit rate                         : 1 582 KbpsWriting application                      : VirtualDubModRus 1.5.10.2 (build 2542/release)Writing library                          : VirtualDubMod build 2542/release

VideoID                                       : 0Format                                   : MPEG-4 VisualFormat profile                           : Advanced [email protected] settings, BVOP                    : 2Format settings, QPel                    : NoFormat settings, GMC                     : No warppointsFormat settings, Matrix                  : Default (MPEG)Codec ID                                 : XVIDCodec ID/Hint                            : XviDDuration                                 : 2h 12mnBit rate                                 : 1 125 KbpsWidth                                    : 720 pixelsHeight                                   : 304 pixelsDisplay aspect ratio                     : 2.35:1Frame rate                               : 23.976 fpsColor space                              : YUVChroma subsampling                       : 4:2:0Bit depth                                : 8 bitsScan type                                : ProgressiveCompression mode                         : LossyBits/(Pixel*Frame)                       : 0.214Stream size                              : 1.04 GiB (71%)Writing library                          : XviD 1.2.1 (UTC 2008-12-04)

AudioID                                       : 1Format                                   : AC-3Format/Info                              : Audio Coding 3Mode extension                           : CM (complete main)Codec ID                                 : 2000Duration                                 : 2h 12mnBit rate mode                            : ConstantBit rate                                 : 448 KbpsChannel(s)                               : 6 channelsChannel positions                        : Front: L C R, Side: L R, LFESampling rate                            : 48.0 KHzBit depth                                : 16 bitsCompression mode                         : LossyStream size                              : 423 MiB (28%)Alignment                                : Split accross interleavesInterleave, duration                     : 42 ms (1.00 video frame)Interleave, preload duration             : 500 ms

Скачать Великий уравнитель через торрент http://i63.fastpic.ru/big/2014/1219/de/5872bc68909ad7909250e016b390cede.jpeg Скачать фильм Великий уравнитель через торрент бесплантно в хорошем качестве Описание: Роберт МакКолл - бывший спецназовец. После увольнения со службы он собирается начать нормальную мирную жизнь, дав себе обещание ... 2014-12-19 05:13 9.7 10 207

Loading...

Loading...

Рекламный пират

19-12-2014 17:39 Великий уравнитель Скачать торрент  

ну прям надо было ваще фильм по другому назвать, ШАТАТЕЛЬ "он пошатнет этот мир". Как то так наверно больше бы подошло к описанию))

20-12-2014 16:23 Великий уравнитель Скачать торрент  

б...я чё за хрень почему опять русские,без нас ни как нельзя?всё одно и тоже.смотреть не буду.ворону спасибо!

.

21-12-2014 05:07 Великий уравнитель Скачать торрент  

И давно Обама в кино снимается?

21-12-2014 09:23 Великий уравнитель Скачать торрент  

Отличный фильм! Хороший экшн. Советую!!!

22-12-2014 21:44 Великий уравнитель Скачать торрент  

Очень хороший фильм со смыслом от америкосов, за последние пару лет... Качайте, смотрите, не пожалеете!

23-12-2014 15:36 Великий уравнитель Скачать торрент  

хахах русские якудза

25-12-2014 20:54 Великий уравнитель Скачать торрент  

хороший фильм

28-12-2014 05:26 Великий уравнитель Скачать торрент  

а что так мелко то "Русская мафия".... кого этим сейчас удивишь, тоже мне Вот если бы... - Великий Ушататель сеящий демократию вступает в неравную схватку с коварным агрессором Путиным и продажными агентами ЦРУ.Вот это я бы посмотрел, а так... только время терять...

Pекламный агент PB

29-12-2014 17:09 Великий уравнитель Скачать торрент  

Нормальное кинцо

29-12-2014 18:42 Великий уравнитель Скачать торрент  

Отличный, не ординарный фильм.Не слушайте этих гномов из диванных войск.Да боевик,но хрен отгадаете чем закончится.

Ну кто честный? Пиши в личку на чем остановится главный герой, останется жив или исчезнет или умрет.

После просмотра напиши насколько ошибся.

А я здесь напишу результат на сколько предсказуем фильм, напишу кто и как ответил. по всплывают.

31-12-2014 09:12 Великий уравнитель Скачать торрент  

31-12-2014 11:22 Великий уравнитель Скачать торрент  

Да поддерживаю, оболденный фильм

02-01-2015 21:38 Великий уравнитель Скачать торрент  

Очередной американский высер

03-01-2015 03:50 Великий уравнитель Скачать торрент  

Просто у Пендосов Древний комплекс не полноценности, боятся они нас и чувствуют что мы ЛУЧШИЕ, вот и пытаются самоутвердиться. ))) меня лично это веселит ))

05-01-2015 05:35 Великий уравнитель Скачать торрент  

Мне понравился фильм, он снят в традициях фильмов боевиков 80-90, в старых добрых традициях - один против всех, так и нужно оценивать и смотреть. Ну да, русская мафия, ну ляпы, да, но смысл фильма не в том, чтобы обосрать русских, тут какую хочешь мафию втыкай, и мы сотни раз видели как боролись такие вот герои против мексиканской, китайской, японской, итальянской, да всё равно какой - ляпы и косяки везде одни - как и смысл - один уравнитель против мира преступности :) Особо понравилась фраза - он не помощи просить пришел а за разрешением Раздающему спасибо!

06-01-2015 12:06 Великий уравнитель Скачать торрент  

Pекламный агент PB

07-01-2015 12:14 Великий уравнитель Скачать торрент  

Отличный фильм,автору спасибо!!!

08-01-2015 19:26 Великий уравнитель Скачать торрент  

хороший фильм рекомендую

09-01-2015 14:03 Великий уравнитель Скачать торрент  

как всегда хейт рашен

11-01-2015 17:16 Великий уравнитель Скачать торрент  

Ну как же напоминает старые, добрые боевики со Стивеном Сигалом. Герой одиночка и всё такое. Но понравился. Видать - неумирающий жанр .Как по мне вполне не плохо снято. Назвать главу русской мафии Пушкиным, явно свидетельствуе об отсутствии толкового консультанта.Благо переводчики фамилию изменили. Но в целом, хоть и затянуто, но смотрибельно. 7 из 10 баллов.

15-01-2015 08:52 Великий уравнитель Скачать торрент  

Смотрибельное кинцо

17-01-2015 07:01 Великий уравнитель Скачать торрент  

vad2014 писал(а):

Отличный фильм! Хороший экшн. Советую!!!

Согласен!!!

18-01-2015 00:50 Великий уравнитель Скачать торрент  

Отличный фильм с замечательным музыкальным сопровождениемСтавлю лайк !

26-01-2015 17:19 Великий уравнитель Скачать торрент  

хороший фильм :hunter: :hunter: :hunter:

Pекламный агент PB

Дорогой пользователь! Огромная просьба, поблагодарите релизера, оцените раздачу и оставьте свои комментарий, если Вы скачали Великий уравнитель через торрент бесплатно! Внесите свою лепту в развитие PiratBit!

Комментировать посты могут только пользователи прошедшие не сложную регистрацию

Великий уравнитель через торрент Скачать бесплатно Великий уравнитель Великий уравнитель скачать торрент Великий уравнитель смотреть онлайн Cкачать фильм Великий уравнитель бесплатно Великий уравнитель скачать торрент в хорошем качестве Великий уравнитель смотреть онлайн бесплатно в хорошем качестве

Вы не можете начинать темыВы не можете отвечать на сообщенияВы не можете редактировать свои сообщенияВы не можете удалять свои сообщенияВы не можете голосовать в опросахВы не можете прикреплять файлы к сообщениямВы можете скачивать файлы

/ The Equalizer (2014) BDRip 720p

: . , . , , . , . ,

: BDRip 720p : Blu-ray: MKV : MPEG-4 AVC : AC3: 1280x534 (2.40:1) at 23.976 fps, AVC at 2469 kbps avg, 0.151 bit/pixel Rus: 48.0 kHz, AC3, 6 ch, 384 kbps

* * * MediaInfo Mac 0.7.33.4 file analysis report.* * * MediaInfo Mac is 2010 by Diego Massanti - http://mediainfo.massanti.com* * * MediaInfoLib by Jerome Martinez - http://mediainfo.sourceforge.netCreated on: 16.12.2014 10:19:16 Report for file: The Equalizer.2014.720p.BluRay.x264-LEONARDO_[scarabey.org].mkv

General / Container Stream #1Total Video Streams for this File.................1Total Audio Streams for this File.................1Total Subtitle Streams for this File..............3Video Codecs Used.................................AVCAudio Codecs Used.................................AC3SubTitle Codecs Used..............................UTF-8 / UTF-8 / UTF-8Available Sutbitle Languages...................... / /File Format.......................................MatroskaPlay Time.........................................2h 12mnTotal File Size...................................2.69 GiBTotal Stream BitRate..............................2 911 KbpsTitle (Tag).......................................Release by Leonardo for Scarabey.orgEncoded with......................................mkvmerge v5.0.1 ('Es ist Sommer') built on Oct 23 2011 00:46:40Encoding Library..................................libebml v1.2.2 + libmatroska v1.3.0Video Stream #1Codec (Human Name)................................AVCCodec (FourCC)....................................V_MPEG4/ISO/AVCCodec [email protected]Frame Width.......................................1 280 pixelsFrame Height......................................534 pixelsFrame Rate........................................23.976 fpsTotal Frames......................................189960Display Aspect Ratio..............................2.40:1Scan Type.........................................ProgressiveColor Space.......................................YUVCodec Settings (Summary)..........................CABAC / 9 Ref FramesQF (like Gordian Knot)............................0.151Codec Settings (CABAC)............................YesCodec Settings (Reference Frames).................9Video Stream Length...............................2h 12mn 2s 923msVideo Stream BitRate..............................2 469 KbpsBit Depth.........................................8 bitsVideo Stream Size.................................2.28 GiB (85%)Video Encoder.....................................x264 - core 125 r2208 d9d2288Video Encoder (Settings)..........................cabac=1 / ref=9 / deblock=1:-3:-3 / analyse=0x3:0x133 / me=umh / subme=11 / psy=1 / psy_rd=1.00:0.00 / mixed_ref=1 / me_range=32 / chroma_me=1 / trellis=2 / 8x8dct=1 / cqm=0 / deadzone=21,11 / fast_pskip=0 / chroma_qp_offset=-2 / threads=12 / lookahead_threads=2 / sliced_threads=0 / nr=0 / decimate=1 / interlaced=0 / bluray_compat=0 / constrained_intra=0 / bframes=8 / b_pyramid=2 / b_adapt=2 / b_bias=0 / direct=1 / weightb=1 / open_gop=0 / weightp=2 / keyint=250 / keyint_min=23 / scenecut=40 / intra_refresh=0 / rc=crf / mbtree=0 / crf=18.0 / qcomp=0.60 / qpmin=0 / qpmax=69 / qpstep=4 / ip_ratio=1.10 / pb_ratio=1.10 / aq=1:1.00Audio Stream #1Codec.............................................AC-3Codec (FourCC)....................................A_AC3Audio Stream Length...............................2h 12mn 2s 915msAudio Stream BitRate..............................384 KbpsAudio Stream BitRate Mode.........................CBRNumber of Audio Channels..........................6Audio Channel's Positions.........................Front: L C R, Side: L R, LFESampling Rate.....................................48.0 KHzAudio Stream Size.................................363 MiB (13%)Audio Stream Language.............................RussianSubtitle Stream #1Format............................................UTF-8Codec ID..........................................S_TEXT/UTF8Codec Info........................................UTF-8 Plain TextSubtitle Stream #2Format............................................UTF-8Codec ID..........................................S_TEXT/UTF8Codec Info........................................UTF-8 Plain TextSubtitle Stream #3Format............................................UTF-8Codec ID..........................................S_TEXT/UTF8Codec Info........................................UTF-8 Plain TextMenu / Chapters Stream #1

filmtor.net

Скачать фильм Великий уравнитель через торрент в хорошем качестве бесплатно BDRip-AVC 60fps

PLATFORM------------------------------OS Code: Microsoft Windows NT 6.1.7601 Service Pack 1OS Name: Windows 7 Ultimate Service Pack 1 (x64)Framework: 2.0.50727.5485 (v4.0)AviSynth: AviSynth 2.60, build:Mar 9 2013 [13:28:27]CPU Info: AMD FX(tm)-8350 Eight-Core Processor (~3991), 8 core(s)RAM Total: 8149MbLanguage: RUS (1251, ",")SystemDrive: C:

XviD4PSP------------------------------Version: 5.10.330.0Created: 19.03.2013 07:34:12AppPath: C:\Program Files (x86)\XviD4PSP 5TempPath: B:\Temp

FILES------------------------------Заставка.mkv >The.Equalizer.2014.BDRemux.(1080p).ExKinoRay.mkv >Великий уравнитель BDrip-AVC 60fps.mkv

TASK------------------------------Format: MKVDuration: 00:52:59:146 (190558)VideoDecoder: DirectShowSource2Resolution: 1920x1080 > 1024x424Aspect: 2.4121 > 2.4151VCodecPreset: CustomVEncodingMode: TwoPassVideoCodec: h364 > x264VideoBitrate: 14000 > 3665Quality: 0.282 > 0.141Framerate: 23.976 > 59.940FramerateModifier: AssumeFPSSourceType: PROGRESSIVEFieldOrder: UNKNOWN

SCRIPT------------------------------Import("C:\Program Files (x86)\XviD4PSP 5\dlls\AviSynth\functions\AudioFunctions.avs")Import("C:\Program Files (x86)\XviD4PSP 5\dlls\AviSynth\functions\VideoFunctions.avs")LoadPlugin("C:\Program Files (x86)\XviD4PSP 5\dlls\AviSynth\plugins\avss.dll")

DirectShowSource2("A:\На готове\Геракл 2014 1080p 60fps.mkv", fps=23.976, preroll=15, lavs="L3", lavd="L0hm1")++DirectShowSource2("B:\The.Equalizer.2014.BDRemux.(1080p).ExKinoRay.mkv", fps=23.976, preroll=15, lavs="L3", lavd="L0hm1")

ConvertToYV12()Crop(0, 142, -0, -142)Lanczos4Resize(1024, 424)

###[FILTERING]#### This script was generated by SmoothVideo Project (SVP) Manager.# Check http://www.svp-team.com for more details.

SetMemoryMax(1024)

global svp_scheduler=trueglobal threads=15global svp_cache_fwd=threads+2

LoadPlugin("C:\Program Files (x86)\SVP\plugins\svpflow1.dll")LoadPlugin("C:\Program Files (x86)\SVP\plugins\svpflow2.dll")

SetMTMode(3,threads)SetMTMode(2)

global crop_params=""global resize_string=""global super_params="{scale:{up:0},gpu:1,rc:false}"global analyse_params="{block:{w:8,h:8},main:{search:{coarse:{distance:-14,bad:{sad:2000}}}},refine:[{thsad:250}]}"global smoothfps_params="{rate:{num:5,den:2},algo:23,mask:{area:50,cover:80},scene:{mode:0}}"

global demo_mode=0stereo_type=0stereo_left_selection=""stereo_right_selection=""

########## BEGIN OF MSMoothFps.avs ########### This file is a part of SmoothVideo Project (SVP) 3.1.4# This is NOT the full AVS script, all used variables are defined via # JavaScript code that generates the full script text.

function interpolate(clip src){input = crop_params=="" ? src : eval("src.crop("+crop_params+")")input = resize_string=="" ? input : eval("input."+resize_string)

super=SVSuper(input, super_params)vectors=SVAnalyse(super, analyse_params, src=input)smooth=SVSmoothFps(input, super, vectors, smoothfps_params, mt=threads, url="www.svp-team.com")

return demo_mode==0 ? smooth : demo(input,smooth)}

input=last

stereo_type==0 ? eval(""" interpolate(input)""") : stereo_type==1 || stereo_type==3 ? eval("""lf = interpolate(input.crop(0,0,input.width/2,0))"""+stereo_left_selection+"""rf = interpolate(input.crop(input.width/2,0,0,0))"""+stereo_right_selection+"""StackHorizontal(lf, rf)""") : stereo_type==2 || stereo_type==4 ? Eval("""lf = interpolate(input.crop(0,0,0,input.height/2))"""+stereo_left_selection+"""rf = interpolate(input.crop(0,input.height/2,0,0))"""+stereo_right_selection+"""StackVertical(lf, rf)""") : input

########### END OF MSMoothFps.avs ###########

###[FILTERING]###

AssumeFPS(59.940)

VIDEO ENCODING------------------------------Encoding video to: A:\Плавное\Великий уравнитель BDrip-AVC 60fps.mkvx264 3665kbps 1024x424 59.940fps (190558 frames)

...first pass...

x264.exe: --pass 1 --bitrate 3665 --preset medium --profile high --level 4.1 --ref 4 --deblock -1:-1 --merange 48 --no-chroma-me --bframes 5 --direct auto --b-adapt 2 --trellis 2 --no-fast-pskip --qcomp 0.80 --vbv-maxrate 20000 --vbv-bufsize 25000 --partitions all --subme 11 --me umh --no-mbtree --min-keyint 59 --sar 1:1 --stats "A:\Плавное\Великий уравнитель BDrip-AVC 60fps.log" --output NUL "B:\Temp\0239.avs"

avs [info]: 1024x424p 1:1 @ 2997/50 fps (cfr)x264 [info]: using SAR=1/1x264 [info]: using cpu capabilities: MMX2 SSE2Fast SSSE3 SSE4.2 AVX XOP FMA4 FMA3 LZCNT BMI1x264 [info]: profile Main, level 4.1

x264 [info]: frame I:3079 Avg QP:11.34 size: 52040x264 [info]: frame P:112479 Avg QP:12.53 size: 16524x264 [info]: frame B:360835 Avg QP:14.53 size: 4430x264 [info]: consecutive B-frames: 2.5% 2.9% 7.3% 11.3% 70.9% 5.0%x264 [info]: mb I I16..4: 38.5% 0.0% 61.5%x264 [info]: mb P I16..4: 27.2% 0.0% 0.0% P16..4: 62.6% 0.0% 0.0% 0.0% 0.0% skip:10.2%x264 [info]: mb B I16..4: 3.6% 0.0% 0.0% B16..8: 26.8% 0.0% 0.0% direct:21.9% skip:47.8% L0:33.5% L1:43.9% BI:22.7%x264 [info]: final ratefactor: 15.03x264 [info]: direct mvs spatial:99.9% temporal:0.1%x264 [info]: coded y,uvDC,uvAC intra: 61.4% 62.1% 50.9% inter: 19.4% 16.6% 1.8%x264 [info]: i16 v,h,dc,p: 47% 20% 25% 8%x264 [info]: i4 v,h,dc,ddl,ddr,vr,hd,vl,hu: 26% 20% 13% 6% 7% 7% 7% 6% 7%x264 [info]: i8c dc,h,v,p: 66% 14% 16% 4%x264 [info]: Weighted P-Frames: Y:3.0% UV:1.4%x264 [info]: kb/s:3640.93

x264 [total]: encoded 476393 frames, 26.22 fps, 3640.93 kb/s

...last pass...

x264.exe: --pass 2 --bitrate 3665 --preset medium --profile high --level 4.1 --ref 4 --deblock -1:-1 --merange 48 --no-chroma-me --bframes 5 --direct auto --b-adapt 2 --trellis 2 --no-fast-pskip --qcomp 0.80 --vbv-maxrate 20000 --vbv-bufsize 25000 --partitions all --subme 11 --me umh --no-mbtree --min-keyint 59 --sar 1:1 --stats "A:\Плавное\Великий уравнитель BDrip-AVC 60fps.log" --output "A:\Плавное\Великий уравнитель BDrip-AVC 60fps.mkv" "B:\Temp\0239.avs"

avs [info]: 1024x424p 1:1 @ 2997/50 fps (cfr)x264 [info]: using SAR=1/1x264 [info]: using cpu capabilities: MMX2 SSE2Fast SSSE3 SSE4.2 AVX XOP FMA4 FMA3 LZCNT BMI1x264 [info]: profile High, level 4.1

x264 [info]: frame I:3079 Avg QP:10.54 size: 67697x264 [info]: frame P:112479 Avg QP:12.62 size: 17054x264 [info]: frame B:360835 Avg QP:15.85 size: 4197x264 [info]: consecutive B-frames: 2.5% 2.9% 7.3% 11.3% 70.9% 5.0%x264 [info]: mb I I16..4: 6.4% 74.5% 19.1%x264 [info]: mb P I16..4: 0.8% 6.5% 1.1% P16..4: 27.3% 35.0% 14.7% 4.7% 0.4% skip: 9.3%x264 [info]: mb B I16..4: 0.1% 0.5% 0.1% B16..8: 32.8% 16.3% 2.2% direct: 4.5% skip:43.4% L0:39.1% L1:49.6% BI:11.3%x264 [info]: 8x8 transform intra:75.3% inter:45.3%x264 [info]: direct mvs spatial:94.9% temporal:5.1%x264 [info]: coded y,uvDC,uvAC intra: 82.1% 79.4% 66.9% inter: 16.4% 15.0% 5.4%x264 [info]: i16 v,h,dc,p: 50% 12% 6% 32%x264 [info]: i8 v,h,dc,ddl,ddr,vr,hd,vl,hu: 15% 10% 15% 8% 9% 10% 10% 10% 12%x264 [info]: i4 v,h,dc,ddl,ddr,vr,hd,vl,hu: 15% 8% 19% 8% 11% 11% 10% 9% 11%x264 [info]: i8c dc,h,v,p: 43% 27% 17% 13%x264 [info]: Weighted P-Frames: Y:3.2% UV:1.4%x264 [info]: ref P L0: 60.9% 6.4% 22.0% 9.5% 1.1% 0.0%x264 [info]: ref B L0: 89.8% 8.3% 1.8%x264 [info]: ref B L1: 92.5% 7.5%x264 [info]: kb/s:3665.08

x264 [total]: encoded 476393 frames, 18.93 fps, 3665.08 kb/s

TIME------------------------------Общее время кодирования: 12 hour 2 min 52 secФайл получился на: 3475.81 mb

piratbit.ru


Смотрите также