Вам письмо скачать торрент в хорошем качестве


:
1 (1998) BDRip |

: AVI: BDRip: : 624x352 (1.77:1), 23.976 fps, XviD build 50 ~733 kbps avg, 0.14 bit/pixel: 48 kHz, MPEG Layer 3, 2 ch, ~128.00 kbps avg

743.34Mb 396 339
2 (1998) BDRip |

: AVI: BDRip: : 1790 Kbps, 23,976 fps, 720*400 (16:9), 0.259 bit/pixel, DX50 = DivXNetworks Divx v5: 1: 384 Kbps, 48000 Hz, 6 , AC-3 ACM Codec - 2: 192 Kbps, 48000 Hz, 6 , AC-3 ACM Codec -

1.98Gb 396 339
3 (1998) BDRip |

: AVI: BDRip: : 1900 /, 720x400: 1: , 48 kHz, AC3, 6 ch, 384 kbps avg, [] 2: , 48 kHz, AC3, 6 ch, 384 kbps avg, [, ] 3: , 48 kHz, AC3, 2 ch, 192 kbps avg, [, ()]

3.53Gb 396 339
4 (1998) BDRip |

: : BDRip: : MPEG-4 AVC, 5000 /, 1280x720: 1: , 48 kHz, AC3, 6 ch, 384 kbps avg, [] 2: , 48 kHz, AC3, 6 ch, 448 kbps avg, [, ] 3: , 48 kHz, AC3, 6 ch, 384 kbps avg, [, ] 4:

7.99Gb 396 339
5 (1998) BDRip |

: MKV: BDRip: : 1920x1080, 23.976 fps, 12.0 Mbps: 1: DTS 6 channels, 48.0 KHz, 755 Kbps 2: AC3 6 channels, 48.0 KHz, 384 Kbps 3: AC3 6 channels, 48.0 KHz, 384 Kbps

11.51Gb 396 339
6 (1998) BDRip |

: MKV: BDRip: : MPEG-4 AVC, 12.4 M/, 1920x1080: 1: , 48 kHz, AC3, 6 ch, 384 kbps avg, [] 2: , 48 kHz, DTS, 6 ch, 1509 kbps avg, [, ] 3: , 48 kHz, AC3, 6 ch, 384 kbps avg, [, ] 4:

14.47Gb 396 339
7 (1998) BDRip |

: MKV: BDRip: : 22066 kbps, 19201080p, 23.976 fps, 16:9, High Profile 4.1: 1: AC3 6 channels,48.0 KHz,384 Kbps 2: DTS-HD Master 5.1, 48 kHz, 3565 kbps, 24-bit (DTS Core: 5.1, 48 kHz, 768 kbps, 24-bit) 3: DTS-HD Master 5.1, 48 kHz, 3550 kbps, 24-bit (DTS Core: 5.1, 48 kHz, 768 kbps, 24-bit)

24.38Gb 396 339
8 (1998) BDRip |

: MKV: BDRip: : MPEG-4 AVC, 22066 /, 1920x1080, 23.976 /: #1: (AC3, 6 ch, 384 /) - #2: (AC3, 2 ch, 192 /) - (.) #3: (AC3, 2 ch, 384 /) - (.) #4: (DTS-

28.34Gb 396 339
9 (1998) BDRip | : BDMV: BDRip: : 1920x1080p, 23,976 fps, 16:9, High Profile 4.1, H.264, ~ 22066 kbps: 1: DTS-HD Master 5.1, 48 kHz, 3550 kbps, 24-bit (DTS Core: 5.1, 48 kHz, 768 kbps, 24-bit) 2: DTS-HD Master 5.1, 48 kHz, 3817 kbps, 24-bit (DTS Core: 5.1, 48 kHz, 1509 kbps, 24-bit) 3: Dolby Digital 5.0, 48 kHz, 640 kbps 35.37Gb 396 339

filmitorrents.org

Скачать фильм Вам письмо (1998) через торрент

5 апреля 2016 12:01 Вам письмо / Youve Got Mail (1998) BDRip-AVC от 0ptimus | D, A .torrent   [Информация о файле (нажмите для просмотра)] Перевод: Дублированный, авторский (одноголосый закадровый)Кодек: h.264Качество: BDRip-AVCВидео: 3044 Кбит/с, 1024x576, 23.976 кадр/сЗвук: • №1: Русский (АС3, 6 ch, 384 Кбит/с) Дублированный [Варус-Видео] • №2: Русский (АС3, 6 ch, 384 Кбит/с) Авторский [Андрей Гаврилов] • №3: Английский (АС3, 6 ch, 384 Кбит/с) Отдельно: • №4: Русский (АС3, 6 ch, 384 Кбит/с) Авторский [Юрий Живов] • №5: Русский (АС3, 6 ch, 384 Кбит/с) Авторский [Василий Горчаков] • №6: Русский (АС3, 2 ch, 192 Кбит/с) Авторский [Александр Кашкин (Первомайский)]Субтитры: Русские, английскиеВидео: Идентификатор : 1 Формат : AVC Формат/Информация : Advanced Video Codec Профиль формата : [email protected] Параметр CABAC формата : Да Параметр ReFrames формата : 9 кадров Идентификатор кодека : V_MPEG4/ISO/AVC Продолжительность : 1 ч. 59 м. Битрейт : 3044 Кбит/сек Ширина : 1024 пикселя Высота : 576 пикселей Соотношение сторон : 16:9 Частота кадров : 23,976 кадра/сек Цветовое пространство : YUV Субдискретизация насыщенности : 4:2:0 Битовая глубина : 8 бит Тип развёртки : Прогрессивная Бит/(Пиксели*Кадры) : 0.215 Размер потока : 2,47 Гбайт (71%) Заголовок : Rip by 0ptimus Библиотека кодирования : x264 core 130 r2273 b3065e6 Настройки программы : cabac=1 / ref=9 / deblock=1:-3:-3 / analyse=0x3:0x113 / me=umh / subme=10 / psy=1 / psy_rd=1.00:0.20 / mixed_ref=1 / me_range=32 / chroma_me=1 / trellis=2 / 8x8dct=1 / cqm=0 / deadzone=21,11 / fast_pskip=0 / chroma_qp_offset=-3 / threads=3 / lookahead_threads=1 / sliced_threads=0 / nr=0 / decimate=0 / interlaced=0 / bluray_compat=0 / constrained_intra=0 / bframes=7 / b_pyramid=2 / b_adapt=2 / b_bias=0 / direct=3 / weightb=1 / open_gop=0 / weightp=2 / keyint=240 / keyint_min=23 / scenecut=40 / intra_refresh=0 / rc_lookahead=40 / rc=2pass / mbtree=0 / bitrate=3044 / ratetol=1.0 / qcomp=0.60 / qpmin=0 / qpmax=69 / qpstep=4 / cplxblur=20.0 / qblur=0.5 / vbv_maxrate=50000 / vbv_bufsize=50000 / nal_hrd=none / ip_ratio=1.40 / pb_ratio=1.30 / aq=1:1.00 Язык : EnglishАудио #1: Идентификатор : 2 Формат : AC-3 Формат/Информация : Audio Coding 3 Расширение режима : CM (complete main) Идентификатор кодека : A_AC3 Продолжительность : 1 ч. 59 м. Вид битрейта : Постоянный Битрейт : 384 Кбит/сек Каналы : 6 каналов Расположение каналов : Front: L C R, Side: L R, LFE Частота : 48,0 КГц Битовая глубина : 16 бит Метод сжатия : С потерями Размер потока : 328 Мбайт (9%) Заголовок : Дублированный [Варус-Видео] AC3 5.1 384 kbps Язык : RussianАудио #2: Идентификатор : 3 Формат : AC-3 Формат/Информация : Audio Coding 3 Расширение режима : CM (complete main) Идентификатор кодека : A_AC3 Продолжительность : 1 ч. 59 м. Вид битрейта : Постоянный Битрейт : 384 Кбит/сек Каналы : 6 каналов Расположение каналов : Front: L C R, Side: L R, LFE Частота : 48,0 КГц Битовая глубина : 16 бит Метод сжатия : С потерями Размер потока : 328 Мбайт (9%) Заголовок : Авторский [Андрей Гаврилов] AC3 5.1 384 kbps Язык : RussianАудио #3: Идентификатор : 4 Формат : AC-3 Формат/Информация : Audio Coding 3 Расширение режима : CM (complete main) Идентификатор кодека : A_AC3 Продолжительность : 1 ч. 59 м. Вид битрейта : Постоянный Битрейт : 384 Кбит/сек Каналы : 6 каналов Расположение каналов : Front: L C R, Side: L R, LFE Частота : 48,0 КГц Битовая глубина : 16 бит Метод сжатия : С потерями Размер потока : 328 Мбайт (9%) Заголовок : AC3 5.1 384 kbps Язык : English 4,3 Gb 9 3 5 апреля 2016 12:01 Вам письмо / Youve Got Mail (1998) BDRip 1080p by msltel | D, A .torrent   [Информация о файле (нажмите для просмотра)] Качество: BDRip 1080pВидео: MPEG-4 AVC, 12.4 Mбит/с, 1920x1080Аудио 1: русский, 48 kHz, AC3, 6 ch, 384 kbps avg, [Дублированный]Аудио 2: русский, 48 kHz, DTS, 6 ch, 1509 kbps avg, [Авторский, Андрей Гаврилов]Аудио 3: русский, 48 kHz, AC3, 6 ch, 384 kbps avg, [Авторский, Василий Горчаков]Аудио 4: русский, 48 kHz, DTS, 6 ch, 768 kbps avg, [Авторский, Юрий Живов]Аудио 5: русский, 48 kHz, AC3, 2 ch, 192 kbps avg, [Авторский, Александр Кашкин (Первомайский)]Аудио: русский, 48 kHz, AC3, 6 ch, 448 kbps avg, [Авторский, Андрей Гаврилов]Аудио: русский, 48 kHz, AC3, 6 ch, 448 kbps avg, [Авторский, Юрий Живов]Аудио: английский, 48 kHz, DTS, 6 ch, 768 kbps avg, [Оригинал]Субтитры: русскиеСубтитры: английскиеАудио: Формат : AC-3 Формат/Информация : Audio Coding 3 Расширение режима : CM (complete main) Параметр Endianness формата : Big Продолжительность : 1 ч. 59 м. Вид битрейта : Постоянный Битрейт : 448 Кбит/сек Каналы : 6 каналов Расположение каналов : Front: L C R, Side: L R, LFE Частота : 48,0 КГц Битовая глубина : 16 бит Метод сжатия : С потерями Размер потока : 383 Мбайт (100%)Аудио: Формат : AC-3 Формат/Информация : Audio Coding 3 Расширение режима : CM (complete main) Параметр Endianness формата : Big Продолжительность : 1 ч. 59 м. Вид битрейта : Постоянный Битрейт : 448 Кбит/сек Каналы : 6 каналов Расположение каналов : Front: L C R, Side: L R, LFE Частота : 48,0 КГц Битовая глубина : 16 бит Метод сжатия : С потерями Размер потока : 383 Мбайт (100%)Аудио: Формат : DTS Формат/Информация : Digital Theater Systems Режим : 16 Параметр Endianness формата : Big Продолжительность : 1 ч. 59 м. Вид битрейта : Постоянный Битрейт : 768 Кбит/сек Каналы : 6 каналов Расположение каналов : Front: L C R, Side: L R, LFE Частота : 48,0 КГц Битовая глубина : 24 бит Метод сжатия : С потерями Размер потока : 656 Мбайт (100%)Видео: Идентификатор : 1 Формат : AVC Формат/Информация : Advanced Video Codec Профиль формата : [email protected] Параметр CABAC формата : Да Параметр ReFrames формата : 4 кадра Идентификатор кодека : V_MPEG4/ISO/AVC Продолжительность : 1 ч. 59 м. Битрейт : 12,4 Мбит/сек Ширина : 1920 пикселей Высота : 1080 пикселей Соотношение сторон : 16:9 Режим частоты кадров : Постоянный Частота кадров : 23,976 кадра/сек Цветовое пространство : YUV Субдискретизация насыщенности : 4:2:0 Битовая глубина : 8 бит Тип развёртки : Прогрессивная Бит/(Пиксели*Кадры) : 0.250 Размер потока : 10,1 Гбайт (77%) Библиотека кодирования : x264 core 138 r2358 9e941d1 Настройки программы : cabac=1 / ref=4 / deblock=1:-2:-2 / analyse=0x3:0x113 / me=umh / subme=10 / psy=1 / psy_rd=1.00:0.15 / mixed_ref=1 / me_range=24 / chroma_me=1 / trellis=2 / 8x8dct=1 / cqm=0 / deadzone=21,11 / fast_pskip=0 / chroma_qp_offset=-3 / threads=6 / lookahead_threads=1 / sliced_threads=0 / nr=0 / decimate=0 / interlaced=0 / bluray_compat=0 / constrained_intra=0 / bframes=8 / b_pyramid=2 / b_adapt=2 / b_bias=0 / direct=3 / weightb=1 / open_gop=0 / weightp=2 / keyint=230 / keyint_min=23 / scenecut=40 / intra_refresh=0 / rc_lookahead=40 / rc=2pass / mbtree=0 / bitrate=12449 / ratetol=1.0 / qcomp=0.60 / qpmin=0 / qpmax=69 / qpstep=4 / cplxblur=20.0 / qblur=0.5 / vbv_maxrate=50000 / vbv_bufsize=62500 / nal_hrd=none / ip_ratio=1.40 / pb_ratio=1.30 / aq=1:1.00 Язык : English Default : Да Forced : НетАудио #1: Идентификатор : 2 Формат : AC-3 Формат/Информация : Audio Coding 3 Расширение режима : CM (complete main) Параметр Endianness формата : Big Идентификатор кодека : A_AC3 Продолжительность : 1 ч. 59 м. Вид битрейта : Постоянный Битрейт : 384 Кбит/сек Каналы : 6 каналов Расположение каналов : Front: L C R, Side: L R, LFE Частота : 48,0 КГц Битовая глубина : 16 бит Метод сжатия : С потерями Размер потока : 328 Мбайт (2%) Заголовок : DUB Язык : Russian Default : Да Forced : НетАудио #2: Идентификатор : 3 Формат : DTS Формат/Информация : Digital Theater Systems Режим : 16 Параметр Endianness формата : Big Идентификатор кодека : A_DTS Продолжительность : 1 ч. 59 м. Вид битрейта : Постоянный Битрейт : 1509 Кбит/сек Каналы : 6 каналов Расположение каналов : Front: L C R, Side: L R, LFE Частота : 48,0 КГц Битовая глубина : 24 бит Метод сжатия : С потерями Размер потока : 1,26 Гбайт (10%) Заголовок : AVO (Андрей Гаврилов) Язык : Russian Default : Нет Forced : НетАудио #3: Идентификатор : 4 Формат : AC-3 Формат/Информация : Audio Coding 3 Расширение режима : CM (complete main) Параметр Endianness формата : Big Идентификатор кодека : A_AC3 Продолжительность : 1 ч. 59 м. Вид битрейта : Постоянный Битрейт : 384 Кбит/сек Каналы : 6 каналов Расположение каналов : Front: L C R, Side: L R, LFE Частота : 48,0 КГц Битовая глубина : 16 бит Метод сжатия : С потерями Размер потока : 328 Мбайт (2%) Заголовок : AVO (Василий Горчаков) Язык : Russian Default : Нет Forced : НетАудио #4: Идентификатор : 5 Формат : DTS Формат/Информация : Digital Theater Systems Режим : 16 Параметр Endianness формата : Big Идентификатор кодека : A_DTS Продолжительность : 1 ч. 59 м. Вид битрейта : Постоянный Битрейт : 768 Кбит/сек Каналы : 6 каналов Расположение каналов : Front: L C R, Side: L R, LFE Частота : 48,0 КГц Битовая глубина : 24 бит Метод сжатия : С потерями Размер потока : 656 Мбайт (5%) Заголовок : AVO (Юрий Живов) Язык : Russian Default : Нет Forced : НетАудио #5: Идентификатор : 6 Формат : AC-3 Формат/Информация : Audio Coding 3 Расширение режима : CM (complete main) Параметр Endianness формата : Big Идентификатор кодека : A_AC3 Продолжительность : 1 ч. 59 м. Вид битрейта : Постоянный Битрейт : 192 Кбит/сек Каналы : 2 канала Расположение каналов : Front: L R Частота : 48,0 КГц Битовая глубина : 16 бит Метод сжатия : С потерями Размер потока : 164 Мбайт (1%) Заголовок : AVO (Александр Кашкин (Первомайский)) Язык : Russian Default : Нет Forced : Нет 14,47 Gb 5 5 5 апреля 2016 12:01 Вам письмо / Youve Got Mail (1998) BDRip by msltel | D, A .torrent   [Информация о файле (нажмите для просмотра)] Качество: BDRipВидео: XviD, 1900 Кбит/с, 720x400Аудио 1: русский, 48 kHz, AC3, 6 ch, 384 kbps avg, [Дублированный]Аудио 2: русский, 48 kHz, AC3, 6 ch, 384 kbps avg, [Авторский, Василий Горчаков]Аудио 3: русский, 48 kHz, AC3, 2 ch, 192 kbps avg, [Авторский, Александр Кашкин (Первомайский)]Аудио: русский, 48 kHz, AC3, 6 ch, 448 kbps avg, [Авторский, Андрей Гаврилов]Аудио: русский, 48 kHz, AC3, 6 ch, 448 kbps avg, [Авторский, Юрий Живов]Аудио: английский, 48 kHz, AC3, 6 ch, 448 kbps avg, [Оригинал]Субтитры: русскиеСубтитры: английскиеАудио: Формат : AC-3 Формат/Информация : Audio Coding 3 Расширение режима : CM (complete main) Параметр Endianness формата : Big Продолжительность : 1 ч. 59 м. Вид битрейта : Постоянный Битрейт : 448 Кбит/сек Каналы : 6 каналов Расположение каналов : Front: L C R, Side: L R, LFE Частота : 48,0 КГц Битовая глубина : 16 бит Метод сжатия : С потерями Размер потока : 383 Мбайт (100%)Аудио: Формат : AC-3 Формат/Информация : Audio Coding 3 Расширение режима : CM (complete main) Параметр Endianness формата : Big Продолжительность : 1 ч. 59 м. Вид битрейта : Постоянный Битрейт : 448 Кбит/сек Каналы : 6 каналов Расположение каналов : Front: L C R, Side: L R, LFE Частота : 48,0 КГц Битовая глубина : 16 бит Метод сжатия : С потерями Размер потока : 383 Мбайт (100%)Аудио: Формат : AC-3 Формат/Информация : Audio Coding 3 Расширение режима : CM (complete main) Параметр Endianness формата : Big Продолжительность : 1 ч. 59 м. Вид битрейта : Постоянный Битрейт : 448 Кбит/сек Каналы : 6 каналов Расположение каналов : Front: L C R, Side: L R, LFE Частота : 48,0 КГц Битовая глубина : 16 бит Метод сжатия : С потерями Размер потока : 383 Мбайт (100%)Видео: Идентификатор : 0 Формат : MPEG-4 Visual Профиль формата : Advanced [email protected]5 Параметр BVOP формата : 1 Параметр QPel формата : Нет Параметр GMC формата : Без точки перехода Параметр матрицы формата : Default (H.263) Режим смешивания : Сжатый битовый поток Идентификатор кодека : XVID Идентификатор кодека/Подсказка : XviD Продолжительность : 1 ч. 59 м. Битрейт : 1900 Кбит/сек Ширина : 720 пикселей Высота : 400 пикселей Соотношение сторон : 16:9 Частота кадров : 23,976 кадра/сек Цветовое пространство : YUV Субдискретизация насыщенности : 4:2:0 Битовая глубина : 8 бит Тип развёртки : Прогрессивная Метод сжатия : С потерями Бит/(Пиксели*Кадры) : 0.275 Размер потока : 1,58 Гбайт (66%) Библиотека кодирования : XviD 1.2.1 (UTC 2008-12-04)Аудио #1: Идентификатор : 1 Формат : AC-3 Формат/Информация : Audio Coding 3 Расширение режима : CM (complete main) Параметр Endianness формата : Big Идентификатор кодека : 2000 Продолжительность : 1 ч. 59 м. Вид битрейта : Постоянный Битрейт : 384 Кбит/сек Каналы : 6 каналов Расположение каналов : Front: L C R, Side: L R, LFE Частота : 48,0 КГц Битовая глубина : 16 бит Метод сжатия : С потерями Размер потока : 328 Мбайт (13%) Выравнивание : Разделение по промежуткам Продолжительность промежутка : 42 мс. (1,00 видеокадр) Время предзагрузки промежутка : 500 мс.Аудио #2: Идентификатор : 2 Формат : AC-3 Формат/Информация : Audio Coding 3 Расширение режима : CM (complete main) Параметр Endianness формата : Big Идентификатор кодека : 2000 Продолжительность : 1 ч. 59 м. Вид битрейта : Постоянный Битрейт : 384 Кбит/сек Каналы : 6 каналов Расположение каналов : Front: L C R, Side: L R, LFE Частота : 48,0 КГц Битовая глубина : 16 бит Метод сжатия : С потерями Размер потока : 328 Мбайт (13%) Выравнивание : Разделение по промежуткам Продолжительность промежутка : 42 мс. (1,00 видеокадр) Время предзагрузки промежутка : 500 мс.Аудио #3: Идентификатор : 3 Формат : AC-3 Формат/Информация : Audio Coding 3 Расширение режима : CM (complete main) Параметр Endianness формата : Big Идентификатор кодека : 2000 Продолжительность : 1 ч. 59 м. Вид битрейта : Постоянный Битрейт : 192 Кбит/сек Каналы : 2 канала Расположение каналов : Front: L R Частота : 48,0 КГц Битовая глубина : 16 бит Метод сжатия : С потерями Размер потока : 164 Мбайт (7%) Выравнивание : Разделение по промежуткам Продолжительность промежутка : 42 мс. (1,00 видеокадр) Время предзагрузки промежутка : 500 мс.Скриншоты 3,53 Gb 6 3 5 апреля 2016 12:01 Вам письмо / Youve Got Mail (1998) BDRip 720p by msltel | D, A .torrent   [Информация о файле (нажмите для просмотра)] Качество: BDRip 720pВидео: MPEG-4 AVC, 5000 Кбит/с, 1280x720Аудио 1: русский, 48 kHz, AC3, 6 ch, 384 kbps avg, [Дублированный]Аудио 2: русский, 48 kHz, AC3, 6 ch, 448 kbps avg, [Авторский, Андрей Гаврилов]Аудио 3: русский, 48 kHz, AC3, 6 ch, 384 kbps avg, [Авторский, Василий Горчаков]Аудио 4: русский, 48 kHz, AC3, 6 ch, 448 kbps avg, [Авторский, Юрий Живов]Аудио 5: русский, 48 kHz, AC3, 2 ch, 192 kbps avg, [Авторский, Александр Кашкин (Первомайский)]Аудио: русский, 48 kHz, DTS, 6 ch, 1509 kbps avg, [Авторский, Андрей Гаврилов]Аудио: русский, 48 kHz, DTS, 6 ch, 768 kbps avg, [Авторский, Юрий Живов]Аудио: английский, 48 kHz, AC3, 6 ch, 448 kbps avg, [Оригинал]Субтитры: русскиеСубтитры: английскиеАудио: Формат : DTS Формат/Информация : Digital Theater Systems Режим : 16 Параметр Endianness формата : Big Продолжительность : 1 ч. 59 м. Вид битрейта : Постоянный Битрейт : 1509 Кбит/сек Каналы : 6 каналов Расположение каналов : Front: L C R, Side: L R, LFE Частота : 48,0 КГц Битовая глубина : 24 бит Метод сжатия : С потерями Размер потока : 1,26 Гбайт (100%)Аудио: Формат : DTS Формат/Информация : Digital Theater Systems Режим : 16 Параметр Endianness формата : Big Продолжительность : 1 ч. 59 м. Вид битрейта : Постоянный Битрейт : 768 Кбит/сек Каналы : 6 каналов Расположение каналов : Front: L C R, Side: L R, LFE Частота : 48,0 КГц Битовая глубина : 24 бит Метод сжатия : С потерями Размер потока : 656 Мбайт (100%)Аудио: Формат : AC-3 Формат/Информация : Audio Coding 3 Расширение режима : CM (complete main) Параметр Endianness формата : Big Продолжительность : 1 ч. 59 м. Вид битрейта : Постоянный Битрейт : 448 Кбит/сек Каналы : 6 каналов Расположение каналов : Front: L C R, Side: L R, LFE Частота : 48,0 КГц Битовая глубина : 16 бит Метод сжатия : С потерями Размер потока : 383 Мбайт (100%)Видео: Идентификатор : 1 Формат : AVC Формат/Информация : Advanced Video Codec Профиль формата : [email protected] Параметр CABAC формата : Да Параметр ReFrames формата : 9 кадров Идентификатор кодека : V_MPEG4/ISO/AVC Продолжительность : 1 ч. 59 м. Битрейт : 5000 Кбит/сек Ширина : 1280 пикселей Высота : 720 пикселей Соотношение сторон : 16:9 Режим частоты кадров : Постоянный Частота кадров : 23,976 кадра/сек Цветовое пространство : YUV Субдискретизация насыщенности : 4:2:0 Битовая глубина : 8 бит Тип развёртки : Прогрессивная Бит/(Пиксели*Кадры) : 0.226 Размер потока : 4,06 Гбайт (71%) Библиотека кодирования : x264 core 138 r2358 9e941d1 Настройки программы : cabac=1 / ref=9 / deblock=1:-1:-1 / analyse=0x3:0x113 / me=umh / subme=10 / psy=1 / psy_rd=1.00:0.15 / mixed_ref=1 / me_range=24 / chroma_me=1 / trellis=2 / 8x8dct=1 / cqm=0 / deadzone=21,11 / fast_pskip=0 / chroma_qp_offset=-3 / threads=6 / lookahead_threads=1 / sliced_threads=0 / nr=0 / decimate=0 / interlaced=0 / bluray_compat=0 / constrained_intra=0 / bframes=8 / b_pyramid=2 / b_adapt=2 / b_bias=0 / direct=3 / weightb=1 / open_gop=0 / weightp=2 / keyint=230 / keyint_min=23 / scenecut=40 / intra_refresh=0 / rc_lookahead=40 / rc=2pass / mbtree=0 / bitrate=5000 / ratetol=1.0 / qcomp=0.60 / qpmin=0 / qpmax=69 / qpstep=4 / cplxblur=20.0 / qblur=0.5 / vbv_maxrate=50000 / vbv_bufsize=62500 / nal_hrd=none / ip_ratio=1.40 / pb_ratio=1.30 / aq=1:1.00 Язык : English Default : Да Forced : НетАудио #1: Идентификатор : 2 Формат : AC-3 Формат/Информация : Audio Coding 3 Расширение режима : CM (complete main) Параметр Endianness формата : Big Идентификатор кодека : A_AC3 Продолжительность : 1 ч. 59 м. Вид битрейта : Постоянный Битрейт : 384 Кбит/сек Каналы : 6 каналов Расположение каналов : Front: L C R, Side: L R, LFE Частота : 48,0 КГц Битовая глубина : 16 бит Метод сжатия : С потерями Размер потока : 328 Мбайт (6%) Заголовок : DUB Язык : Russian Default : Да Forced : НетАудио #2: Идентификатор : 3 Формат : AC-3 Формат/Информация : Audio Coding 3 Расширение режима : CM (complete main) Параметр Endianness формата : Big Идентификатор кодека : A_AC3 Продолжительность : 1 ч. 59 м. Вид битрейта : Постоянный Битрейт : 448 Кбит/сек Каналы : 6 каналов Расположение каналов : Front: L C R, Side: L R, LFE Частота : 48,0 КГц Битовая глубина : 16 бит Метод сжатия : С потерями Размер потока : 383 Мбайт (7%) Заголовок : AVO (Андрей Гаврилов) Язык : Russian Default : Нет Forced : НетАудио #3: Идентификатор : 4 Формат : AC-3 Формат/Информация : Audio Coding 3 Расширение режима : CM (complete main) Параметр Endianness формата : Big Идентификатор кодека : A_AC3 Продолжительность : 1 ч. 59 м. Вид битрейта : Постоянный Битрейт : 384 Кбит/сек Каналы : 6 каналов Расположение каналов : Front: L C R, Side: L R, LFE Частота : 48,0 КГц Битовая глубина : 16 бит Метод сжатия : С потерями Размер потока : 328 Мбайт (6%) Заголовок : AVO (Василий Горчаков) Язык : Russian Default : Нет Forced : НетАудио #4: Идентификатор : 5 Формат : AC-3 Формат/Информация : Audio Coding 3 Расширение режима : CM (complete main) Параметр Endianness формата : Big Идентификатор кодека : A_AC3 Продолжительность : 1 ч. 59 м. Вид битрейта : Постоянный Битрейт : 448 Кбит/сек Каналы : 6 каналов Расположение каналов : Front: L C R, Side: L R, LFE Частота : 48,0 КГц Битовая глубина : 16 бит Метод сжатия : С потерями Размер потока : 383 Мбайт (7%) Заголовок : AVO (Юрий Живов) Язык : Russian Default : Нет Forced : НетАудио #5: Идентификатор : 6 Формат : AC-3 Формат/Информация : Audio Coding 3 Расширение режима : CM (complete main) Параметр Endianness формата : Big Идентификатор кодека : A_AC3 Продолжительность : 1 ч. 59 м. Вид битрейта : Постоянный Битрейт : 192 Кбит/сек Каналы : 2 канала Расположение каналов : Front: L R Частота : 48,0 КГц Битовая глубина : 16 бит Метод сжатия : С потерями Размер потока : 164 Мбайт (3%) Заголовок : AVO (Александр Кашин (Первомайский)) Язык : Russian Default : Нет Forced : Нет 7,99 Gb 6 4 5 апреля 2016 12:01 Вам письмо / Youve Got Mail (1998) Blu-Ray .torrent   [Информация о файле (нажмите для просмотра)] Качество: Blu-RayСубтитры: английские, хорватские, датские, голландские, финские, французские, немецкие, иврит, итальянские, норвежские, польские, португальские - 2 вида, румынские, русские, испанские, шведскиеФормат: BDMVВидео: MPEG-4 AVC, 1920x1080p, 23,976 fps, 16:9, High Profile 4.1, H.264, ~ 22066 kbpsАудио 1: DTS-HD Master 5.1, 48 kHz, 3550 kbps, 24-bit (DTS Core: 5.1, 48 kHz, 768 kbps, 24-bit)Аудио 2: DTS-HD Master 5.1, 48 kHz, 3817 kbps, 24-bit (DTS Core: 5.1, 48 kHz, 1509 kbps, 24-bit)Аудио 3: Dolby Digital 5.0, 48 kHz, 640 kbpsАудио 4: Dolby Digital 5.1, 48 kHz, 640 kbpsАудио 5: Dolby Digital 5.1, 48 kHz, 640 kbpsАудио 6: Dolby Digital 5.1, 48 kHz, 640 kbpsАудио 7: Dolby Digital 5.1, 48 kHz, 640 kbpsАудио 8: Dolby Digital 5.1, 48 kHz, 384 kbpsАудио 9: Dolby Digital 2.0, 48 kHz, 192 kbps 35,37 Gb 3 4 5 апреля 2016 12:01 Вам письмо / Youve Got Mail (1998) BDRip от HQCLUB .torrent   [Информация о файле (нажмите для просмотра)] Перевод: Профессиональный (полное дублирование) + Оригинальная дорожкаСубтитры: Русские, английские (внешние, srt*)Формат: AVIКачество: BDRip (источник:Видео: 720x400 (1.80:1), 23.976 fps, XviD build 62 ~1838 kbps avg, 0.27 bit/pixelЗвук #1: 48 kHz, AC3, 3/2 (L,C,R,l,r) + LFE ch, ~384.00 kbps avg (RUS, DUB)Звук #2: 48 kHz, AC3, 3/2 (L,C,R,l,r) + LFE ch, ~384.00 kbps avg (ENG)Звук #3: 48 kHz, AC3, 3/2 (L,C,R,l,r) + LFE ch, ~384.00 kbps avg (RUS, AVO) А.Гаврилов(отдельно)Звук #4: 48 kHz, AC3, 3/2 (L,C,R,l,r) + LFE ch, ~384.00 kbps avg (RUS, AVO) В.Горчаков(отдельно)Звук #5: 48 kHz, AC3, 2/0 (L,R) ch, ~192.00 kbps avg (RUS, AVO) А.Кашкин(отдельно)Звук #6: 48 kHz, AC3, 3/2 (L,C,R,l,r) + LFE ch, ~384.00 kbps avg (RUS, AVO) Ю.Живов(отдельно)Звук #7: 48 kHz, AC3, 3/2 (L,C,R,l,r) + LFE ch, ~384.00 kbps avg (UKR, MVO) Новый канал(отдельно)Звук #8: 48 kHz, AC3, 3/2 (L,C,R,l,r) + LFE ch, ~384.00 kbps avg (UKR, DVO) 1+1(отдельно) 2,18 Gb 45 6 5 апреля 2016 12:01 Вам письмо / Youve Got Mail (1998) BDRip 720p от FREEISLAND .torrent   [Информация о файле (нажмите для просмотра)] Перевод: Профессиональный (полное дублирование)Качество: BDRipФормат: MKVВидео: English, 3499 Кбит/сек, 1280*720 (16:9), в 23,976 кадр/сек, AVC ([email protected])Аудио#: Russian, 384 Кбит/сек, 48,0 КГц, 16 бит, 6 канала(ов), AC-3|дубляжАудио#: Russian, 384 Кбит/сек, 48,0 КГц, 16 бит, 6 канала(ов), AC-3 | СербинАудио#: English, 384 Кбит/сек, 48,0 КГц, 16 бит, 6 канала(ов), AC-3| оригиналВидео: Идентификатор : 1 Формат : AVC Формат/Информация : Advanced Video Codec Профиль формата : [email protected] Параметр CABAC формата : Да Параметр ReFrames формата : 14 кадры Идентификатор кодека : V_MPEG4/ISO/AVC Продолжительность : 1 ч. 59 м. Битрейт : 3499 Кбит/сек Ширина : 1280 пикс. Высота : 720 пикс. Соотношение сторон : 16:9 Частота кадров : 23,976 кадр/сек Цветовое пространство : YUV Подвыборка цветности : 4:2:0 Битовая глубина : 8 бит Тип развёртки : Прогрессивная Бит/(Пиксели*Кадры) : 0.158 Размер потока : 2,84 Гбайт (73%) Библиотека кодирования : x264 core 114 r1913 5fd3dce Настройки программы : cabac=1 / ref=14 / deblock=1:-3:-3 / analyse=0x3:0x133 / me=umh / subme=7 / psy=1 / psy_rd=1.00:0.15 / mixed_ref=1 / me_range=32 / chroma_me=1 / trellis=2 / 8x8dct=1 / cqm=0 / deadzone=21,11 / fast_pskip=0 / chroma_qp_offset=-3 / threads=6 / sliced_threads=0 / nr=0 / decimate=1 / interlaced=0 / constrained_intra=0 / bframes=5 / b_pyramid=2 / b_adapt=1 / b_bias=0 / direct=1 / weightb=0 / open_gop=0 / weightp=2 / keyint=250 / keyint_min=23 / scenecut=40 / intra_refresh=0 / rc_lookahead=40 / rc=2pass / mbtree=1 / bitrate=3499 / ratetol=1.0 / qcomp=0.80 / qpmin=10 / qpmax=51 / qpstep=4 / cplxblur=20.0 / qblur=0.5 / ip_ratio=1.40 / aq=1:1.00 Язык : EnglishАудио #1: Идентификатор : 2 Формат : AC-3 Формат/Информация : Audio Coding 3 Расширение режима : CM (complete main) Идентификатор кодека : A_AC3 Продолжительность : 1 ч. 59 м. Вид битрейта : Постоянный Битрейт : 384 Кбит/сек Канал(ы) : 6 канала(ов) Расположение каналов : Front: L C R, Side: L R, LFE Частота : 48,0 КГц Битовая глубина : 16 бит Метод сжатия : С потерями Размер потока : 328 Мбайт (8%) Язык : RussianАудио #2: Идентификатор : 3 Формат : AC-3 Формат/Информация : Audio Coding 3 Расширение режима : CM (complete main) Идентификатор кодека : A_AC3 Продолжительность : 1 ч. 59 м. Вид битрейта : Постоянный Битрейт : 384 Кбит/сек Канал(ы) : 6 канала(ов) Расположение каналов : Front: L C R, Side: L R, LFE Частота : 48,0 КГц Битовая глубина : 16 бит Метод сжатия : С потерями Размер потока : 328 Мбайт (8%) Язык : RussianАудио #3: Идентификатор : 4 Формат : AC-3 Формат/Информация : Audio Coding 3 Расширение режима : CM (complete main) Идентификатор кодека : A_AC3 Продолжительность : 1 ч. 59 м. Вид битрейта : Постоянный Битрейт : 384 Кбит/сек Канал(ы) : 6 канала(ов) Расположение каналов : Front: L C R, Side: L R, LFE Частота : 48,0 КГц Битовая глубина : 16 бит Метод сжатия : С потерями Размер потока : 328 Мбайт (8%) Язык : English 3,88 Gb 7 3 5 апреля 2016 12:01 Вам письмо / Youve Got Mail (1998) HDRip-AVC от FireBit .torrent   [Информация о файле (нажмите для просмотра)] Перевод: Профессиональный (полное дублирование) Лицензия!Качество: HDRip-AVCВидео: .mkv (H.264), 928 x 522 (1.778) at 23.976 fps, 2184 Кбит/секЗвук: Русский, AC-3 at 384 Кбит/сек, 6 канала(ов), 48,0 КГц | Лицензия!Субтитры: Русские, английские 2,18 Gb 17 2 5 апреля 2016 12:01 Вам письмо / Youve Got Mail (1998) DVDRip .torrent   [Информация о файле (нажмите для просмотра)] Перевод: Английский + Одноголосый(Живов) + дубляжСубтитры: нетКодек: XviDФормат: AVIКачество: DVDRipВидео: 720 x 400; 25 fps; 914 kbps;Аудио: Audio # 1: MPEG Audio Layer 3 48000Hz stereo 192Kbps [English], Audio # 2: MPEG Audio Layer 3 48000Hz stereo 192Kbps [Живов], Audio # 3: Dolby AC3 48000Hz 6ch 384Kbps [дубляж] 1,35 Gb 15 2

gig-torrent.net

Вам письмо 1998 - скачать бесплатно через торрент в хорошем качестве. Без регистрации

Название: Вам письмо / You've Got Mail (1998) BDRip 1080p by msltel | D, A
Качество видео: BDRip 1080p
Видео: MPEG-4 AVC, 12.4 Mбит/с, 1920x1080
Аудио: русский, 48 kHz, AC3, 6 ch, 448 kbps avg, [Авторский, Юрий Живов]английский, 48 kHz, DTS, 6 ch, 768 kbps avg, [Оригинал]
Скачать

Загрузка начнется в течение 5 сек.

14.47 GB

Название: Вам письмо / You've Got Mail (1998) BDRip by msltel | D, A
Качество видео: BDRip
Видео: XviD, 1900 Кбит/с, 720x400
Аудио: русский, 48 kHz, AC3, 6 ch, 448 kbps avg, [Авторский, Юрий Живов]английский, 48 kHz, AC3, 6 ch, 448 kbps avg, [Оригинал]
Скачать

Загрузка начнется в течение 5 сек.

3.53 GB

Название: Вам письмо / You've Got Mail (1998) BDRip 720p by msltel | D, A
Качество видео: BDRip 720p
Видео: MPEG-4 AVC, 5000 Кбит/с, 1280x720
Аудио: русский, 48 kHz, DTS, 6 ch, 768 kbps avg, [Авторский, Юрий Живов]английский, 48 kHz, AC3, 6 ch, 448 kbps avg, [Оригинал]
Скачать

Загрузка начнется в течение 5 сек.

7.99 GB

Название: Вам письмо / You've Got Mail (1998) BDRemux 1080p от ExKinoRay | D, A
Качество видео: Blu-Ray Remux (1080p)
Перевод: Дублированный, авторский
Видео: MPEG-4 AVC, 22066 Кбит/с, 1920x1080, 23.976 кадр/с
Аудио: Русский (AC3, 2 ch, 192 Кбит/с), (AC3, 6 ch, 384 Кбит/с), (DTS-HD МА, 6 ch, 3585 Кбит/с), (DTS-HD МА, 6 ch, 3817 Кбит/с), английский (DTS-HD МА, 6 ch, 3550 Кбит/с)
Скачать

Загрузка начнется в течение 5 сек.

28.34 GB

Название: Вам письмо / You've Got Mail (1998) BDRip-AVC от 0ptimus | D, A
Качество видео: BDRip-AVC
Перевод: Дублированный, авторский (одноголосый закадровый)
Видео: h.264 3044 Кбит/с, 1024x576, 23.976 кадр/с
Аудио: • №1: Русский (АС3, 6 ch, 384 Кбит/с) Дублированный [Варус-Видео]
Скачать

Загрузка начнется в течение 5 сек.

3.82 GB

www.kinovit.net

Скачать фильм Вам письмо через торрент в хорошем качестве бесплатно BDRip

Размер: 2.17 GB | Добавлен: 4 года 7 мес. назад | Торрент скачан:54 раза
Реклама Дарим 3000 рублей за регистрацию, не упусти свой шанс получить шикарный бонус!!!

25-03-2013 14:32 Вам письмо Скачать торрент  

Вам письмо / You've Got Mail«At odds in life... in love on-line.»Год выпуска: 1998Страна: СШАЖанр: мелодрама, комедия,Продолжительность: 01:59:23Перевод: Дубляж, ЛицензияТип релиза: Лицензия

Режиссер: Нора ЭфронПродюссер: Дж. Мак Браун, Дайян Дрейер, Джули ДеркСценарий: Нора Эфрон, Делия Эфрон, Миклош ЛаслоПроизводство: Warner Bros. Pictures

Бюджет: $65 000 000Сборы в мире: $250 821 495Премьера в мире: 18 декабря 1998

Рейтинг MPAA: рекомендуется присутствие родителей

В ролях: Том Хэнкс, Мег Райан, Грег Киннер, Паркер Поузи, Джин Степлтон, Стив Зан, Хезер Бёрнс, Дэйв Шаппелл, Дэбни Коулмен, Джон Рэндольф,

Описание: Джо Фокс и Кэтлин Келли переписываются через Интернет. У Джо есть девушка, у Кэтлин — парень, но излить душу они могут лишь друг другу. Кэтлин принадлежит маленький книжный магазинчик детской литературы под названием «Магазин за углом», перешедший ей от матери. Для нее, трех ее сотрудников и покупателей это не просто место работы — это оазис тепла, человечности и культуры.Джо владеет сетью огромных книжных супермаркетов «Фокс и сыновья». Он открывает такой комплекс рядом с магазином Кэтлин и заходит к ней якобы купить несколько книжек для детей. Так состоялось их «живое» знакомство. Чуть позже Кэтлин узнает, что Джо и есть владелец супермаркета, грозящего ей неизбежным разорением — цены там намного ниже. Естественно, она сразу же возненавидела бездушного конкурента. А в Интернете их роман продолжался...

Золотой глобус, 1999 год Номинации (1):Лучшая женская роль (комедия или мюзикл) (Мег Райан)

Качество: BDRip Формат: AVIВидео кодек: XviDАудио кодек: AC3Видео: 720x400, 23.976 fps, XviD build 50 ~2214 kb/sАудио#1: 48 kHz, AC3 Dolby Digital, 3/2 (L,C,R,l,r) + LFE ch, ~384 kbp/s

GeneralComplete name : Vam_pismo_HDRip.aviFormat : AVIFormat/Info : Audio Video InterleaveFormat profile : OpenDMLFile size : 2.17 GiBDuration : 1h 59mnOverall bit rate : 2 605 KbpsWriting application : VirtualDubMod 1.5.10.2 (build 2540/release)Writing library : VirtualDubMod build 2540/releaseVideo #0ID : 0Format : MPEG-4 VisualFormat profile : Advanced [email protected] settings, BVOP : 1Format settings, QPel : NoFormat settings, GMC : No warppointsFormat settings, Matrix : CustomCodec ID : XVIDCodec ID/Hint : XviDDuration : 1h 59mnBit rate : 2 210 KbpsWidth : 720 pixelsHeight : 400 pixelsDisplay aspect ratio : 16:9Frame rate : 23.976 fpsColor space : YUVChroma subsampling : 4:2:0Bit depth : 8 bitsScan type : ProgressiveCompression mode : LossyBits/(Pixel*Frame) : 0.320Stream size : 1.84 GiB (85%)Writing library : XviD 1.2.1 (UTC 2008-12-04)Audio #1ID : 1Format : AC-3Format/Info : Audio Coding 3Mode extension : CM (complete main)Format settings, Endianness : BigCodec ID : 2000Duration : 1h 59mnBit rate mode : ConstantBit rate : 384 KbpsChannel(s) : 6 channelsChannel positions : Front: L C R, Side: L R, LFESampling rate : 48.0 KHzBit depth : 16 bitsCompression mode : LossyStream size : 328 MiB (15%)Alignment : Split accross interleavesInterleave, duration : 42 ms (1.00 video frame)Interleave, preload duration : 500 ms

Вам письмо скачать торрент

Скачать Вам письмо через торрент http://i.imgur.com/FWuf0h2.jpg Скачать фильм Вам письмо через торрент бесплантно в хорошем качестве Описание: Джо Фокс и Кэтлин Келли переписываются через Интернет. У Джо есть девушка, у Кэтлин — парень, но излить душу они могут лишь друг ... 2013-03-25 14:32 9.4 10 9

Loading...

Loading...

Рекламный пират

25-03-2013 15:32 Вам письмо Скачать торрент  

Отличный фильм :ad:

31-01-2016 15:57 Вам письмо Скачать торрент  

Встаньте на раздачу плз!

Дорогой пользователь! Огромная просьба, поблагодарите релизера, оцените раздачу и оставьте свои комментарий, если Вы скачали Вам письмо через торрент бесплатно! Внесите свою лепту в развитие PiratBit!

Комментировать посты могут только пользователи прошедшие не сложную регистрацию

Вам письмо через торрент Скачать бесплатно Вам письмо Вам письмо скачать торрент Вам письмо смотреть онлайн Cкачать фильм Вам письмо бесплатно Вам письмо скачать торрент в хорошем качестве Вам письмо смотреть онлайн бесплатно в хорошем качестве

Вы не можете начинать темыВы не можете отвечать на сообщенияВы не можете редактировать свои сообщенияВы не можете удалять свои сообщенияВы не можете голосовать в опросахВы не можете прикреплять файлы к сообщениямВы можете скачивать файлы

piratbit.ru


Смотрите также