В сердце моря скачать в хорошем качестве торрент


В сердце моря через торрент

Общее Уникальный идентификатор : 196396664102235973167465431398324771523 (0x93C09F239E02C5FA87C71D5A9FD21AC3) Полное имя : V.Serdtce.Morya.2015.DUAL.BDRip.x264.HELLYWOOD.mkv Формат : Matroska Версия формата : Version 4 / Version 2 Размер файла : 2,85 Гбайт Продолжительность : 2 ч. 1 м. Общий поток : 3358 Кбит/сек Название фильма : In the heart of the sea (2015) - HELLYWOOD Дата кодирования : UTC 2016-03-03 02:31:50 Программа кодирования : mkvmerge v5.9.0 ('On The Loose') built on Dec 15 2012 16:39:58 Библиотека кодирования : libebml v1.3.0 + libmatroska v1.4.0

Видео Идентификатор : 1 Формат : AVC Формат/Информация : Advanced Video Codec Профиль формата : [email protected] Параметр CABAC формата : Да Параметр ReFrames формата : 12 кадров Идентификатор кодека : V_MPEG4/ISO/AVC Продолжительность : 2 ч. 1 м. Битрейт : 2527 Кбит/сек Ширина : 1024 пикселя Высота : 576 пикселей Соотношение сторон : 16:9 Режим частоты кадров : Постоянный Частота кадров : 23,976 кадра/сек Цветовое пространство : YUV Субдискретизация насыщенности : 4:2:0 Битовая глубина : 8 бит Тип развёртки : Прогрессивная Бит/(Пиксели*Кадры) : 0.179 Размер потока : 2,09 Гбайт (73%) Заголовок : potroks Библиотека кодирования : x264 core 148 r2665M a01e339 Настройки программы : cabac=1 / ref=12 / deblock=1:-2:-2 / analyse=0x3:0x133 / me=umh / subme=11 / psy=1 / psy_rd=1.00:0.10 / mixed_ref=1 / me_range=48 / chroma_me=1 / trellis=2 / 8x8dct=1 / cqm=0 / deadzone=21,11 / fast_pskip=0 / chroma_qp_offset=-3 / threads=9 / lookahead_threads=2 / sliced_threads=0 / nr=0 / decimate=1 / interlaced=0 / bluray_compat=0 / constrained_intra=0 / bframes=13 / b_pyramid=2 / b_adapt=2 / b_bias=0 / direct=3 / weightb=1 / open_gop=0 / weightp=2 / keyint=240 / keyint_min=23 / scenecut=40 / intra_refresh=0 / rc=2pass / mbtree=0 / bitrate=2527 / ratetol=1.0 / qcomp=0.70 / qpmin=0 / qpmax=69 / qpstep=4 / cplxblur=20.0 / qblur=0.5 / ip_ratio=1.35 / pb_ratio=1.25 / aq=1:0.80 Язык : English Default : Да Forced : Нет Цветовой диапазон : Limited Основные цвета : BT.709 Характеристики трансфера : BT.709 Коэффициенты матрицы : BT.709

Аудио #1 Идентификатор : 2 Формат : AC-3 Формат/Информация : Audio Coding 3 Расширение режима : CM (complete main) Параметр Endianness формата : Big Идентификатор кодека : A_AC3 Продолжительность : 2 ч. 1 м. Вид битрейта : Постоянный Битрейт : 384 Кбит/сек Каналы : 6 каналов Расположение каналов : Front: L C R, Side: L R, LFE Частота : 48,0 КГц Метод сжатия : С потерями Задержка видео : 757 мс. Размер потока : 334 Мбайт (11%) Заголовок : Dub | DD 5.1 @ 384 kbps - iTunes Язык : Russian Default : Да Forced : Нет

Аудио #2 Идентификатор : 3 Формат : AC-3 Формат/Информация : Audio Coding 3 Расширение режима : CM (complete main) Параметр Endianness формата : Big Идентификатор кодека : A_AC3 Продолжительность : 2 ч. 1 м. Вид битрейта : Постоянный Битрейт : 448 Кбит/сек Каналы : 6 каналов Расположение каналов : Front: L C R, Side: L R, LFE Частота : 48,0 КГц Метод сжатия : С потерями Размер потока : 390 Мбайт (13%) Заголовок : Original | DD 5.1 @ 448 kbps Язык : English Default : Нет Forced : Нет

Текст #1 Идентификатор : 4 Формат : UTF-8 Идентификатор кодека : S_TEXT/UTF8 Идентификатор кодека/Информация : UTF-8 Plain Text Заголовок : Forced Язык : Russian Default : Да Forced : Нет

Текст #2 Идентификатор : 5 Формат : UTF-8 Идентификатор кодека : S_TEXT/UTF8 Идентификатор кодека/Информация : UTF-8 Plain Text Язык : Russian Default : Нет Forced : Нет

Текст #3 Идентификатор : 6 Формат : UTF-8 Идентификатор кодека : S_TEXT/UTF8 Идентификатор кодека/Информация : UTF-8 Plain Text Заголовок : Full Язык : English Default : Нет Forced : Нет

Текст #4 Идентификатор : 7 Формат : UTF-8 Идентификатор кодека : S_TEXT/UTF8 Идентификатор кодека/Информация : UTF-8 Plain Text Заголовок : SDH Язык : English Default : Нет Forced : Нет

Текст #5 Идентификатор : 8 Формат : UTF-8 Идентификатор кодека : S_TEXT/UTF8 Идентификатор кодека/Информация : UTF-8 Plain Text Заголовок : SDH-Colored Язык : English Default : Нет Forced : Нет

Меню 00:00:00.000 : en:(01)00:00:00:000 00:12:07.518 : en:(02)00:12:07:518 00:21:19.736 : en:(03)00:21:19:736 00:33:31.968 : en:(04)00:33:31:968 00:42:37.012 : en:(05)00:42:37:012 00:51:32.714 : en:(06)00:51:32:714 01:06:45.835 : en:(07)01:06:45:835 01:13:14.014 : en:(08)01:13:14:014 01:23:23.289 : en:(09)01:23:23:289 01:33:47.872 : en:(10)01:33:47:872 01:43:22.029 : en:(11)01:43:22:029 01:53:00.774 : en:(12)01:53:00:774

piratbit.ru

В сердце моря через торрент

Format                                   : MatroskaFormat version                           : Version 2File size                                : 7.13 GiBDuration                                 : 2h 1mnOverall bit rate                         : 8 387 KbpsMovie name                               : In.the.Heart.of.the.Sea.(2015).BDRip.720p.[denis100]Encoded date                             : UTC 2016-03-31 14:40:55Writing application                      : mkvmerge v5.8.0 ('No Sleep / Pillow') built on Sep  2 2012 15:37:04Writing library                          : libebml v1.2.3 + libmatroska v1.3.0

VideoID                                       : 1Format                                   : AVCFormat/Info                              : Advanced Video CodecFormat profile                           : [email protected] settings, CABAC                   : YesFormat settings, ReFrames                : 9 framesCodec ID                                 : V_MPEG4/ISO/AVCDuration                                 : 2h 1mnBit rate                                 : 6 027 KbpsWidth                                    : 1 280 pixelsHeight                                   : 720 pixelsDisplay aspect ratio                     : 16:9Frame rate                               : 23.976 fpsColor space                              : YUVChroma subsampling                       : 4:2:0Bit depth                                : 8 bitsScan type                                : ProgressiveBits/(Pixel*Frame)                       : 0.273Stream size                              : 4.98 GiB (70%)Title                                    : In.the.Heart.of.the.Sea.(2015).BDRip.720p.[denis100]Writing library                          : x264 core 148 r2665 a01e339Encoding settings                        : cabac=1 / ref=9 / deblock=1:-3:-3 / analyse=0x3:0x133 / me=umh / subme=11 / psy=1 / psy_rd=1.00:0.00 / mixed_ref=1 / me_range=32 / chroma_me=1 / trellis=2 / 8x8dct=1 / cqm=0 / deadzone=21,11 / fast_pskip=0 / chroma_qp_offset=-2 / threads=6 / lookahead_threads=1 / sliced_threads=0 / nr=0 / decimate=1 / interlaced=0 / bluray_compat=0 / constrained_intra=0 / bframes=10 / b_pyramid=2 / b_adapt=2 / b_bias=0 / direct=3 / weightb=1 / open_gop=0 / weightp=2 / keyint=240 / keyint_min=23 / scenecut=40 / intra_refresh=0 / rc=2pass / mbtree=0 / bitrate=6027 / ratetol=1.0 / qcomp=0.60 / qpmin=0 / qpmax=69 / qpstep=4 / cplxblur=20.0 / qblur=0.5 / ip_ratio=1.40 / pb_ratio=1.30 / aq=1:1.00Language                                 : EnglishDefault                                  : YesForced                                   : No

Audio #1ID                                       : 2Format                                   : AC-3Format/Info                              : Audio Coding 3Mode extension                           : CM (complete main)Codec ID                                 : A_AC3Duration                                 : 2h 1mnBit rate mode                            : ConstantBit rate                                 : 448 KbpsChannel(s)                               : 6 channelsChannel positions                        : Front: L C R, Side: L R, LFESampling rate                            : 48.0 KHzBit depth                                : 16 bitsCompression mode                         : LossyStream size                              : 390 MiB (5%)Title                                    : DUB, Blu-ray CEELanguage                                 : RussianDefault                                  : YesForced                                   : No

Audio #2ID                                       : 3Format                                   : AC-3Format/Info                              : Audio Coding 3Mode extension                           : CM (complete main)Codec ID                                 : A_AC3Duration                                 : 2h 1mnBit rate mode                            : ConstantBit rate                                 : 640 KbpsChannel(s)                               : 6 channelsChannel positions                        : Front: L C R, Side: L R, LFESampling rate                            : 48.0 KHzBit depth                                : 16 bitsCompression mode                         : LossyStream size                              : 557 MiB (8%)Title                                    : AVO, ЖивовLanguage                                 : RussianDefault                                  : NoForced                                   : No

Audio #3ID                                       : 4Format                                   : AC-3Format/Info                              : Audio Coding 3Mode extension                           : CM (complete main)Codec ID                                 : A_AC3Duration                                 : 2h 1mnBit rate mode                            : ConstantBit rate                                 : 640 KbpsChannel(s)                               : 6 channelsChannel positions                        : Front: L C R, Side: L R, LFESampling rate                            : 48.0 KHzBit depth                                : 16 bitsCompression mode                         : LossyStream size                              : 557 MiB (8%)Title                                    : AVO, ЕсаревLanguage                                 : RussianDefault                                  : NoForced                                   : No

Audio #4ID                                       : 5Format                                   : AC-3Format/Info                              : Audio Coding 3Mode extension                           : CM (complete main)Codec ID                                 : A_AC3Duration                                 : 2h 1mnBit rate mode                            : ConstantBit rate                                 : 640 KbpsChannel(s)                               : 6 channelsChannel positions                        : Front: L C R, Side: L R, LFESampling rate                            : 48.0 KHzBit depth                                : 16 bitsCompression mode                         : LossyStream size                              : 557 MiB (8%)Language                                 : EnglishDefault                                  : NoForced                                   : No

Text #1ID                                       : 6Format                                   : UTF-8Codec ID                                 : S_TEXT/UTF8Codec ID/Info                            : UTF-8 Plain TextTitle                                    : ForcedLanguage                                 : RussianDefault                                  : YesForced                                   : No

Text #2ID                                       : 7Format                                   : UTF-8Codec ID                                 : S_TEXT/UTF8Codec ID/Info                            : UTF-8 Plain TextLanguage                                 : RussianDefault                                  : NoForced                                   : No

Text #3ID                                       : 8Format                                   : UTF-8Codec ID                                 : S_TEXT/UTF8Codec ID/Info                            : UTF-8 Plain TextLanguage                                 : EnglishDefault                                  : NoForced                                   : No

Menu00:00:00.000                             : en:Chapter 0100:12:07.518                             : en:Chapter 0200:21:19.736                             : en:Chapter 0300:33:31.968                             : en:Chapter 0400:42:37.012                             : en:Chapter 0500:51:32.714                             : en:Chapter 0601:06:45.835                             : en:Chapter 0701:13:14.014                             : en:Chapter 0801:23:23.289                             : en:Chapter 0901:33:47.872                             : en:Chapter 1001:43:22.029                             : en:Chapter 1101:53:00.774                             : en:Chapter 1202:01:42.920                             : en:Chapter 13

piratbit.ru

В сердце моря через торрент

Размер: 1.46 GB | Добавлен: 1 год 8 мес. назад | Торрент скачан:2032 раза
Реклама Дарим 3000 рублей за регистрацию, не упусти свой шанс получить шикарный бонус!!!

24-02-2016 08:11 В сердце моря Скачать торрент  

В сердце моря / In the Heart of the Sea Год выхода: 2015Жанр: боевик, триллер, драма, приключения, биография, историяВыпущено: США / Cott Productions, Enelmar Productions, Imagine EntertainmentПродолжительность: 02:01:43Озвучивание: Дублированное [Line] *Релиз без рекламы*

Режиссер: Рон Ховард

В ролях: Крис Хемсворт, Бенджамин Уокер, Киллиан Мёрфи, Брендан Глисон, Бен Уишоу, Мишель Фэйрли, Том Холланд, Пол Андерсон, Фрэнк Диллэйн, Джозеф Моул

Описание: В 1819 году американский корабль «Эссекс» с командой из двух десятков человек на борту отправился из порта в штате Массачусетс на китобойный промысел. Осенью 1820-го успешная на протяжении полутора лет охота была прервана атакой гигантского кашалота на судно, в результате чего морякам пришлось пересесть в шлюпки. В течение трех с лишним месяцев они боролись за выживание посреди океана…

ФайлКачество: HDRip [Рип с BDRip 720p]Формат: AVI Видео: 720x400 (1.80:1), 23.976 fps, XviD build 73 ~1514 kbps avg, 0.22 bit/pixelАудио: 48 kHz, AC3 Dolby Digital, 2/0 (L,R) ch, ~192.00 kbps avg

Скачать В сердце моря через торрент http://i75.fastpic.ru/big/2016/0224/8d/b15a5fa453332ee52879886ed41ac48d.jpg Скачать фильм В сердце моря через торрент бесплантно в хорошем качестве Описание: В 1819 году американский корабль «Эссекс» с командой из двух десятков человек на борту отправился из порта в штате Массачусетс ... 2016-02-24 08:11 9.6 10 49

Loading...

Loading...

% Раздел Тема Автор DL S | L
Фильмы 2015 [DVDrip, WEB-DLRip, HDrip] [ 1.45 GB ] В сердце моря / In the Heart of the Sea [2015 BDRip-AVC] DUB potroks Скачать
Фильмы [HD 720p, 1080p] (Хороший звук DUB, MVO) [ 11.54 GB ] В сердце моря / In the Heart of the Sea [2015 биография история BDRip 1080p от еnvy / NNNB] DUB еnvy Скачать
Фильмы 2015 [DVDrip, WEB-DLRip, HDrip] [ 745 MB ] В сердце моря / In the Heart of the Sea [2015 Австралия Испания биография история HDRip by _Один_777] Dub () Один 777 Скачать
3D Фильмы [ 25.32 GB ] В сердце моря в 3Д / In the Heart of the Sea 3D [2015 биография BDrip 1080p] DUB OverUnder / Вертикальная стереопара serega768 Скачать
Фильмы [HD 720p, 1080p] (Хороший звук DUB, MVO) [ 6.96 GB ] В сердце моря / In the Heart of the Sea [2015 BDRip 720p] DUB potroks Скачать
Фильмы 2015 [DVDrip, WEB-DLRip, HDrip] [ 2.91 GB ] В сердце моря / In the Heart of the Sea [2015 BDRip-AVC] DUB potroks Скачать
Фильмы 2015 [DVDrip, WEB-DLRip, HDrip] [ 1.46 GB ] В сердце моря / In the Heart of the Sea [2015 биография история BDRip] DUB Twi7ter Скачать

Рекламный пират

24-02-2016 08:14 В сердце моря Скачать торрент  

Цитата:

*Релиз без рекламы*

24-02-2016 10:43 В сердце моря Скачать торрент  

Хороший фильм !!

24-02-2016 13:21 В сердце моря Скачать торрент  

Спасибо , ждал данный фильм этот с норм озвучкой и качеством.Спасибо, что выложили и раздаете +

24-02-2016 13:51 В сердце моря Скачать торрент  

спасибо,надеюсь понравится.

24-02-2016 14:21 В сердце моря Скачать торрент  

За счёт вырезания рекламы какие то диалоги остаются не переведёнными ((( жалко очень жалко ((( здесь тоже так ?

24-02-2016 14:31 В сердце моря Скачать торрент  

Russian Mafia писал(а):

За счёт вырезания рекламы какие то диалоги остаются не переведёнными ((( жалко очень жалко ((( здесь тоже так ?

Ничего не скажу,фильм полностью еще не смотрел

24-02-2016 15:02 В сердце моря Скачать торрент  

Спасибо по смотрим .

25-02-2016 05:55 В сердце моря Скачать торрент  

Отличный фильм. Просто отдохнул с удовольствием вечер. Рекомендую к ОБЯЗАТЕЛЬНОМУ просмотру)

Pекламный агент PB

25-02-2016 08:40 В сердце моря Скачать торрент  

Спасибо, довольно не плохой фильмец!

26-02-2016 18:59 В сердце моря Скачать торрент  

Вот еслиб сняли фильм также про Эребус(пропавшей экспедиции Франклина) - я бы был в полном экстазе..

29-02-2016 15:46 В сердце моря Скачать торрент  

фильм супер,обычно под последние фильмы хорошо дремается,но этот посмотрел от начала до конца с удовольствием,побольше бы таких фильмов!!

Дорогой пользователь! Огромная просьба, поблагодарите релизера, оцените раздачу и оставьте свои комментарий, если Вы скачали В сердце моря через торрент бесплатно! Внесите свою лепту в развитие PiratBit!

Комментировать посты могут только пользователи прошедшие не сложную регистрацию

В сердце моря через торрент Скачать бесплатно В сердце моря В сердце моря скачать торрент В сердце моря смотреть онлайн Cкачать фильм В сердце моря бесплатно В сердце моря скачать торрент в хорошем качестве В сердце моря смотреть онлайн бесплатно в хорошем качестве

Вы можете начинать темыВы можете отвечать на сообщенияВы не можете редактировать свои сообщенияВы не можете удалять свои сообщенияВы не можете голосовать в опросахВы не можете прикреплять файлы к сообщениямВы можете скачивать файлы

piratbit.ru

В сердце моря через торрент

Общее Уникальный идентификатор : 220914804688995404133259139531305225901 (0xA632A4CCDBE3B057AF4BE00E6D298EAD) Полное имя : V.Serdtce.Morya.2015.DUAL.BDRip.x264.by_potroks.mkv Формат : Matroska Версия формата : Version 4 / Version 2 Размер файла : 2,91 Гбайт Продолжительность : 2 ч. 1 м. Общий поток : 3422 Кбит/сек Название фильма : In the heart of the sea (2015) Дата кодирования : UTC 2016-03-31 06:06:33 Программа кодирования : mkvmerge v5.9.0 ('On The Loose') built on Dec 15 2012 16:39:58 Библиотека кодирования : libebml v1.3.0 + libmatroska v1.4.0

Видео Идентификатор : 1 Формат : AVC Формат/Информация : Advanced Video Codec Профиль формата : [email protected] Параметр CABAC формата : Да Параметр ReFrames формата : 12 кадров Идентификатор кодека : V_MPEG4/ISO/AVC Продолжительность : 2 ч. 1 м. Битрейт : 2527 Кбит/сек Ширина : 1024 пикселя Высота : 576 пикселей Соотношение сторон : 16:9 Режим частоты кадров : Постоянный Частота кадров : 23,976 кадра/сек Цветовое пространство : YUV Субдискретизация насыщенности : 4:2:0 Битовая глубина : 8 бит Тип развёртки : Прогрессивная Бит/(Пиксели*Кадры) : 0.179 Размер потока : 2,09 Гбайт (72%) Заголовок : potroks Библиотека кодирования : x264 core 148 r2665M a01e339 Настройки программы : cabac=1 / ref=12 / deblock=1:-2:-2 / analyse=0x3:0x133 / me=umh / subme=11 / psy=1 / psy_rd=1.00:0.10 / mixed_ref=1 / me_range=48 / chroma_me=1 / trellis=2 / 8x8dct=1 / cqm=0 / deadzone=21,11 / fast_pskip=0 / chroma_qp_offset=-3 / threads=9 / lookahead_threads=2 / sliced_threads=0 / nr=0 / decimate=1 / interlaced=0 / bluray_compat=0 / constrained_intra=0 / bframes=13 / b_pyramid=2 / b_adapt=2 / b_bias=0 / direct=3 / weightb=1 / open_gop=0 / weightp=2 / keyint=240 / keyint_min=23 / scenecut=40 / intra_refresh=0 / rc=2pass / mbtree=0 / bitrate=2527 / ratetol=1.0 / qcomp=0.70 / qpmin=0 / qpmax=69 / qpstep=4 / cplxblur=20.0 / qblur=0.5 / ip_ratio=1.35 / pb_ratio=1.25 / aq=1:0.80 Язык : English Default : Да Forced : Нет Цветовой диапазон : Limited Основные цвета : BT.709 Характеристики трансфера : BT.709 Коэффициенты матрицы : BT.709

Аудио #1 Идентификатор : 2 Формат : AC-3 Формат/Информация : Audio Coding 3 Расширение режима : CM (complete main) Параметр Endianness формата : Big Идентификатор кодека : A_AC3 Продолжительность : 2 ч. 1 м. Вид битрейта : Постоянный Битрейт : 448 Кбит/сек Каналы : 6 каналов Расположение каналов : Front: L C R, Side: L R, LFE Частота : 48,0 КГц Метод сжатия : С потерями Размер потока : 390 Мбайт (13%) Заголовок : Dub | DD 5.1 @ 448 kbps - Blu-ray CEE Язык : Russian Default : Да Forced : Нет

Аудио #2 Идентификатор : 3 Формат : AC-3 Формат/Информация : Audio Coding 3 Расширение режима : CM (complete main) Параметр Endianness формата : Big Идентификатор кодека : A_AC3 Продолжительность : 2 ч. 1 м. Вид битрейта : Постоянный Битрейт : 448 Кбит/сек Каналы : 6 каналов Расположение каналов : Front: L C R, Side: L R, LFE Частота : 48,0 КГц Метод сжатия : С потерями Размер потока : 390 Мбайт (13%) Заголовок : Original | DD 5.1 @ 448 kbps Язык : English Default : Нет Forced : Нет

Текст #1 Идентификатор : 4 Формат : UTF-8 Идентификатор кодека : S_TEXT/UTF8 Идентификатор кодека/Информация : UTF-8 Plain Text Заголовок : Forced Язык : Russian Default : Да Forced : Нет

Текст #2 Идентификатор : 5 Формат : UTF-8 Идентификатор кодека : S_TEXT/UTF8 Идентификатор кодека/Информация : UTF-8 Plain Text Заголовок : iTunes Язык : Russian Default : Нет Forced : Нет

Текст #3 Идентификатор : 6 Формат : UTF-8 Идентификатор кодека : S_TEXT/UTF8 Идентификатор кодека/Информация : UTF-8 Plain Text Заголовок : Jet Язык : Russian Default : Нет Forced : Нет

Текст #4 Идентификатор : 7 Формат : UTF-8 Идентификатор кодека : S_TEXT/UTF8 Идентификатор кодека/Информация : UTF-8 Plain Text Заголовок : Forced Язык : Ukrainian Default : Нет Forced : Нет

Текст #5 Идентификатор : 8 Формат : UTF-8 Идентификатор кодека : S_TEXT/UTF8 Идентификатор кодека/Информация : UTF-8 Plain Text Заголовок : Full Язык : English Default : Нет Forced : Нет

Текст #6 Идентификатор : 9 Формат : UTF-8 Идентификатор кодека : S_TEXT/UTF8 Идентификатор кодека/Информация : UTF-8 Plain Text Заголовок : SDH Язык : English Default : Нет Forced : Нет

Текст #7 Идентификатор : 10 Формат : UTF-8 Идентификатор кодека : S_TEXT/UTF8 Идентификатор кодека/Информация : UTF-8 Plain Text Заголовок : SDH-Colored Язык : English Default : Нет Forced : Нет

Меню 00:00:00.000 : en:(01)00:00:00:000 00:12:07.518 : en:(02)00:12:07:518 00:21:19.736 : en:(03)00:21:19:736 00:33:31.968 : en:(04)00:33:31:968 00:42:37.012 : en:(05)00:42:37:012 00:51:32.714 : en:(06)00:51:32:714 01:06:45.835 : en:(07)01:06:45:835 01:13:14.014 : en:(08)01:13:14:014 01:23:23.289 : en:(09)01:23:23:289 01:33:47.872 : en:(10)01:33:47:872 01:43:22.029 : en:(11)01:43:22:029 01:53:00.774 : en:(12)01:53:00:774

piratbit.ru


Смотрите также