В поисках приключений скачать торрент в хорошем качестве


Скачать фильм В поисках приключений (1996) через торрент

gig-torrent.net

20 апреля 2016 08:46 В поисках приключений / The Quest (1996) BDRip | P .torrent   [Информация о файле (нажмите для просмотра)] Перевод: Профессиональный (многоголосый, закадровый)[ТК "Россия" (студия Нота]Кодек: XviDКачество: BDRipВидео: 720x304 (2.37:1), 23.976 fps, XviD build 50 ~1997 kbps avg, 0.38 bit/pixelЗвук: 48 kHz, AC3 Dolby Digital, 2/0 (L,R) ch, ~192 kbps 1,45 Gb 28 3
20 апреля 2016 08:46 В поисках приключений / The Quest (1996) BDRip 1080p | P2 .torrent   [Информация о файле (нажмите для просмотра)] Перевод: Профессиональный (двухголосый, закадровый) "Twister"Кодек: x264Формат: MKVКачество: BDRip 1080pВидео: MPEG-4 AVCСубтитры: SRT 7,76 Gb 5 3
20 апреля 2016 08:46 В поисках приключений / The Quest (1996) BDRip 720 от SuperMin .torrent   [Информация о файле (нажмите для просмотра)] Перевод: Профессиональный (многоголосый) + Двухголосый закадровыйКодек: h364Качество: BDRip 720 от SuperMinВидео: 1280x544 (2.35:1), 3878 kbps, 23.976 fpsЗвук: Русский (AC-3, 2ch, 192 kbps) - Двухголосый закадровый, ТВЦ Русский (AC-3, 2ch, 192 kbps) - Многоголосый закадровый, ОРТ Русский (AC-3, 2ch, 192 kbps) - Многоголосый закадровый, ТК "Россия" (студия Нота)Субтитры: Русские, английские 3 Gb 3 1
20 апреля 2016 08:46 В поисках приключений / The Quest (1996) HDRip-AVC от New-Team | P .torrent   [Информация о файле (нажмите для просмотра)] Перевод: Профессиональный (многоголосый, закадровый)Качество: HDRip-AVC [BDRip 1080p]Формат: MKVВидео: 744x316 (2.35:1), 23.976 fps, h364 ~ 1 035 Kbps, 0.184 bit/pixelАудио: 48 KHz / 24 KHz, AAC HE-AAC / LC, 2/0 (L,R) ch, ~64 kbps 744,46 Mb 12 6
20 апреля 2016 08:45 В поисках приключений / The Quest (1996) BDRip-AVC от MediaClub .torrent   [Информация о файле (нажмите для просмотра)] Перевод: Профессиональный многоголосый + профессиональный двухголосый + авторский + оригиналКодек: MPEG-4 AVCКачество: BDRip-AVCВидео: 2800 Кбит/с, 1024x436, 23.976 кадр/сАудио #1: Русский (AC3, 6 ch, 448 Кбит/с) | Профессиональный двухголосый (Twister)Аудио #2: Русский (AC3, 2 ch, 192 Кбит/с) | Профессиональный многоголосый (ТK "Россия" (Студия Нота))Аудио #3: Русский (AC3, 2 ch, 192 Кбит/с) | Профессиональный многоголосый (ОРТ)Аудио #4: Русский (AC3, 2 ch, 192 Кбит/с) | Профессиональный двухголосый (ТВЦ)Аудио #5: Русский (AC3, 2 ch, 448 Кбит/с) | Авторский (Ю.Живов)Аудио #6: Русский (AC3, 2 ch, 192 Кбит/с) | Авторский (А.Гаврилов)Аудио #7: Русский (AC3, 2 ch, 192 Кбит/с) | Авторский (А.Кашкин)Аудио #8: Английский (AC3, 6 ch, 448 Кбит/с)Субтитры: Русские, английские 3,37 Gb 3 12
20 апреля 2016 08:45 В поисках приключений / The Quest (1996) BDRip 1080p от Freeisland .torrent   [Информация о файле (нажмите для просмотра)] Перевод: Профессиональный (многоголосый закадровый)Субтитры: Russian (UTF-8), English (UTF-8)Качество: BDRip 1080рФормат: MKVВидео: 1920x816 (2.35:1), 23.976 fps, AVC, 12.8 MbpsАудио #1: AC3, 384 Kbps, 48.0 KHz, 6 ch (Профессиональный двухголосый)TwisterАудио #2: AC3, 192 Kbps, 48.0 KHz, 2 ch (Профессиональный многоголосый)ТK "Россия" (Студия Нота, 1999) Аудио #3: AC3, 192 Kbps, 48.0 KHz, 2 ch (Профессиональный многоголосый)Аудио #4: AC3, 192 Kbps, 48.0 KHz, 2 ch (Профессиональный многоголосый)ТК ОРТАудио #5: AC3, 192 Kbps, 48.0 KHz, 2 ch (Профессиональный двухголосый)ТК ТВЦАудио #6: DTS, 1 510 Kbps, 48.0 KHz, 6 ch (Авторский - Ю. Живов)Аудио #7: AC3, 192 Kbps, 48.0 KHz, 2 ch (Авторский - А. Гаврилов)Аудио #8: AC3, 192 Kbps, 48.0 KHz, 2 ch (Авторский - А. Кашкин)Аудио #9: DTS, 1 510 Kbps, 48.0 KHz, 6 ch English 11,48 Gb 7 3
20 апреля 2016 08:45 В поисках приключений / The Quest (1996) HDRip от Scarabey | Р .torrent   [Информация о файле (нажмите для просмотра)] Перевод: Профессиональный (многоголосый, закадровый)Качество: HDRipФормат: AVIВидео: 720x304 (2.37:1), 23.976 fps, XviD build 73 ~1801 kbps avg, 0.34 bit/pixelАудио: 48 kHz, AC3 Dolby Digital, 3/2 (L,C,R,l,r) + LFE ch, ~384 kbps 1,45 Gb 6 3
20 апреля 2016 08:45 В поисках приключений / The Quest (1996) HDRip от Scarabey | Р .torrent   [Информация о файле (нажмите для просмотра)] Перевод: Профессиональный (многоголосый, закадровый)Качество: HDRipФормат: AVIВидео: 688x288 (2.39:1), 23.976 fps, XviD build 73 ~961 kbps avg, 0.20 bit/pixelАудио: 48 kHz, MPEG Layer 3, 2 ch, ~128.00 kbps avg 743,4 Mb 5 2
20 апреля 2016 08:45 В поисках приключений / The Quest (1996) BDRip от HQ-ViDEO .torrent   [Информация о файле (нажмите для просмотра)] Субтитры: Русские, Английские.Качество: BDRip (Исходник: Blu-ray)Формат: AVIВидео: 720 x 304; 23.976 fps; 1812 kbps; 0.345 bit/pixel; 2.35:1Аудио: 48 kHz, AC3 Dolby Digital, 3/2 (L,C,R,l,r) + LFE ch, ~384.00 kbps avg 2,73 Gb 2 2
20 апреля 2016 08:45 В поисках приключений / The Quest (1996) BDRip-AVC от ExKinoRay .torrent   [Информация о файле (нажмите для просмотра)] Перевод: Профессиональный двухголосый, авторский одноголосый (Андрей Гаврилов)Субтитры: Русские, английскиеКодек: H.264Качество: BDRip (AVC) (Blu-Ray Remux (1080р))Видео: MPEG-4 AVC, 3000 Кбит/с, 1024x436, 23.976 кадр/сЗвук: ПД (AC3, 6 ch, 384 Кбит/с), АО (AC3, 2 ch, 192 Кбит/с), английский (AC3, 6 ch, 448 Кбит/с) 2,66 Gb 6 4
20 апреля 2016 08:45 В поисках приключений / The Quest (1996) BDRip от HQCLUB .torrent   [Информация о файле (нажмите для просмотра)] Перевод: Профессиональный (двухголосый, закадровый) Twister +Профессиональный (многоголосый, закадровый) ТК "Россия" (студия Нота)Субтитры: русские, английские (2 вида) (внешние srt*)Формат: AVIКачество: BDRip (источник: TorrentGui /Blu-ray / 1080p)Видео: 720x304 (2.37:1), 23,976 fps, XviD build 64 ~1801 kbps avg, 0.34 bit/pixelАудио #01: 48 kHz, AC3 Dolby Digital, 3/2 (L,C,R,l,r) + LFE ch, ~384.00 kbps avgАудио #02: 48 kHz, AC3 Dolby Digital, 2/0 (L,R), ~192.00 kbps avg(отдельно Narod.Ru)Аудио #03: 48 kHz, AC3 Dolby Digital, 2/0 (L,R), ~192.00 kbps avg(отдельно Narod.Ru)Аудио #04: 48 kHz, AC3 Dolby Digital, 2/0 (L,R), ~192.00 kbps avg(отдельно Narod.Ru)Аудио #05: 48 kHz, AC3 Dolby Digital, 2/0 (L,R), ~192.00 kbps avg(отдельно Narod.Ru)Аудио #06: 48 kHz, AC3 Dolby Digital, 2/0 (L,R), ~192.00 kbps avg(отдельно Narod.Ru)Аудио #07: 48 kHz, AC3 Dolby Digital, 2/0 (L,R), ~192.00 kbps avg(отдельно Narod.Ru)Аудио #08: 48 kHz, AC3 Dolby Digital, 2/0 (L,R), ~192.00 kbps avg(отдельно, http)Аудио #09: 48 kHz, AC3 Dolby Digital, 3/2 (L,C,R,l,r) + LFE ch, ~384.00 kbps avg(отдельно Narod.Ru)Аудио #10: 48 kHz, AC3 Dolby Digital, 3/2 (L,C,R,l,r) + LFE ch, ~384.00 kbps avg(отдельно Narod.Ru) 1,45 Gb 3 5
20 апреля 2016 08:45 В поисках приключений / The Quest (1996) HDTVRip .torrent   [Информация о файле (нажмите для просмотра)] Перевод: Профессиональный (двухголосый закадровый)Кодек: XviD / MP3Качество: HDTVRipВидео: XviD, 688x288 (2.39:1), 23.976 fps, ~970 kbps, 0.20 bit/pixelЗвук: MP3, 48 kHz, 2 ch, ~128.00 kbps 748,06 Mb 2 4
20 апреля 2016 08:45 В поисках приключений / The Quest (1996) BDRip 1080p .torrent   [Информация о файле (нажмите для просмотра)] Перевод: Профессиональный (многоголосый, закадровый)Кодек: x264Качество: BDRip (источник: Blu-ray Disc)Видео: 1920x816 (2,35:1), 23.976 fps, 5849 kbpsАудио #1: AC-3, 6 ch, 384 kbps (Rus)Аудио #2: AC-3, 6 ch, 384 kbps (Eng)Субтитры: Русские, АнглийскиеВидео: Идентификатор : 1 Формат : AVC Формат/Информация : Advanced Video Codec Профиль формата : [email protected] Параметр CABAC формата : Да Параметр ReFrames формата : 5 кадров Идентификатор кодека : V_MPEG4/ISO/AVC Продолжительность : 1 ч. 34 м. Битрейт : 5849 Кбит/сек Ширина : 1920 пикселей Высота : 816 пикселей Соотношение сторон : 2,35:1 Частота кадров : 23,976 кадра/сек Цветовое пространство : YUV Субдискретизация насыщенности : 4:2:0 Битовая глубина : 8 бит Тип развёртки : Прогрессивная Бит/(Пиксели*Кадры) : 0.156 Размер потока : 3,78 Гбайт (86%) Заголовок : Release by AlexKa Библиотека кодирования : x264 core 122 r2184 5c85e0a Настройки программы : cabac=1 / ref=5 / deblock=1:0:0 / analyse=0x3:0x133 / me=umh / subme=10 / psy=1 / psy_rd=1.00:0.10 / mixed_ref=1 / me_range=32 / chroma_me=1 / trellis=2 / 8x8dct=1 / cqm=0 / deadzone=21,11 / fast_pskip=0 / chroma_qp_offset=-3 / threads=12 / sliced_threads=0 / nr=0 / decimate=0 / interlaced=0 / bluray_compat=0 / constrained_intra=0 / bframes=5 / b_pyramid=2 / b_adapt=2 / b_bias=0 / direct=3 / weightb=1 / open_gop=0 / weightp=2 / keyint=240 / keyint_min=23 / scenecut=40 / intra_refresh=0 / rc_lookahead=60 / rc=2pass / mbtree=1 / bitrate=5849 / ratetol=1.0 / qcomp=0.60 / qpmin=0 / qpmax=69 / qpstep=4 / cplxblur=20.0 / qblur=0.5 / ip_ratio=1.40 / aq=1:1.00 Язык : EnglishАудио #1: Идентификатор : 2 Формат : AC-3 Формат/Информация : Audio Coding 3 Расширение режима : CM (complete main) Идентификатор кодека : A_AC3 Продолжительность : 1 ч. 34 м. Вид битрейта : Постоянный Битрейт : 384 Кбит/сек Каналы : 6 каналов Расположение каналов : Front: L C R, Side: L R, LFE Частота : 48,0 КГц Битовая глубина : 16 бит Метод сжатия : С потерями Задержка видео : 960 мс. Размер потока : 260 Мбайт (6%) Заголовок : Rus Язык : RussianАудио #2: Идентификатор : 3 Формат : AC-3 Формат/Информация : Audio Coding 3 Расширение режима : CM (complete main) Идентификатор кодека : A_AC3 Продолжительность : 1 ч. 34 м. Вид битрейта : Постоянный Битрейт : 384 Кбит/сек Каналы : 6 каналов Расположение каналов : Front: L C R, Side: L R, LFE Частота : 48,0 КГц Битовая глубина : 16 бит Метод сжатия : С потерями Размер потока : 260 Мбайт (6%) Заголовок : Eng Язык : English 4,37 Gb 6 3
20 апреля 2016 08:45 В поисках приключений / The Quest (1996) HDTVRip .torrent   [Информация о файле (нажмите для просмотра)] Перевод 1: Профессиональный (двухголосый, закадровый)Перевод 2: Авторский (одноголосый, закадровый) А. ГавриловПеревод 3: ОригинальныйКодек: X264Качество: HDTVRipВидео: 1024x436 (2.35:1), 23,976 fps, ~2565 kbps, 0,240 bit/pixАудио 1: (RUS) 48 kHz, AC3 5.1 ch, ~384.00 kbps avg Профессиональный (двухголосый, закадровый)Аудио 2: (RUS) 48 kHz, AC3 2.0 ch, ~192.00 kbps avg Авторский (одноголосый, закадровый) А. ГавриловАудио 3: (ENG) 48 kHz, AC3 2.0 ch, ~192.00 kbps avg ОригинальныйСубтитры 1: РусскиеСубтитры 2: Английские 2,2 Gb 5 5

В поисках приключений 1996 - скачать бесплатно через торрент в хорошем качестве. Без регистрации

www.kinovit.net

Название: В поисках приключений / The Quest (1996) BDRip | P
Качество видео: BDRip
Перевод: Профессиональный (многоголосый, закадровый) [ТК "Россия" (студия Нота]
Видео: XviD 720x304 (2.37:1), 23.976 fps, XviD build 50 ~1997 kbps avg, 0.38 bit/pixel
Аудио: 48 kHz, AC3 Dolby Digital, 2/0 (L,R) ch, ~192 kbps
Скачать

Загрузка начнется в течение 5 сек.

1.45 GB

Название: В поисках приключений / The Quest (1996) BDRip 720 от SuperMin
Качество видео: BDRip 720 от SuperMin
Перевод: Профессиональный (многоголосый) + Двухголосый закадровый
Видео: h364 1280x544 (2.35:1), 3878 kbps, 23.976 fps
Аудио: Русский (AC-3, 2ch, 192 kbps) - Двухголосый закадровый, ТВЦ
Скачать

Загрузка начнется в течение 5 сек.

3.00 GB

Название: В поисках приключений / The Quest (1996) BDRip-AVC от MediaClub
Качество видео: BDRip-AVC
Перевод: Профессиональный многоголосый + профессиональный двухголосый + авторский + оригинал
Видео: MPEG-4 AVC 2800 Кбит/с, 1024x436, 23.976 кадр/с
Аудио: Русский (AC3, 6 ch, 448 Кбит/с) | Профессиональный двухголосый (Twister)Русский (AC3, 2 ch, 192 Кбит/с) | Профессиональный многоголосый (ТK "Россия" (Студия Нота))Русский (AC3, 2 ch, 192 Кбит/с) | Профессиональный многоголосый (ОРТ)Русский (AC3, 2 ch, 192 Кбит/с) | Профессиональный двухголосый (ТВЦ)Русский (AC3, 2 ch, 448 Кбит/с) | Авторский (Ю.Живов)Русский (AC3, 2 ch, 192 Кбит/с) | Авторский (А.Гаврилов)Русский (AC3, 2 ch, 192 Кбит/с) | Авторский (А.Кашкин)Английский (AC3, 6 ch, 448 Кбит/с)
Скачать

Загрузка начнется в течение 5 сек.

3.37 GB

Название: В поисках приключений / The Quest (1996) BDRip 1080p от Freeisland
Качество видео: BDRip 1080р
Перевод: Профессиональный (многоголосый закадровый)
Формат видео: MKV
Видео: AVC 1920x816 (2.35:1), 23.976 fps, AVC, 12.8 Mbps
Аудио: DTS + AC3AC3, 384 Kbps, 48.0 KHz, 6 ch (Профессиональный двухголосый)TwisterAC3, 192 Kbps, 48.0 KHz, 2 ch (Профессиональный многоголосый)ТK "Россия" (Студия Нота, 1999)AC3, 192 Kbps, 48.0 KHz, 2 ch (Профессиональный многоголосый)AC3, 192 Kbps, 48.0 KHz, 2 ch (Профессиональный многоголосый)ТК ОРТAC3, 192 Kbps, 48.0 KHz, 2 ch (Профессиональный двухголосый)ТК ТВЦDTS, 1 510 Kbps, 48.0 KHz, 6 ch (Авторский - Ю. Живов)AC3, 192 Kbps, 48.0 KHz, 2 ch (Авторский - А. Гаврилов)AC3, 192 Kbps, 48.0 KHz, 2 ch (Авторский - А. Кашкин)DTS, 1 510 Kbps, 48.0 KHz, 6 ch English
Скачать

Загрузка начнется в течение 5 сек.

11.48 GB

Название: В поисках приключений / The Quest (1996) HDRip от Scarabey | Р
Качество видео: HDRip
Перевод: Профессиональный (многоголосый, закадровый)
Формат видео: AVI
Видео: 720x304 (2.37:1), 23.976 fps, XviD build 73 ~1801 kbps avg, 0.34 bit/pixel
Аудио: 48 kHz, AC3 Dolby Digital, 3/2 (L,C,R,l,r) + LFE ch, ~384 kbps
Скачать

Загрузка начнется в течение 5 сек.

1.45 GB

Название: В поисках приключений / The Quest (1996) HDRip от Scarabey | Р
Качество видео: HDRip
Перевод: Профессиональный (многоголосый, закадровый)
Формат видео: AVI
Видео: 688x288 (2.39:1), 23.976 fps, XviD build 73 ~961 kbps avg, 0.20 bit/pixel
Аудио: 48 kHz, MPEG Layer 3, 2 ch, ~128.00 kbps avg
Скачать

Загрузка начнется в течение 5 сек.

743.40 MB

Название: В поисках приключений / The Quest (1996) BDRip от HELLYWOOD
Качество видео: BDRip (источник: HDCLUB / BDRemux/ 1080p)
Перевод: Профессиональный (двухголосый закадровый, Twister)
Формат видео: AVI
Видео: 720x304 (2.37:1), 23.976 fps, XviD build 65 ~1802 kbps avg, 0.34 bit/pixel
Аудио: 48 kHz, AC3 Dolby Digital, 3/2 (L,C,R,l,r) + LFE ch, ~384 kbps|DVO, Twister|48 kHz, AC3 Dolby Digital, 3/2 (L,C,R,l,r) + LFE ch, ~384 kbps|AVO, Ю.Живов|48 kHz, AC3 Dolby Digital, 2/0 (L,R) ch, ~192 kbps|AVO, Гаврилов|48 kHz, AC3 Dolby Digital, 2/0 (L,R) ch, ~192 kbps|AVO, Кашкин|48 kHz, AC3 Dolby Digital, 2/0 (L,R) ch, ~192 kbps|MVO, ОРТ|48 kHz, AC3 Dolby Digital, 2/0 (L,R) ch, ~192 kbps|MVO, ТВЦ|48 kHz, AC3 Dolby Digital, 2/0 (L,R) ch, ~192 kbps|MVO, ТК "Россия" (студия Нота)|48 kHz, AC3 Dolby Digital, 2/0 (L,R) ch, ~192 kbps|MVO|
Скачать

Загрузка начнется в течение 5 сек.

1.45 GB

Название: В поисках приключений / The Quest (1996) BDRip-AVC от ExKinoRay
Качество видео: BDRip (AVC) (Blu-Ray Remux (1080р))
Перевод: Профессиональный двухголосый, авторский одноголосый (Андрей Гаврилов)
Видео: H.264 MPEG-4 AVC, 3000 Кбит/с, 1024x436, 23.976 кадр/с
Аудио: ПД (AC3, 6 ch, 384 Кбит/с), АО (AC3, 2 ch, 192 Кбит/с), английский (AC3, 6 ch, 448 Кбит/с)
Скачать

Загрузка начнется в течение 5 сек.

2.66 GB

Название: В поисках приключений / The Quest (1996) BDRip от HQCLUB
Качество видео: BDRip (источник: TorrntGui / Blu-ray / 1080p)
Перевод: Профессиональный (двухголосый, закадровый) Twister + Профессиональный (многоголосый, закадровый) ТК "Россия" (студия Нота) (отдельно Narod.Ru) + Профессиональный (многоголосый, закадровый) Т
Формат видео: AVI
Видео: 720x304 (2.37:1), 23,976 fps, XviD build 64 ~1801 kbps avg, 0.34 bit/pixel
Аудио: 48 kHz, AC3 Dolby Digital, 3/2 (L,C,R,l,r) + LFE ch, ~384.00 kbps avg48 kHz, AC3 Dolby Digital, 2/0 (L,R), ~192.00 kbps avg (отдельно Narod.Ru)48 kHz, AC3 Dolby Digital, 2/0 (L,R), ~192.00 kbps avg (отдельно Narod.Ru)48 kHz, AC3 Dolby Digital, 2/0 (L,R), ~192.00 kbps avg (отдельно Narod.Ru)48 kHz, AC3 Dolby Digital, 2/0 (L,R), ~192.00 kbps avg (отдельно Narod.Ru)48 kHz, AC3 Dolby Digital, 2/0 (L,R), ~192.00 kbps avg (отдельно Narod.Ru)48 kHz, AC3 Dolby Digital, 2/0 (L,R), ~192.00 kbps avg (отдельно Narod.Ru)48 kHz, AC3 Dolby Digital, 3/2 (L,C,R,l,r) + LFE ch, ~384.00 kbps avg (отдельно Narod.Ru)48 kHz, AC3 Dolby Digital, 3/2 (L,C,R,l,r) + LFE ch, ~384.00 kbps avg (отдельно Narod.Ru)
Скачать

Загрузка начнется в течение 5 сек.

1.45 GB

Название: В поисках приключений / The Quest (1996) BDRemux
Качество видео: Blu-Ray Remux (1080р)
Формат видео: MKV
Видео: MPEG-4 AVC, 32907 Кбит/с, 1920x1080, 23.970 кадр/с
Аудио: Русский (Двухголосый, закадровый): 48 КГц, AC3, 6 ch, 384 Кбит/с |R5|Украинский (Многолосый, закадровый): 48 КГц, AC3, 6 ch, 384 Кбит/с |студія "Так Треба Продакшн" на замовлення телеканалу "ICTV"|Русский (Авторский, одноголосый): 48 КГц, AC3, 2 ch, 192 Кбит/с |Андрей Гаврилов|Английский (Оригинал): 48КГц, DTS-HD MA, 6 ch, 4489 Кбит/с
Скачать

Загрузка начнется в течение 5 сек.

25.34 GB

Название: В поисках приключений / The Quest (1996) HDTVRip
Качество видео: HDTVRip
Перевод: Профессиональный (двухголосый закадровый)
Видео: XviD / MP3 XviD, 688x288 (2.39:1), 23.976 fps, ~970 kbps, 0.20 bit/pixel
Аудио: MP3, 48 kHz, 2 ch, ~128.00 kbps
Скачать

Загрузка начнется в течение 5 сек.

748.06 MB

Название: В поисках приключений / The Quest (1996) BDRip 1080p
Качество видео: BDRip (источник: Blu-ray Disc)
Перевод: Профессиональный (многоголосый, закадровый)
Видео: x264 1920x816 (2,35:1), 23.976 fps, 5849 kbps
Аудио: AC-3, 6 ch, 384 kbps (Rus)AC-3, 6 ch, 384 kbps (Eng)
Скачать

Загрузка начнется в течение 5 сек.

4.37 GB

Название: В поисках приключений / The Quest (1996) HDTVRip
Качество видео: HDTVRip
Перевод: 1.Профессиональный (двухголосый, закадровый)
Формат видео: AVI
Видео: XviD 720x304 (2.37:1), 23.976 fps,1638 kbps
Аудио: 1.AC3, 48 kHz, 6 ch, 384 kbps
Скачать

Загрузка начнется в течение 5 сек.

1.46 GB

В поисках приключений через торрент

[font=\"courier new\"]Новаторский, непривычный жанр для всеми любимого кинобойца Жан-Клода Ван Дамма воплощён в его фильме 1996 года «В поисках приключений». Действительно, кто бы мог подумать, что привычный образ героя-одиночки и победителя злодеев Ван Дамм сменит на амплуа искателя приключений и путешественника, человека, стремящегося к лучшему и пытающемуся во что бы то ни стало получить в качестве награды за отвагу и лучший бой Золотого дракона. Хотя, что-то всё-таки осталось от неотъемлемого присутствия Жан-Клода на экране, — это впечатляющие и вполне реалистичные драки, стремительность в развороте событий и исключительная динамика, драйв и радость зрителя от просмотра картины.

Да, в который раз пересматривая ленту, убеждаюсь в таланте, несомненной популярности и величии любимого героя детства; к тому же, каждый раз, смотря картину, отмечаю и выделяю для себя также и наличие успеха режиссуры Ван Дамма, ведь, согласитесь, «В поисках приключений», — довольно неплохой для дебютного режиссёрского выступления фильм известного бойца и киногероя Жан-Клода. Оценивая в который раз картину, учитывая и режиссуру, и игру известного бельгийского актёра, сюжет и разворот событий кинофильма, осознаёшь и отчётливо понимаешь, что поистине талантливый человек способен на многое и вряд ли односторонен и однобок в своих способностях и умениях, раз он умеет и довольно неплохо справляется с актёрской игрой, почему не попробовать себя и в качестве режиссёра?

Что же, просмотром фильма любой зритель останется вполне доволен, в который раз порадуется и похвалит всеми любимого актёра за его способности, великолепно преподнесённую кандидатуру и сущность своего героя, и, конечно же, отдельным плюсом зачтётся и режиссура Ван Дамма. Характер разворота событий и яркое, привлекающее, затягивающее повествование и обилие действий не могут не заинтересовать и не настроить зрителя на просмотр этого замечательного и очень интересного приключенческого фильма. Лично мне до сих пор приходят мысли и яркие образы, запомнившиеся и впечатляющие моменты, действия и реплики главного героя, иногда вызывающие непринуждённую улыбку, а иногда, — даже желание вновь обратиться к просмотру картины.

Сам Жан-Клод Ван Дамм просто восхитителен и неподражаем, своей яркой и заметной внешностью дающий фору другим, не менее известным и популярным актёрам, предстаёт зрителю в данном фильме в роли бандита и уличного хулигана Криса Дюбуа, кандидатура и персонаж которого отнюдь не отталкивает и не отвращает зрителя, — всё дело в том, что актёр смог максимально точно и широко раскрыть, показать на обозрение публики истинный характер, душу и мысли главного героя, который на самом деле, — мечтатель, романтик и настоящий путешественник, сердце и душа которого чисты, добры и незапятнаны. Ну, а стремление героя Ван Дамма к совершенству и желание одержать победу, надежда получить главный приз на соревнованиях по единоборствам, лишь ещё раз подчёркивают предрасположенность и дружелюбное отношение зрителя, его симпатию и привязанность к персонажу Жан-Клода в данной картине.

Словом, перед зрителем, — отличная режиссёрская и актёрская работа Жан-Клода, которая, прежде всего, достойна внимания, уважения и, конечно же, положительной критики, отзывов, высокого балла и соответствующего отношения к себе. Всем лицам, до сих пор по каким-то причинам не посмотревшим этот замечательный фильм, советую как можно быстрее приобретать и смотреть «В поисках приключений», и… будьте уверены, не колебайтесь и отбросьте все сомнения, — этот фильм действительно достоин того, чтобы Вы его посмотрели и высоко оценили. Итак, Уважаемые друзья и коллеги, представляем Вашему вниманию замечательный фильм, содержащий великолепную игру актёров, зрелищные и масштабные моменты, представляем Вам фильм, — первую, но отнюдь не последнюю режиссёрскую работу великого гения современности, популярного и талантливого актёра Жан-Клода Ван Дамма с фильмом «В поисках приключений»!

Искренне надеюсь, картина Вам придётся по вкусу и предрасположит к просмотру других, не менее интересных и захватывающих кинофильмов с Жан-Клодом Ван Даммом. Итак, фильм достоин много, а вернее сказать, всего, поэтому с удовольствием и превеликой радостью поставлю ему 10 из 10…<<holloway777>>

piratbit.ru

/ The Quest (1996) BDRip 720

: : The Quest: 1996: , : - : - / Jean-Claude Van Damme (Christopher Dubois), / Roger Moore (Lord Edgar Dobbs), / James Remar (Maxie Devine), / Janet Gunn (Carrie Newton), / Jack McGee (Harry Smythe), / Aki Aleong (Khao), / Abdel Qissi (Khan, (Mongolian Fighter)), / Louis Mandylor (Riggi), / Chang Ching Peng Chaplin (Master Tchi), / Ryan Cutrona (Officer O'Keefe)

: , , , . . ., - , - - - .

: h364: BDRip 720 SuperMin: 1280x544 (2.35:1), 3878 kbps, 23.976 fps: (AC-3, 2ch, 192 kbps) - , (AC-3, 2ch, 192 kbps) - , (AC-3, 2ch, 192 kbps) - , '' ( ): ,

GeneralUnique ID : 183191144731185501678536408289102707769 (0x89D154C42D885F20A22E62D70982BC39)Complete name : F: .mkvFormat : MatroskaFormat version : Version 4 / Version 2File size : 3.00 GiBDuration : 1h 34mnOverall bit rate : 4 544 KbpsEncoded date : UTC 2015-01-22 07:49:01Writing application : mkvmerge v7.5.0 ('Glass Culture') 64bit built on Jan 4 2015 16:48:44Writing library : libebml v1.3.1 + libmatroska v1.4.2_STATISTICS_WRITING_APP : mkvmerge v7.5.0 ('Glass Culture') 64bit built on Jan 4 2015 16:48:44_STATISTICS_WRITING_DATE_UT : 2015-01-22 07:49:01_STATISTICS_TAGS : BPS DURATION NUMBER_OF_FRAMES NUMBER_OF_BYTESDURATION : 01:29:56.850000000NUMBER_OF_FRAMES : 1084NUMBER_OF_BYTES : 5271168

VideoID : 1Format : AVCFormat/Info : Advanced Video CodecFormat profile : [email protected]Format settings, CABAC : YesFormat settings, ReFrames : 12 framesCodec ID : V_MPEG4/ISO/AVCDuration : 1h 34mnBit rate : 3 878 KbpsWidth : 1 280 pixelsHeight : 544 pixelsDisplay aspect ratio : 2.35:1Original display aspect rat : 2.35:1Frame rate mode : ConstantFrame rate : 23.976 fpsColor space : YUVChroma subsampling : 4:2:0Bit depth : 8 bitsScan type : ProgressiveBits/(Pixel*Frame) : 0.232Stream size : 2.56 GiB (85%)Writing library : x264 core 142 r2479kMod dd79a61Encoding settings : cabac=1 / ref=12 / deblock=1:-1:-1 / analyse=0x3:0x133 / me=umh / subme=9 / psy=1 / fade_compensate=0.00 / psy_rd=1.00:0.15 / mixed_ref=1 / me_range=32 / chroma_me=1 / trellis=2 / 8x8dct=1 / cqm=0 / deadzone=21,11 / fast_pskip=0 / chroma_qp_offset=-3 / threads=3 / lookahead_threads=1 / sliced_threads=0 / nr=0 / decimate=1 / interlaced=0 / bluray_compat=0 / constrained_intra=0 / fgo=0 / bframes=6 / b_pyramid=2 / b_adapt=2 / b_bias=0 / direct=3 / weightb=1 / open_gop=0 / weightp=2 / keyint=240 / keyint_min=23 / scenecut=40 / intra_refresh=0 / rc=crf / mbtree=0 / crf=19.0000 / qcomp=0.60 / qpmin=0 / qpmax=69 / qpstep=4 / ip_ratio=1.40 / pb_ratio=1.30 / aq=1:1.00Language : EnglishDefault : YesForced : NoDURATION : 01:34:34.878000000NUMBER_OF_FRAMES : 136061NUMBER_OF_BYTES : 2800379945_STATISTICS_WRITING_APP : mkvmerge v7.5.0 ('Glass Culture') 64bit built on Jan 4 2015 16:48:44_STATISTICS_WRITING_DATE_UT : 2015-01-22 07:49:01_STATISTICS_TAGS : BPS DURATION NUMBER_OF_FRAMES NUMBER_OF_BYTES

Audio #1ID : 2Format : AC-3Format/Info : Audio Coding 3Mode extension : CM (complete main)Format settings, Endianness : BigCodec ID : A_AC3Duration : 1h 34mnBit rate mode : ConstantBit rate : 192 KbpsChannel(s) : 2 channelsChannel positions : Front: L RSampling rate : 48.0 KHzBit depth : 16 bitsCompression mode : LossyStream size : 130 MiB (4%)Default : YesForced : Yes

Audio #2ID : 3Format : AC-3Format/Info : Audio Coding 3Mode extension : CM (complete main)Format settings, Endianness : BigCodec ID : A_AC3Duration : 1h 34mnBit rate mode : ConstantBit rate : 192 KbpsChannel(s) : 2 channelsChannel positions : Front: L RSampling rate : 48.0 KHzBit depth : 16 bitsCompression mode : LossyStream size : 130 MiB (4%)Default : NoForced : No

Audio #3ID : 4Format : AC-3Format/Info : Audio Coding 3Mode extension : CM (complete main)Format settings, Endianness : BigCodec ID : A_AC3Duration : 1h 34mnBit rate mode : ConstantBit rate : 192 KbpsChannel(s) : 2 channelsChannel positions : Front: L RSampling rate : 48.0 KHzBit depth : 16 bitsCompression mode : LossyStream size : 130 MiB (4%)Default : NoForced : No

Text #1ID : 5Format : PGSMuxing mode : zlibCodec ID : S_HDMV/PGSCodec ID/Info : The same subtitle format used on BDs/HD-DVDsDefault : YesForced : No

Text #2ID : 6Format : PGSMuxing mode : zlibCodec ID : S_HDMV/PGSCodec ID/Info : The same subtitle format used on BDs/HD-DVDsDefault : NoForced : No

filmtor.net


Смотрите также