Тролли скачать в хорошем качестве через торрент


Скачать торрент Тролли / Trolls (2016) WEB-DL 1080p от ExKinoRay

Информация о фильмеНазвание: ТроллиОригинальное название: TrollsГод выхода: 2016Жанр: Мультфильм, мюзикл, фэнтези, комедия, приключения, семейныйРежиссер: Майк Митчелл, Уолт ДорнВ ролях: Анна Кендрик, Зои Дешанель, Джастин Тимберлэйк, Кристин Барански, Джеффри Тэмбор, Кристофер Минц-Плассе, Джеймс Корден, Кунал Найяр, Гвен Стефани, Расселл Брэнд

О фильме:Отправляясь в увлекательное приключение, которое заведет ее далеко от привычного ей мира, Розочка объединяет усилия с самым мрачным троллем на свете по имени Цветан для достижения успеха в своей смелой миссии спасти ее друзей из тисков зловещих бергенов и их лидера, короля Хрящ Старший. Невероятные приключения Розочки проверят ее силу, покажут ее истинную суть и бросят вызов ее способности ударяться в пение в любой момент.

Страна: СШАСтудия: DreamWorks AnimationПродолжительность: 01:32:48Перевод: Дублированный | iTunes

ФайлКачество: WEB-DL 1080p Видео: MPEG-4 AVC, 1916x812, 4437 Kbit/s, 23.976 fpsЗвук: Аудио #01: 48 kHz, AC3, 5.1, 384 Kbps | Дублированный | iTunes |Аудио #02: 48 kHz, AC3, 5.1, 384 kbps | Оригинал |Субтитры: Русские (forced,full), английские

MI

General Unique ID : 183951122207000185219161509184526823893 (0x8A63B28C7D7B43EA8EE1A4E58FDB31D5) Complete name : F:VideoTrolls.2016.WEB-DL.1080p.ExKinoRay.mkv Format : Matroska Format version : Version 4 / Version 2 File size : 3.44 GiB Duration : 1 h 32 min Overall bit rate : 5 302 kb/s Movie name : Trolls.2016 build by ***селезень*** Encoded date : UTC 2016-12-22 20:36:56 Writing application : mkvmerge v8.3.0 ('Over the Horizon') 64bit Writing library : libebml v1.3.1 + libmatroska v1.4.2

Video ID : 1 Format : AVC Format/Info : Advanced Video Codec Format profile : [email protected] Format settings, CABAC : Yes Format settings, ReFrames : 5 frames Codec ID : V_MPEG4/ISO/AVC Duration : 1 h 32 min Bit rate : 4 534 kb/s Width : 1 916 pixels Height : 812 pixels Display aspect ratio : 2.35:1 Frame rate mode : Constant Frame rate : 23.976 (23976/1000) FPS Color space : YUV Chroma subsampling : 4:2:0 Bit depth : 8 bits Scan type : Progressive Bits/(Pixel*Frame) : 0.122 Stream size : 2.94 GiB (86%) Title : Trolls.2016 build by ***селезень*** Language : English Default : Yes Forced : No Color range : Limited Color primaries : BT.709 Transfer characteristics : BT.709 Matrix coefficients : BT.709

Audio #1 ID : 2 Format : AC-3 Format/Info : Audio Coding 3 Mode extension : CM (complete main) Format settings, Endianness : Big Codec ID : A_AC3 Duration : 1 h 32 min Bit rate mode : Constant Bit rate : 384 kb/s Channel(s) : 6 channels Channel positions : Front: L C R, Side: L R, LFE Sampling rate : 48.0 kHz Frame rate : 31.250 FPS (1536 spf) Bit depth : 16 bits Compression mode : Lossy Stream size : 254 MiB (7%) Title : Dub [iTunes] Language : Russian Default : Yes Forced : No

Audio #2 ID : 3 Format : AC-3 Format/Info : Audio Coding 3 Mode extension : CM (complete main) Format settings, Endianness : Big Codec ID : A_AC3 Duration : 1 h 32 min Bit rate mode : Constant Bit rate : 384 kb/s Channel(s) : 6 channels Channel positions : Front: L C R, Side: L R, LFE Sampling rate : 48.0 kHz Frame rate : 31.250 FPS (1536 spf) Bit depth : 16 bits Compression mode : Lossy Stream size : 254 MiB (7%) Title : Original Language : English Default : No Forced : No

Text #1 ID : 4 Format : UTF-8 Codec ID : S_TEXT/UTF8 Codec ID/Info : UTF-8 Plain Text Duration : 1 h 24 min Bit rate : 0 b/s Count of elements : 2 Stream size : 65.0 Bytes (0%) Title : Forced [iTunes] Language : Russian Default : Yes Forced : No

Text #2 ID : 5 Format : UTF-8 Codec ID : S_TEXT/UTF8 Codec ID/Info : UTF-8 Plain Text Duration : 1 h 31 min Bit rate : 98 b/s Count of elements : 1358 Stream size : 66.0 KiB (0%) Title : Full [iTunes] Language : Russian Default : No Forced : No

Text #3 ID : 6 Format : UTF-8 Codec ID : S_TEXT/UTF8 Codec ID/Info : UTF-8 Plain Text Duration : 1 h 23 min Bit rate : 65 b/s Count of elements : 1380 Stream size : 39.9 KiB (0%) Title : Full [iTunes] Language : English Default : No Forced : No

Menu 00:00:00.000 : en:1 00:02:19.472 : en:2 00:06:21.922 : en:3 00:10:41.640 : en:4 00:13:25.595 : en:5 00:18:33.361 : en:6 00:22:11.787 : en:7 00:25:40.078 : en:8 00:28:52.728 : en:9 00:32:54.094 : en:10 00:36:32.103 : en:11 00:40:55.783 : en:12 00:44:20.654 : en:13 00:47:26.965 : en:14 00:51:26.079 : en:15 00:55:44.670 : en:16 00:59:57.756 : en:17 01:03:16.079 : en:18 01:05:16.657 : en:19 01:07:55.524 : en:20 01:10:24.256 : en:21 01:13:30.650 : en:22 01:16:20.236 : en:23 01:21:43.726 : en:24

Релиз от: Автор релиза:

mrutor.org

Скачать фильм Тролли через торрент в хорошем качестве бесплатно HDRip

Раздают: 2 [ 0 KB/s ]
Размер: 747 MB | Добавлен: 8 мес. назад | Торрент скачан:103 раза
Реклама Дарим 3000 рублей за регистрацию, не упусти свой шанс получить шикарный бонус!!!

22-02-2017 05:53 Тролли Скачать торрент  

Тролли / Trolls

Год выпуска: 2016Страна: СШАЖанр: Мультфильм, мюзикл, фэнтези, комедия, приключения, семейныйПродолжительность: 01:32:26Перевод: Дубляж - [Лицензия BD CEE]Субтитры: отсутствуют

Режиссер: Майк Митчелл, Уолт Дорн

В ролях:

Анна Кендрик, Зои Дешанель, Джастин Тимберлэйк, Кристин Барански, Джеффри Тэмбор, Кристофер Минц-Плассе, Джеймс Корден, Кунал Найяр, Гвен Стефани, Расселл Брэнд

Описание:

Отправляясь в увлекательное приключение, которое заведет ее далеко от привычного ей мира, Розочка объединяет усилия с самым мрачным троллем на свете по имени Цветан для достижения успеха в своей смелой миссии спасти ее друзей из тисков зловещих бергенов и их лидера, короля Хрящ Старший. Невероятные приключения Розочки проверят ее силу, покажут ее истинную суть и бросят вызов ее способности ударяться в пение в любой момент.

Качество: HDRipФормат: AVIВидео кодек: XviDАудио кодек: MP3

Видео: 688x288 (2.39:1), 23.976 fps, XviD build 73 ~756 kbps avg, 0.170 bit/pixelАудио#1: 48 kHz, MPEG Layer 3, 2 ch, ~128.00 kbps avg

Скачать Тролли через торрент http://pic1.pb.wtf/images/11/e9c7i.jpg Скачать фильм Тролли через торрент бесплантно в хорошем качестве Описание: Отправляясь в увлекательное , которое заведет ее далеко от привычного ей мира, Розочка объединяет усилия с самым ... 2017-02-22 05:53 10 10 5

Loading...

Loading...

Рекламный пират

Дорогой пользователь! Огромная просьба, поблагодарите релизера, оцените раздачу и оставьте свои комментарий, если Вы скачали Тролли через торрент бесплатно! Внесите свою лепту в развитие PiratBit!

Комментировать посты могут только пользователи прошедшие не сложную регистрацию

Тролли через торрент Скачать бесплатно Тролли Тролли скачать торрент Тролли смотреть онлайн Cкачать фильм Тролли бесплатно Тролли скачать торрент в хорошем качестве Тролли смотреть онлайн бесплатно в хорошем качестве

Вы не можете начинать темыВы не можете отвечать на сообщенияВы не можете редактировать свои сообщенияВы не можете удалять свои сообщенияВы не можете голосовать в опросахВы не можете прикреплять файлы к сообщениямВы можете скачивать файлы

piratbit.ru

Скачать фильм Тролли через торрент в хорошем качестве бесплатно 1080p

GeneralUnique ID : 233092374736825432707157681148786420888 (0xAF5BF55BC2972267B3252C82AD5CAC98)Complete name : E:\Trolls.2016.1080p.WEB-DL.Rus.Eng.HDCLUB.mkvFormat : MatroskaFormat version : Version 2File size : 3.44 GiBDuration : 1 h 32 minOverall bit rate : 5 302 kb/sMovie name : Trolls (2016) - Release for HDCLUBEncoded date : UTC 2016-12-22 19:13:28Writing application : mkvmerge v3.4.0 ('Rapunzel') built on May 15 2010 09:38:20Writing library : libebml v0.8.0 + libmatroska v0.9.0

VideoID : 1Format : AVCFormat/Info : Advanced Video CodecFormat profile : [email protected] settings, CABAC : YesFormat settings, ReFrames : 5 framesCodec ID : V_MPEG4/ISO/AVCDuration : 1 h 32 minBit rate : 4 428 kb/sWidth : 1 916 pixelsHeight : 812 pixelsDisplay aspect ratio : 2.35:1Frame rate mode : ConstantFrame rate : 24.000 FPSColor space : YUVChroma subsampling : 4:2:0Bit depth : 8 bitsScan type : ProgressiveBits/(Pixel*Frame) : 0.119Stream size : 2.87 GiB (84%)Title : Trolls (2016) - Release for HDCLUBLanguage : EnglishDefault : YesForced : NoColor range : LimitedColor primaries : BT.709Transfer characteristics : BT.709Matrix coefficients : BT.709

Audio #1ID : 2Format : AC-3Format/Info : Audio Coding 3Mode extension : CM (complete main)Format settings, Endianness : BigCodec ID : A_AC3Duration : 1 h 32 minBit rate mode : ConstantBit rate : 384 kb/sChannel(s) : 6 channelsChannel positions : Front: L C R, Side: L R, LFESampling rate : 48.0 kHzFrame rate : 31.250 FPS (1536 spf)Compression mode : LossyStream size : 255 MiB (7%)Title : AC3 5.1 @ 384 kbps - DUB, iTunesLanguage : RussianDefault : YesForced : No

Audio #2ID : 3Format : AC-3Format/Info : Audio Coding 3Mode extension : CM (complete main)Format settings, Endianness : BigCodec ID : A_AC3Duration : 1 h 32 minBit rate mode : ConstantBit rate : 384 kb/sChannel(s) : 6 channelsChannel positions : Front: L C R, Side: L R, LFESampling rate : 48.0 kHzFrame rate : 31.250 FPS (1536 spf)Compression mode : LossyStream size : 255 MiB (7%)Title : AC3 5.1 @ 384 kbpsLanguage : EnglishDefault : NoForced : No

Text #1ID : 4Format : UTF-8Codec ID : S_TEXT/UTF8Codec ID/Info : UTF-8 Plain TextTitle : Forced, iTunesLanguage : RussianDefault : YesForced : No

Text #2ID : 5Format : UTF-8Codec ID : S_TEXT/UTF8Codec ID/Info : UTF-8 Plain TextTitle : iTunesLanguage : RussianDefault : NoForced : No

Text #3ID : 6Format : UTF-8Codec ID : S_TEXT/UTF8Codec ID/Info : UTF-8 Plain TextTitle : iTunesLanguage : EnglishDefault : NoForced : No

Menu00:00:00.000 : en:100:02:19.472 : en:200:06:21.922 : en:300:10:41.640 : en:400:13:25.595 : en:500:18:33.361 : en:600:22:11.787 : en:700:25:40.078 : en:800:28:52.728 : en:900:32:54.094 : en:1000:36:32.103 : en:1100:40:55.783 : en:1200:44:20.654 : en:1300:47:26.965 : en:1400:51:26.079 : en:1500:55:44.670 : en:1600:59:57.756 : en:1701:03:16.079 : en:1801:05:16.657 : en:1901:07:55.524 : en:2001:10:24.256 : en:2101:13:30.650 : en:2201:16:20.236 : en:2301:21:43.726 : en:24

piratbit.ru

Скачать фильм Тролли через торрент в хорошем качестве бесплатно BDRip от Twi7ter

Раздают: 19 [ 7 KB/s ]
Размер: 1.46 GB | Добавлен: 8 мес. назад | Торрент скачан:642 раза
Реклама Дарим 3000 рублей за регистрацию, не упусти свой шанс получить шикарный бонус!!!

21-02-2017 20:56 Тролли Скачать торрент  

Тролли / Trolls

«Найди своё счастье»

Год выпуска: 2016Страна: СШАЖанр: мультфильм, мюзикл, фэнтези, комедия, приключения, семейныйПродолжительность: 01:32:26Перевод: Профессиональный (полное дублирование) [Лицензия Blu-ray CEE]Субтитры: НетРежиссер: Уолт Дорн , Майк МитчеллВ ролях: Анна Кендрик (Poppy, озвучка), Джастин Тимберлэйк (Branch, озвучка), Зои Дешанель (Bridget, озвучка), Кристофер Минц-Плассе (King Gristle, озвучка), Кристин Барански (Chef, озвучка), Расселл Брэнд (Creek, озвучка), Гвен Стефани (DJ Suki, озвучка), Джон Клиз (King Gristle Sr., озвучка), Джеймс Корден (Biggie, озвучка), Джеффри Тэмбор (King Peppy, озвучка), Рон Фанчес (Cooper, озвучка), Аино Яво (Satin, озвучка)Описание: Отправляясь в увлекательное приключение, которое заведет ее далеко от привычного ей мира, Розочка объединяет усилия с самым мрачным троллем на свете по имени Цветан для достижения успеха в своей смелой миссии спасти ее друзей из тисков зловещих бергенов и их лидера, короля Хрящ Старший. Невероятные приключения Розочки проверят ее силу, покажут ее истинную суть и бросят вызов ее способности ударяться в пение в любой момент.Рейтинг:

MPAA: PG - Рекомендуется присутствие родителей

Качество: BDRip | исх. Trolls (2016) 1080p BD-Remux |Формат: AVIВидео кодек: XviDАудио кодек: AC3Видео: 720x304 (2.37:1), 23.976 fps, XviD build 73 ~1805 kbps avg, 0.34 bit/pixelАудио: 48 kHz, AC3 Dolby Digital, 3/2 (L,C,R,l,r) + LFE ch, ~448 kbps

Релиз: &

Скачать Тролли через торрент http://s020.radikal.ru/i719/1701/fe/9911d926d04b.png Скачать фильм Тролли через торрент бесплантно в хорошем качестве Описание: Отправляясь в увлекательное , которое заведет ее далеко от привычного ей мира, Розочка объединяет усилия с самым ... 2017-02-21 20:56 10 10 12

Loading...

Loading...

Рекламный пират

Дорогой пользователь! Огромная просьба, поблагодарите релизера, оцените раздачу и оставьте свои комментарий, если Вы скачали Тролли через торрент бесплатно! Внесите свою лепту в развитие PiratBit!

Комментировать посты могут только пользователи прошедшие не сложную регистрацию

Тролли через торрент Скачать бесплатно Тролли Тролли скачать торрент Тролли смотреть онлайн Cкачать фильм Тролли бесплатно Тролли скачать торрент в хорошем качестве Тролли смотреть онлайн бесплатно в хорошем качестве

Вы не можете начинать темыВы не можете отвечать на сообщенияВы не можете редактировать свои сообщенияВы не можете удалять свои сообщенияВы не можете голосовать в опросахВы не можете прикреплять файлы к сообщениямВы можете скачивать файлы

piratbit.ru


Смотрите также