Тринадцатый этаж скачать торрент в хорошем качестве hd 1080


rutor.org :: Тринадцатый этаж / The Thirteenth Floor (1999) BDRip 1080p HEVC

Название: Тринадцатый этажОригинальное название: The Thirteenth Floor

Год выпуска: 1999Страна: Германия, СШАЖанр: фантастика, триллер, мелодрама, детективПродолжительность: 01:40:30Перевод: ДублированныйСубтитры: русские, английскиеВ ролях: Крэйг Бирко, Гретхен Мол, Армин Мюллер-Шталь, Винсент Д’Онофрио, Деннис Хейсбёрт, Стивен Шуб, Джереми Робертс, Риф Хаттон, Леон Риппи, Джанет МакЛахлан Режиссёр: Йозеф Руснак Описание: На тринадцатом этаже компьютерной корпорации была разработана совершенная модель виртуальной реальности, создание которой повлекло за собой цепь таинственных убийств. Разгадать загадку можно, лишь погрузившись в иное измерение, где может быть ответ на многие вопросы, а может быть — страшная нереальность… Качество: BDRip 1080pФормат: MKVВидео кодек: [email protected]Аудио кодек: AC3Видео: 1920x800, 23,976 fps, HEVC, ~4317 kbps, 10bitАудио: Rus, 48 kHz/16-bit, AC3 5.1, ~640 kbps | ДубляжАудио: Eng, 48 kHz/16-bit, AC3 5.1, ~640 kbps | ОригиналНавигация по главам: ПрисутствуетАвтор рипа: Alex_A

Внимание!

- H.265/HEVC (High Efficiency Video Coding) - это новый стандарт кодирования видео. - Стандарт H.265/HEVC является логическим продолжением стандарта H.264/AVC (Advanced Video Coding), и характеризуется более эффективными алгоритмами сжатия, а также поддержкой высокого разрешения вплоть до 8K UHD (8192x4320). Первая версия стандарта H.265 была опубликована в начале 2013 года. - Рипы в фомате HEVC поддерживается не всеми аппаратными проигрывателями. - Для корректного воспроизведения может потребоваться обновление ПО. - Владельцам несовместимого железа просьба не беспокоить, есть альтернативные релизы.

Медиаинфо

Общее Уникальный идентификатор : 174821888102554958023334014866628371754 (0x8385788E6A9C456FAE3E485E61D1652A) Полное имя : Y:HEVC MOVIESThe.Thirteenth.Floor.1999.1080p_HEVCCLUB.mkv Формат : Matroska Версия формата : Version 4 / Version 2 Размер файла : 3,93 Гбайт Продолжительность : 1 ч. 40 м. Общий поток : 5600 Кбит/сек Название фильма : The Thirteenth Floor (1999) - HEVC.CLUB Дата кодирования : UTC 2017-02-03 08:04:52 Программа кодирования : mkvmerge v9.8.0 ('Kuglblids') 64bit Библиотека кодирования : libebml v1.3.4 + libmatroska v1.4.5 Обложка : Yes Attachments : cover.jpg

Видео Идентификатор : 1 Формат : HEVC Формат/Информация : High Efficiency Video Coding Профиль формата : Main [email protected]@High Идентификатор кодека : V_MPEGH/ISO/HEVC Продолжительность : 1 ч. 40 м. Битрейт : 4317 Кбит/сек Ширина : 1920 пикселей Высота : 800 пикселей Соотношение сторон : 2,40:1 Режим частоты кадров : Постоянный Частота кадров : 23,976 (24000/1001) кадра/сек Цветовое пространство : YUV Субдискретизация насыщенности : 4:2:0 Битовая глубина : 10 бит Бит/(Пиксели*Кадры) : 0.117 Размер потока : 3,03 Гбайт (77%) Заголовок : HEVC.CLUB Библиотека кодирования : x265 2.2+22-20217c8af8ac:[Windows][GCC 6.2.0][64 bit] 10bit Настройки программы : cpuid=1173503 / frame-threads=3 / numa-pools=8 / wpp / no-pmode / no-pme / no-psnr / ssim / log-level=2 / input-csp=1 / input-res=1920x800 / interlace=0 / total-frames=0 / level-idc=41 / high-tier=1 / uhd-bd=0 / ref=6 / no-allow-non-conformance / repeat-headers / annexb / aud / hrd / info / hash=0 / no-temporal-layers / open-gop / min-keyint=23 / keyint=250 / bframes=8 / b-adapt=2 / b-pyramid / bframe-bias=0 / rc-lookahead=60 / lookahead-slices=1 / scenecut=40 / no-intra-refresh / ctu=64 / min-cu-size=8 / no-rect / no-amp / max-tu-size=32 / tu-inter-depth=3 / tu-intra-depth=3 / limit-tu=0 / rdoq-level=1 / signhide / no-tskip / nr-intra=0 / nr-inter=0 / no-constrained-intra / no-strong-intra-smoothing / max-merge=2 / limit-refs=3 / no-limit-modes / me=1 / subme=4 / merange=64 / temporal-mvp / weightp / weightb / no-analyze-src-pics / deblock=-3:-3 / no-sao / no-sao-non-deblock / rd=4 / no-early-skip / no-rskip / no-fast-intra / no-tskip-fast / no-cu-lossless / no-b-intra / rdpenalty=0 / psy-rd=1.60 / psy-rdoq=2.30 / no-rd-refine / analysis-mode=0 / no-lossless / cbqpoffs=0 / crqpoffs=0 / rc=crf / crf=22.0 / qcomp=0.80 / qpstep=6 / stats-write=0 / stats-read=0 / vbv-maxrate=50000 / vbv-bufsize=50000 / vbv-init=0.9 / crf-max=0.0 / crf-min=0.0 / ipratio=1.50 / pbratio=1.00 / aq-mode=1 / aq-strength=0.20 / no-cutree / zone-count=0 / no-strict-cbr / qg-size=32 / no-rc-grain / qpmax=69 / qpmin=0 / sar=1 / overscan=0 / videoformat=5 / range=0 / colorprim=2 / transfer=2 / colormatrix=1 / chromaloc=0 / display-window=0 / max-cll=0,0 / min-luma=0 / max-luma=1023 / log2-max-poc-lsb=8 / vui-timing-info / vui-hrd-info / slices=1 / opt-qp-pps / opt-ref-list-length-pps / no-multi-pass-opt-rps / scenecut-bias=0.05 / no-opt-cu-delta-qp / no-aq-motion Default : Да Forced : Да Цветовой диапазон : Limited Коэффициенты матрицы : BT.709

Аудио #1 Идентификатор : 2 Формат : AC-3 Формат/Информация : Audio Coding 3 Расширение режима : CM (complete main) Параметр Endianness формата : Big Идентификатор кодека : A_AC3 Продолжительность : 1 ч. 40 м. Вид битрейта : Постоянный Битрейт : 640 Кбит/сек Каналы : 6 каналов Расположение каналов : Front: L C R, Side: L R, LFE Частота : 48,0 КГц Частота кадров : 31,250 кадров/сек (1536 spf) Битовая глубина : 16 бит Метод сжатия : С потерями Размер потока : 460 Мбайт (11%) Заголовок : Dub Язык : Russian Default : Да Forced : Нет

Аудио #2 Идентификатор : 3 Формат : AC-3 Формат/Информация : Audio Coding 3 Расширение режима : CM (complete main) Параметр Endianness формата : Big Идентификатор кодека : A_AC3 Продолжительность : 1 ч. 40 м. Вид битрейта : Постоянный Битрейт : 640 Кбит/сек Каналы : 6 каналов Расположение каналов : Front: L C R, Side: L R, LFE Частота : 48,0 КГц Частота кадров : 31,250 кадров/сек (1536 spf) Битовая глубина : 16 бит Метод сжатия : С потерями Размер потока : 460 Мбайт (11%) Заголовок : Original Язык : English Default : Нет Forced : Нет

Текст #1 Идентификатор : 4 Формат : UTF-8 Идентификатор кодека : S_TEXT/UTF8 Идентификатор кодека/Информация : UTF-8 Plain Text Продолжительность : 1 ч. 36 м. Битрейт : 70 бит/сек Count of elements : 973 Размер потока : 49,8 Кбайт (0%) Заголовок : Full Язык : Russian Default : Нет Forced : Нет

Текст #2 Идентификатор : 5 Формат : UTF-8 Идентификатор кодека : S_TEXT/UTF8 Идентификатор кодека/Информация : UTF-8 Plain Text Продолжительность : 1 ч. 35 м. Битрейт : 40 бит/сек Count of elements : 954 Размер потока : 28,7 Кбайт (0%) Заголовок : Full Язык : English Default : Нет Forced : Нет

Меню 00:00:00.000 : en:Start 00:06:51.702 : en:Fuller Stumbles 00:12:55.649 : en:Detective McBain 00:19:57.321 : en:Jane Fuller 00:28:39.634 : en:Jason Whitney 00:36:42.909 : en:Hall is Confronted 00:42:00.017 : en:Consciousness Transfer 00:46:25.532 : en:Download Completed 00:51:46.853 : en:Grierson's Antique Store 00:59:19.472 : en:Wilshire Grand Hotel 01:03:10.870 : en:Connection Terminated 01:09:22.032 : en:Tom Jones 01:17:07.164 : en:Deja vu 01:22:25.982 : en:Under Arrest 01:28:17.125 : en:Douglas' Alibi 01:34:09.977 : en:Grierson's Memory

main-rutor.org

/ The Thirteenth Floor (1999) BDRip 1080p / 60 FPS R.G. HD-Films » HDReactor. , HD !

GeneralUnique ID : 236776730517930235260391613677891983303 (0xB2218A1F8BDCB1978063D6F7F85F97C7)Complete name : H:The Thirteenth Floor\The_Thirteenth_Floor.BDRip.1080p.60fps - R.G. HD-Films.mkvFormat : MatroskaFormat version : Version 4 / Version 2File size : 10.6 GiBDuration : 1h 40mnOverall bit rate : 15.1 MbpsMovie name : The Thirteenth Floor (1999) BDRip 1080p 60fps - R.G. HD-FilmsEncoded date : UTC 2015-06-06 07:27:30Writing application : mkvmerge v7.9.0 ('Birds') 64bitWriting library : libebml v1.3.1 + libmatroska v1.4.2Attachment : Yes

VideoID : 1Format : AVCFormat/Info : Advanced Video CodecFormat profile : [email protected]Format settings, CABAC : YesFormat settings, ReFrames : 4 framesCodec ID : V_MPEG4/ISO/AVCDuration : 1h 40mnBit rate : 13.8 MbpsWidth : 1 920 pixelsHeight : 800 pixelsDisplay aspect ratio : 2.40:1Frame rate : 59.940 fpsColor space : YUVChroma subsampling : 4:2:0Bit depth : 8 bitsScan type : ProgressiveBits/(Pixel*Frame) : 0.150Stream size : 9.47 GiB (90%)Writing library : x264 core 146 r2538 121396cEncoding settings : cabac=1 / ref=4 / deblock=1:0:0 / analyse=0x3:0x113 / me=umh / subme=11 / psy=1 / psy_rd=1.00:0.10 / mixed_ref=1 / me_range=32 / chroma_me=1 / trellis=2 / 8x8dct=1 / cqm=0 / deadzone=21,11 / fast_pskip=0 / chroma_qp_offset=-3 / threads=6 / lookahead_threads=1 / sliced_threads=0 / nr=0 / decimate=1 / interlaced=0 / bluray_compat=0 / constrained_intra=0 / bframes=3 / b_pyramid=2 / b_adapt=2 / b_bias=0 / direct=3 / weightb=1 / open_gop=0 / weightp=2 / keyint=600 / keyint_min=59 / scenecut=40 / intra_refresh=0 / rc_lookahead=60 / rc=2pass / mbtree=1 / bitrate=13800 / ratetol=1.0 / qcomp=0.60 / qpmin=0 / qpmax=69 / qpstep=4 / cplxblur=20.0 / qblur=0.5 / vbv_maxrate=50000 / vbv_bufsize=62500 / nal_hrd=none / filler=0 / ip_ratio=1.40 / aq=1:1.00Language : EnglishDefault : YesForced : No

Audio #1ID : 2Format : AC-3Format/Info : Audio Coding 3Mode extension : CM (complete main)Codec ID : A_AC3Duration : 1h 40mnBit rate mode : ConstantBit rate : 640 KbpsChannel(s) : 6 channelsChannel positions : Front: L C R, Side: L R, LFESampling rate : 48.0 KHzBit depth : 16 bitsCompression mode : LossyStream size : 460 MiB (4%)Title : Language : RussianDefault : YesForced : No

Audio #2ID : 3Format : AC-3Format/Info : Audio Coding 3Mode extension : CM (complete main)Codec ID : A_AC3Duration : 1h 40mnBit rate mode : ConstantBit rate : 640 KbpsChannel(s) : 6 channelsChannel positions : Front: L C R, Side: L R, LFESampling rate : 48.0 KHzBit depth : 16 bitsCompression mode : LossyStream size : 460 MiB (4%)Title : OriginalLanguage : EnglishDefault : NoForced : No

Text #1ID : 4Format : UTF-8Codec ID : S_TEXT/UTF8Codec ID/Info : UTF-8 Plain TextTitle : Rus (srt)Language : RussianDefault : NoForced : No

Text #2ID : 5Format : UTF-8Codec ID : S_TEXT/UTF8Codec ID/Info : UTF-8 Plain TextTitle : Eng (srt)Language : EnglishDefault : NoForced : No

Menu00:00:00.000 : ru: Start00:06:51.702 : ru: Fuller Stumbles00:12:55.649 : ru: Detective McBain00:19:57.321 : ru: Jane Fuller00:28:39.634 : ru: Jason Whitney00:36:42.909 : ru: Hall is Confronted00:42:00.017 : ru: Consciousness Transfer00:46:25.532 : ru: Download Completed00:51:46.853 : ru: Grierson's Antique Store00:59:19.472 : ru: Wilshire Grand Hotel01:03:10.870 : ru: Connection Terminated01:09:22.032 : ru: Tom Jones01:17:07.164 : ru: Deja vu01:22:25.982 : ru: Under Arrest01:28:17.125 : ru: Douglas' Alibi01:34:09.977 : ru: Grierson's Memory

hdreactor.info

Скачать фильм Тринадцатый этаж через торрент в хорошем качестве бесплатно HDRip

Размер: 745 MB | Добавлен: 6 лет 11 мес. назад | Торрент скачан:182 раза
Реклама Дарим 3000 рублей за регистрацию, не упусти свой шанс получить шикарный бонус!!!

22-11-2010 09:24 Тринадцатый этаж Скачать торрент  

Тринадцатый этаж / The Thirteenth Floor

Год выпуска: 1999Страна: Германия, СШАЖанр: фантастика, триллерПродолжительность: 01:40:30Перевод: Профессиональный (полное дублирование)Тип релиза: Лицензия

Режиссер: Джозеф Руснак / Josef Rusnak

В ролях: Крэйг Бирко, Армин Мюллер-Шталь, Гретхен Мол, Винсент Д`Онофрио, Деннис Хейсбёрт, Steven Schub, Джереми Робертс, Риф Хаттон, Леон Риппи, Джанет МакЛахлан

Описание: Убит Хеннон Фуллер - создатель программы виртуальной реальности, имитирующей США образца 1937 года. Полиция подозревает в убийстве Дугласа Холла, со смертью Фуллера ставшего владельцем многомиллиардной корпорации. Подозрительным выглядит и появление дочери Фуллера, о существовании которой никто не знал. Холл понимает, что узнать правду можно лишь в виртуальной реальности.

Доп. информация: «Тринадцатый этаж» вышел на экраны одновременно со знаменитой «Матрицей» братьев Вачовски, но на ее фоне оказался практически незамеченным.В 2000-ом году картина номинировалась на премию «Сатурн» (Saturn Award) в категории «лучший научно-фантастический фильм».Картина является экранизацией романа американского писателя Дэниела Фрэнсиса Гэлоуи (Daniel Francis Galouye, 1920-1976) «Симулакрон-3» (Simulacron-3), переизданный в Германии как «13-ый этаж» (The 13th Floor).Роман «Симулякрон-3» был впервые опубликован в США в 1964 году и является одним из самых первых литературных описаний виртуальной реальности.

Качество: HDRipФормат: AVIВидео кодек: XviDАудио кодек: MP3 Видео: XviD, 640x272 (2,353 : 1), 23.976 fps, 902 kbps, 0.216 (bits/pixel)/frameАудио: Русский, MP3 (MPEG-1 Layer 3), 48000 Hz, 128 kbps (CBR), stereo

Скачать Тринадцатый этаж через торрент http://piratbit.in.ua/71c2c193e555d59c3bc6fc918f166d65.jpg Скачать фильм Тринадцатый этаж через торрент бесплантно в хорошем качестве Описание: Убит Хеннон Фуллер - создатель программы виртуальной реальности, имитирующей США образца 1937 года. Полиция подозревает в ... 2010-11-22 09:24 8 10 1

Loading...

Loading...

Рекламный пират

22-11-2010 09:30 Тринадцатый этаж Скачать торрент  

СПАСИБО за фантастику.

22-11-2010 10:18 Тринадцатый этаж Скачать торрент  

Я так и не понял,про что фильм?

22-11-2010 10:20 Тринадцатый этаж Скачать торрент  

Классный фильм!!!!!!!!!!!

22-11-2010 10:58 Тринадцатый этаж Скачать торрент  

Хороший фильм! Любителям Матрицы,Начало,Нирвана-рекомендую к просмотру.

22-11-2010 11:16 Тринадцатый этаж Скачать торрент  

22-11-2010 15:41 Тринадцатый этаж Скачать торрент  

смотрел этот фильм раза 3, кто не смотрел - обязательно посмотрите!!!

Дорогой пользователь! Огромная просьба, поблагодарите релизера, оцените раздачу и оставьте свои комментарий, если Вы скачали Тринадцатый этаж через торрент бесплатно! Внесите свою лепту в развитие PiratBit!

Комментировать посты могут только пользователи прошедшие не сложную регистрацию

Тринадцатый этаж через торрент Скачать бесплатно Тринадцатый этаж Тринадцатый этаж скачать торрент Тринадцатый этаж смотреть онлайн Cкачать фильм Тринадцатый этаж бесплатно Тринадцатый этаж скачать торрент в хорошем качестве Тринадцатый этаж смотреть онлайн бесплатно в хорошем качестве

Вы не можете начинать темыВы не можете отвечать на сообщенияВы не можете редактировать свои сообщенияВы не можете удалять свои сообщенияВы не можете голосовать в опросахВы не можете прикреплять файлы к сообщениямВы можете скачивать файлы

piratbit.ru

Тринадцатый этаж (1999) HD 1080p скачать торрент в хорошем качестве

Название: Тринадцатый этажОригинальное название: The Thirteenth Floor

Год выпуска: 1999Страна: Германия, СШАЖанр: фантастика, триллер, мелодрама, детективПродолжительность: 01:40:30Перевод: ДублированныйСубтитры: русские, английские

В ролях: Крэйг Бирко, Гретхен Мол, Армин Мюллер-Шталь, Винсент Д'Онофрио, Деннис Хейсбёрт, Стивен Шуб, Джереми Робертс, Риф Хаттон, Леон Риппи, Джанет МакЛахлан Режиссёр: Йозеф Руснак

Описание: На тринадцатом этаже компьютерной корпорации была разработана совершенная модель виртуальной реальности, создание которой повлекло за собой цепь таинственных убийств. Разгадать загадку можно, лишь погрузившись в иное измерение, где может быть ответ на многие вопросы, а может быть — страшная нереальность…

Качество: BDRip 1080pФормат: MKVВидео кодек: [email protected]Аудио кодек: AC3Видео: 1920x800, 23,976 fps, HEVC, ~4317 kbps, 10bitАудио: Rus, 48 kHz/16-bit, AC3 5.1, ~640 kbps | ДубляжАудио: Eng, 48 kHz/16-bit, AC3 5.1, ~640 kbps | ОригиналНавигация по главам: Присутствует

- H.265/HEVC (High Efficiency Video Coding) - это новый стандарт кодирования видео.- Стандарт H.265/HEVC является логическим продолжением стандарта H.264/AVC (Advanced Video Coding), и характеризуется более эффективными алгоритмами сжатия, а также поддержкой высокого разрешения вплоть до 8K UHD (8192x4320). Первая версия стандарта H.265 была опубликована в начале 2013 года. - Рипы в фомате HEVC поддерживается не всеми аппаратными проигрывателями.- Для корректного воспроизведения может потребоваться обновление ПО.- Владельцам несовместимого железа просьба не беспокоить, есть альтернативные релизы.

ОбщееУникальный идентификатор : 174821888102554958023334014866628371754 (0x8385788E6A9C456FAE3E485E61D1652A)Полное имя : Y:HEVC MOVIESThe.Thirteenth.Floor.1999.1080p_HEVCCLUB.mkvФормат : MatroskaВерсия формата : Version 4 / Version 2Размер файла : 3,93 ГбайтПродолжительность : 1 ч. 40 м.Общий поток : 5600 Кбит/секНазвание фильма : The Thirteenth Floor (1999) - HEVC.CLUBДата кодирования : UTC 2017-02-03 08:04:52Программа кодирования : mkvmerge v9.8.0 ('Kuglblids') 64bitБиблиотека кодирования : libebml v1.3.4 + libmatroska v1.4.5Обложка : YesAttachments : cover.jpg

ВидеоИдентификатор : 1Формат : HEVCФормат/Информация : High Efficiency Video CodingПрофиль формата : Main [email protected]@HighИдентификатор кодека : V_MPEGH/ISO/HEVCПродолжительность : 1 ч. 40 м.Битрейт : 4317 Кбит/секШирина : 1920 пикселейВысота : 800 пикселейСоотношение сторон : 2,40:1Режим частоты кадров : ПостоянныйЧастота кадров : 23,976 (24000/1001) кадра/секЦветовое пространство : YUVСубдискретизация насыщенности : 4:2:0Битовая глубина : 10 битБит/(Пиксели*Кадры) : 0.117Размер потока : 3,03 Гбайт (77%)Заголовок : HEVC.CLUBБиблиотека кодирования : x265 2.2+22-20217c8af8ac:[Windows][GCC 6.2.0][64 bit] 10bitНастройки программы : cpuid=1173503 / frame-threads=3 / numa-pools=8 / wpp / no-pmode / no-pme / no-psnr / ssim / log-level=2 / input-csp=1 / input-res=1920x800 / interlace=0 / total-frames=0 / level-idc=41 / high-tier=1 / uhd-bd=0 / ref=6 / no-allow-non-conformance / repeat-headers / annexb / aud / hrd / info / hash=0 / no-temporal-layers / open-gop / min-keyint=23 / keyint=250 / bframes=8 / b-adapt=2 / b-pyramid / bframe-bias=0 / rc-lookahead=60 / lookahead-slices=1 / scenecut=40 / no-intra-refresh / ctu=64 / min-cu-size=8 / no-rect / no-amp / max-tu-size=32 / tu-inter-depth=3 / tu-intra-depth=3 / limit-tu=0 / rdoq-level=1 / signhide / no-tskip / nr-intra=0 / nr-inter=0 / no-constrained-intra / no-strong-intra-smoothing / max-merge=2 / limit-refs=3 / no-limit-modes / me=1 / subme=4 / merange=64 / temporal-mvp / weightp / weightb / no-analyze-src-pics / deblock=-3:-3 / no-sao / no-sao-non-deblock / rd=4 / no-early-skip / no-rskip / no-fast-intra / no-tskip-fast / no-cu-lossless / no-b-intra / rdpenalty=0 / psy-rd=1.60 / psy-rdoq=2.30 / no-rd-refine / analysis-mode=0 / no-lossless / cbqpoffs=0 / crqpoffs=0 / rc=crf / crf=22.0 / qcomp=0.80 / qpstep=6 / stats-write=0 / stats-read=0 / vbv-maxrate=50000 / vbv-bufsize=50000 / vbv-init=0.9 / crf-max=0.0 / crf-min=0.0 / ipratio=1.50 / pbratio=1.00 / aq-mode=1 / aq-strength=0.20 / no-cutree / zone-count=0 / no-strict-cbr / qg-size=32 / no-rc-grain / qpmax=69 / qpmin=0 / sar=1 / overscan=0 / videoformat=5 / range=0 / colorprim=2 / transfer=2 / colormatrix=1 / chromaloc=0 / display-window=0 / max-cll=0,0 / min-luma=0 / max-luma=1023 / log2-max-poc-lsb=8 / vui-timing-info / vui-hrd-info / slices=1 / opt-qp-pps / opt-ref-list-length-pps / no-multi-pass-opt-rps / scenecut-bias=0.05 / no-opt-cu-delta-qp / no-aq-motionDefault : ДаForced : ДаЦветовой диапазон : LimitedКоэффициенты матрицы : BT.709

Аудио #1Идентификатор : 2Формат : AC-3Формат/Информация : Audio Coding 3Расширение режима : CM (complete main)Параметр Endianness формата : BigИдентификатор кодека : A_AC3Продолжительность : 1 ч. 40 м.Вид битрейта : ПостоянныйБитрейт : 640 Кбит/секКаналы : 6 каналовРасположение каналов : Front: L C R, Side: L R, LFEЧастота : 48,0 КГцЧастота кадров : 31,250 кадров/сек (1536 spf)Битовая глубина : 16 битМетод сжатия : С потерямиРазмер потока : 460 Мбайт (11%)Заголовок : DubЯзык : RussianDefault : ДаForced : Нет

Аудио #2Идентификатор : 3Формат : AC-3Формат/Информация : Audio Coding 3Расширение режима : CM (complete main)Параметр Endianness формата : BigИдентификатор кодека : A_AC3Продолжительность : 1 ч. 40 м.Вид битрейта : ПостоянныйБитрейт : 640 Кбит/секКаналы : 6 каналовРасположение каналов : Front: L C R, Side: L R, LFEЧастота : 48,0 КГцЧастота кадров : 31,250 кадров/сек (1536 spf)Битовая глубина : 16 битМетод сжатия : С потерямиРазмер потока : 460 Мбайт (11%)Заголовок : OriginalЯзык : EnglishDefault : НетForced : Нет

Текст #1Идентификатор : 4Формат : UTF-8Идентификатор кодека : S_TEXT/UTF8Идентификатор кодека/Информация : UTF-8 Plain TextПродолжительность : 1 ч. 36 м.Битрейт : 70 бит/секCount of elements : 973Размер потока : 49,8 Кбайт (0%)Заголовок : FullЯзык : RussianDefault : НетForced : Нет

Текст #2Идентификатор : 5Формат : UTF-8Идентификатор кодека : S_TEXT/UTF8Идентификатор кодека/Информация : UTF-8 Plain TextПродолжительность : 1 ч. 35 м.Битрейт : 40 бит/секCount of elements : 954Размер потока : 28,7 Кбайт (0%)Заголовок : FullЯзык : EnglishDefault : НетForced : Нет

Меню00:00:00.000 : en:Start00:06:51.702 : en:Fuller Stumbles00:12:55.649 : en:Detective McBain00:19:57.321 : en:Jane Fuller00:28:39.634 : en:Jason Whitney00:36:42.909 : en:Hall is Confronted00:42:00.017 : en:Consciousness Transfer00:46:25.532 : en:Download Completed00:51:46.853 : en:Grierson's Antique Store00:59:19.472 : en:Wilshire Grand Hotel01:03:10.870 : en:Connection Terminated01:09:22.032 : en:Tom Jones01:17:07.164 : en:Deja vu01:22:25.982 : en:Under Arrest01:28:17.125 : en:Douglas' Alibi01:34:09.977 : en:Grierson's Memory

rutorg2.ru

Скачать фильм Тринадцатый этаж через торрент в хорошем качестве бесплатно 720p от potroks] DUB

GeneralUnique ID                   : 241155701072821110742268188619395091499 (0xB56CE60A5C36FFE59000A2A38970CC2B)Complete name               : Trinadtcatyi.Etazh.1999.4xRus.Ukr.Eng.BDRip 720p.by_potroks.mkvFormat                      : MatroskaFormat version              : Version 4 / Version 2File size                   : 5.76 GiBDuration                    : 1h 40mnOverall bit rate            : 8 202 KbpsMovie name                  : The Thirteenth Floor (1999)Encoded date                : UTC 2016-05-01 05:53:58Writing application         : mkvmerge v5.9.0 ('On The Loose') built on Dec 15 2012 16:39:58Writing library             : libebml v1.3.0 + libmatroska v1.4.0

VideoID                          : 1Format                      : AVCFormat/Info                 : Advanced Video CodecFormat profile              : [email protected] settings, CABAC      : YesFormat settings, ReFrames   : 9 framesCodec ID                    : V_MPEG4/ISO/AVCDuration                    : 1h 40mnBit rate                    : 5 066 KbpsWidth                       : 1 280 pixelsHeight                      : 534 pixelsDisplay aspect ratio        : 2.40:1Frame rate mode             : ConstantFrame rate                  : 23.976 (24000/1001) fpsColor space                 : YUVChroma subsampling          : 4:2:0Bit depth                   : 8 bitsScan type                   : ProgressiveBits/(Pixel*Frame)          : 0.309Stream size                 : 3.44 GiB (60%)Title                       : potroksWriting library             : x264 core 148 r2665M a01e339Encoding settings           : cabac=1 / ref=9 / deblock=1:-3:-3 / analyse=0x3:0x133 / me=umh / subme=11 / psy=1 / psy_rd=0.96:0.00 / mixed_ref=1 / me_range=48 / chroma_me=1 / trellis=2 / 8x8dct=1 / cqm=0 / deadzone=21,11 / fast_pskip=0 / chroma_qp_offset=-2 / threads=9 / lookahead_threads=2 / sliced_threads=0 / nr=0 / decimate=1 / interlaced=0 / bluray_compat=0 / constrained_intra=0 / bframes=10 / b_pyramid=2 / b_adapt=2 / b_bias=0 / direct=3 / weightb=1 / open_gop=0 / weightp=2 / keyint=240 / keyint_min=23 / scenecut=40 / intra_refresh=0 / rc=2pass / mbtree=0 / bitrate=5066 / ratetol=1.0 / qcomp=0.70 / qpmin=0 / qpmax=69 / qpstep=4 / cplxblur=20.0 / qblur=0.5 / ip_ratio=1.40 / pb_ratio=1.30 / aq=1:0.85Language                    : EnglishDefault                     : YesForced                      : No

Audio #1ID                          : 2Format                      : AC-3Format/Info                 : Audio Coding 3Mode extension              : CM (complete main)Format settings, Endianness : BigCodec ID                    : A_AC3Duration                    : 1h 40mnBit rate mode               : ConstantBit rate                    : 640 KbpsChannel(s)                  : 6 channelsChannel positions           : Front: L C R, Side: L R, LFESampling rate               : 48.0 KHzFrame rate                  : 31.250 fps (1536 spf)Compression mode            : LossyStream size                 : 460 MiB (8%)Title                       : Dub | DD 5.1 @ 640 kbps - Blu-ray CEELanguage                    : RussianDefault                     : YesForced                      : No

Audio #2ID                          : 3Format                      : AC-3Format/Info                 : Audio Coding 3Mode extension              : CM (complete main)Format settings, Endianness : BigCodec ID                    : A_AC3Duration                    : 1h 40mnBit rate mode               : ConstantBit rate                    : 384 KbpsChannel(s)                  : 6 channelsChannel positions           : Front: L C R, Side: L R, LFESampling rate               : 48.0 KHzFrame rate                  : 31.250 fps (1536 spf)Compression mode            : LossyStream size                 : 276 MiB (5%)Title                       : DVO | DD 5.1 @ 384 kbps - R5Language                    : RussianDefault                     : NoForced                      : No

Audio #3ID                          : 4Format                      : AC-3Format/Info                 : Audio Coding 3Mode extension              : CM (complete main)Format settings, Endianness : BigCodec ID                    : A_AC3Duration                    : 1h 40mnBit rate mode               : ConstantBit rate                    : 192 KbpsChannel(s)                  : 2 channelsChannel positions           : Front: L RSampling rate               : 48.0 KHzFrame rate                  : 31.250 fps (1536 spf)Compression mode            : LossyStream size                 : 138 MiB (2%)Title                       : MVO | DD 2.0 @ 192 kbps - First channelLanguage                    : RussianDefault                     : NoForced                      : No

Audio #4ID                          : 5Format                      : AC-3Format/Info                 : Audio Coding 3Mode extension              : CM (complete main)Format settings, Endianness : BigCodec ID                    : A_AC3Duration                    : 1h 40mnBit rate mode               : ConstantBit rate                    : 640 KbpsChannel(s)                  : 6 channelsChannel positions           : Front: L C R, Side: L R, LFESampling rate               : 48.0 KHzFrame rate                  : 31.250 fps (1536 spf)Compression mode            : LossyStream size                 : 460 MiB (8%)Title                       : AVO | DD 5.1 @ 640 kbps - D.YesarevLanguage                    : RussianDefault                     : NoForced                      : No

Audio #5ID                          : 6Format                      : AC-3Format/Info                 : Audio Coding 3Mode extension              : CM (complete main)Format settings, Endianness : BigCodec ID                    : A_AC3Duration                    : 1h 40mnBit rate mode               : ConstantBit rate                    : 448 KbpsChannel(s)                  : 6 channelsChannel positions           : Front: L C R, Side: L R, LFESampling rate               : 48.0 KHzFrame rate                  : 31.250 fps (1536 spf)Compression mode            : LossyStream size                 : 322 MiB (5%)Title                       : AVO | DD 5.1 @ 448 kbps - Yu.ZhivovLanguage                    : RussianDefault                     : NoForced                      : No

Audio #6ID                          : 7Format                      : AC-3Format/Info                 : Audio Coding 3Mode extension              : CM (complete main)Format settings, Endianness : BigCodec ID                    : A_AC3Duration                    : 1h 40mnBit rate mode               : ConstantBit rate                    : 192 KbpsChannel(s)                  : 2 channelsChannel positions           : Front: L RSampling rate               : 48.0 KHzFrame rate                  : 31.250 fps (1536 spf)Compression mode            : LossyStream size                 : 138 MiB (2%)Title                       : MVO | DD 2.0 @ 192 kbps - TK HTHLanguage                    : UkrainianDefault                     : NoForced                      : No

Audio #7ID                          : 8Format                      : AC-3Format/Info                 : Audio Coding 3Mode extension              : CM (complete main)Format settings, Endianness : BigCodec ID                    : A_AC3Duration                    : 1h 40mnBit rate mode               : ConstantBit rate                    : 640 KbpsChannel(s)                  : 6 channelsChannel positions           : Front: L C R, Side: L R, LFESampling rate               : 48.0 KHzFrame rate                  : 31.250 fps (1536 spf)Compression mode            : LossyStream size                 : 460 MiB (8%)Title                       : Original | DD 5.1 @ 640 kbpsLanguage                    : EnglishDefault                     : NoForced                      : No

Text #1ID                          : 9Format                      : UTF-8Codec ID                    : S_TEXT/UTF8Codec ID/Info               : UTF-8 Plain TextLanguage                    : RussianDefault                     : NoForced                      : No

Text #2ID                          : 10Format                      : UTF-8Codec ID                    : S_TEXT/UTF8Codec ID/Info               : UTF-8 Plain TextLanguage                    : EnglishDefault                     : NoForced                      : No

Menu00:00:00.000                : en:Start00:06:51.702                : en:Fuller Stumbles00:12:55.649                : en:Detective McBain00:19:57.321                : en:Jane Fuller00:28:39.634                : en:Jason Whitney00:36:42.909                : en:Hall is Confronted00:42:00.017                : en:Consciousness Transfer00:46:25.532                : en:Download Completed00:51:46.853                : en:Grierson's Antique Store00:59:19.472                : en:Wilshire Grand Hotel01:03:10.870                : en:Connection Terminated01:09:22.032                : en:Tom Jones01:17:07.164                : en:Deja vu01:22:25.982                : en:Under Arrest01:28:17.125                : en:Douglas' Alibi01:34:09.977                : en:Grierson's Memory

piratbit.ru

Скачать фильм Тринадцатый этаж через торрент в хорошем качестве бесплатно Тринадцатый этаж / The Thirteenth Floor (Йозеф Руснак) [1999 г.

GeneralID : 1 (0x1)Complete name : /etc/seedbox/home/kep/data/Thirteenth.Floor.1999.BDRemux.HDTracker/BDMV/STREAM/00000.m2tsFormat : BDAVFormat/Info : Blu-ray VideoFile size : 23.3 GiBDuration : 1h 40mnOverall bit rate mode : VariableOverall bit rate : 33.2 MbpsMaximum Overall bit rate : 35.5 Mbps

VideoID : 4113 (0x1011)Menu ID : 1 (0x1)Format : AVCFormat/Info : Advanced Video CodecFormat profile : [email protected] settings, CABAC : YesFormat settings, ReFrames : 2 framesCodec ID : 27Duration : 1h 40mnBit rate mode : VariableWidth : 1 920 pixelsHeight : 1 080 pixelsDisplay aspect ratio : 16:9Frame rate : 23.976 fpsColor space : YUVChroma subsampling : 4:2:0Bit depth : 8 bitsScan type : Progressive

Audio #1ID : 4352 (0x1100)Menu ID : 1 (0x1)Format : DTSFormat/Info : Digital Theater SystemsFormat profile : MA / CoreMode : 16Format settings, Endianness : BigMuxing mode : Stream extensionCodec ID : 134Duration : 1h 40mnBit rate mode : VariableBit rate : Unknown / 1 509 KbpsChannel count : 6 channelsChannel positions : Front: L C R, Side: L R, LFESampling rate : 48.0 KHzBit depth : 24 bitsCompression mode : Lossless / LossyLanguage : Russian

Audio #2ID : 4353 (0x1101)Menu ID : 1 (0x1)Format : AC-3Format/Info : Audio Coding 3Mode extension : CM (complete main)Format settings, Endianness : BigCodec ID : 129Duration : 1h 40mnBit rate mode : ConstantBit rate : 384 KbpsChannel count : 6 channelsChannel positions : Front: L C R, Side: L R, LFESampling rate : 48.0 KHzBit depth : 16 bitsCompression mode : LossyStream size : 276 MiB (1%)Language : Russian

Audio #3ID : 4354 (0x1102)Menu ID : 1 (0x1)Format : AC-3Format/Info : Audio Coding 3Mode extension : CM (complete main)Format settings, Endianness : BigCodec ID : 129Duration : 1h 40mnBit rate mode : ConstantBit rate : 448 KbpsChannel count : 6 channelsChannel positions : Front: L C R, Side: L R, LFESampling rate : 48.0 KHzBit depth : 16 bitsCompression mode : LossyStream size : 322 MiB (1%)Language : Russian

Audio #4ID : 4355 (0x1103)Menu ID : 1 (0x1)Format : DTSFormat/Info : Digital Theater SystemsFormat profile : MA / CoreMode : 16Format settings, Endianness : BigMuxing mode : Stream extensionCodec ID : 134Duration : 1h 40mnBit rate mode : VariableBit rate : Unknown / 1 509 KbpsChannel count : 6 channelsChannel positions : Front: L C R, Side: L R, LFESampling rate : 48.0 KHzBit depth : 24 bitsCompression mode : Lossless / LossyLanguage : English

Text #1ID : 4608 (0x1200)Menu ID : 1 (0x1)Format : PGSCodec ID : 144Delay relative to video : 1s 1msLanguage : Russian

Text #2ID : 4609 (0x1201)Menu ID : 1 (0x1)Format : PGSCodec ID : 144Language : English

piratbit.ru

Тринадцатый этаж 1999 - скачать бесплатно через торрент в хорошем качестве. Без регистрации

Название: Тринадцатый этаж / The Thirteenth Floor (1999) BDRip 720p HEVC | D
Качество видео: BDRip 720p
Перевод: Дублированный
Формат видео: MKV
Видео: [email protected] 1280x536, 23,976 fps, HEVC, ~1748 kbps, 10bit
Аудио: AC3 Rus, 48 kHz/16-bit, AC3 5.1, ~448 kbps | ДубляжEng, 48 kHz/16-bit, AC3 5.1, ~448 kbps | Оригинал
Скачать

Загрузка начнется в течение 5 сек.

1.86 GB

Название: Тринадцатый этаж / The Thirteenth Floor (1999) BDRip 720p от HELLYWOOD | D, P, P2, A
Перевод: Профессиональный (дублированный) Blu-ray EUR + Профессиональный (двухголосый, закадровый) R5 + Профессиональный (многоголосый, закадровый) Первый канал + Авторский (одноголосый, закадровый) Д.Есарев +
Формат видео: Matroska
Видео: 1280x534 at 23.976 fps, [email protected], ~5000 kbps avg
Аудио: Russian: 48 kHz, AC3, 3/2 (L,C,R,l,r) + LFE ch, ~640.00 kbps avg |Дубляж, Blu-ray EUR|Russian: 48 kHz, AC3, 3/2 (L,C,R,l,r) + LFE ch, ~384.00 kbps avg |Двухголосый закадровый, R5|Russian: 48 kHz, AC3, 2/0 (L,R) ch, ~192.00 kbps avg |Многоголосый закадровый, Первый канал|Russian: 48 kHz, AC3, 3/2 (L,C,R,l,r) + LFE ch, ~640.00 kbps avg |Авторский, Д.Есарев|Russian: 48 kHz, AC3, 3/2 (L,C,R,l,r) + LFE ch, ~448.00 kbps avg |Авторский, Ю.Живов|Ukrainian: 48 kHz, AC3, 2/0 (L,R) ch, ~192.00 kbps avg |Многоголосый закадровый, TK HTH|English: 48 kHz, AC3, 3/2 (L,C,R,l,r) + LFE ch, ~640.00 kbps avg
Скачать

Загрузка начнется в течение 5 сек.

5.76 GB

Название: Тринадцатый этаж / The Thirteenth Floor (1999) Blu-ray CEE 1080p | Лицензия
Качество видео: Blu-ray 1080p
Перевод: Профессиональный (полное дублирование) + Венгерский + Чешский + Польский + Оригинал (Английский) + Commentary
Формат видео: BDMV
Видео: MPEG-4 AVC Video 1920x1080 (16:9), 23.976 fps, MPEG-4 AVC Video, ~25766 kbps, High Profile 4.1
Аудио: Dolby TrueHD Audio, Dolby Digital Audio Dolby TrueHD Audio, Dolby Digital AudioDolby TrueHD Audio English 1641 kbps 5.1 / 48 kHz / 1641 kbps / 16-bit (AC3 Embedded: 5.1 / 48 kHz / 640 kbps)Dolby Digital Audio Czech 640 kbps 5.1 / 48 kHz / 640 kbpsDolby TrueHD Audio Hungarian 1662 kbps 5.1 / 48 kHz / 1662 kbps / 16-bit (AC3 Embedded: 5.1 / 48 kHz / 640 kbps)Dolby Digital Audio Polish 640 kbps 5.1 / 48 kHz / 640 kbpsDolby TrueHD Audio Russian 1573 kbps 5.1 / 48 kHz / 1573 kbps / 16-bit (AC3 Embedded: 5.1 / 48 kHz / 640 kbps)Dolby Digital Audio English 192 kbps 2.0 / 48 kHz / 192 kbps / DN -1dB / Dolby Surround
Скачать

Загрузка начнется в течение 5 сек.

28.38 GB

Название: Тринадцатый этаж / The Thirteenth Floor (1999) BDRip [720p] | ATV | D
Качество видео: BDRip [720p]
Перевод: Русский дублированный
Видео: H.264 1280x534 (2.40:1), 6 800 Kbps, 23.976 fps
Аудио: 1: АAС 2.0 150 kbps - Русский дублированный
Скачать

Загрузка начнется в течение 5 сек.

5.91 GB

Название: Тринадцатый этаж / The Thirteenth Floor (1999) BDRip-AVC
Качество видео: BDRip-AVC
Перевод: Дублированный
Видео: AVC 1152x480 at 23.976 fps, 2657 Kbps
Аудио: AC-3, 6 каналов, 48,0 КГц, 448 Кбит/сек
Скачать

Загрузка начнется в течение 5 сек.

2.18 GB

Название: Тринадцатый этаж / The Thirteenth Floor (1999) BDRip 1080p
Качество видео: BDRip 1080p
Перевод: Дублированный + Оригинал
Видео: x264 1920x800, 9777 Kbps, 23.976 fps
Аудио: AC-3, 6 ch, 640 kbps (Rus)AC-3, 6 ch, 640 kbps (Eng)
Скачать

Загрузка начнется в течение 5 сек.

7.76 GB

Название: Тринадцатый этаж / The Thirteenth Floor (1999) HDRip от Scarabey
Качество видео: HDRip
Перевод: Профессиональный (полное дублирование)
Видео: XviD 720x304 (2.37:1), 23.976 fps, XviD build 50 ~1580 kbps avg, 0.30 bit/pixel
Аудио: 48 kHz, AC3 Dolby Digital, 3/2 (L,C,R,l,r) + LFE ch, ~448.00 kbps avg
Скачать

Загрузка начнется в течение 5 сек.

1.43 GB

Название: Тринадцатый этаж / The Thirteenth Floor (1999) HDRip от Scarabey
Качество видео: HDRip
Перевод: Профессиональный (полное дублирование)
Видео: XviD 688x288 (2.39:1), 23.976 fps, XviD build 50 ~894 kbps avg, 0.19 bit/pixel
Аудио: 48 kHz, MPEG Layer 3, 2 ch, ~128.00 kbps avg
Скачать

Загрузка начнется в течение 5 сек.

741.84 MB

www.kinovit.net


Смотрите также