Три балбеса скачать торрент в хорошем качестве


Три балбеса (2012) (The Three Stooges)

48

Общая оценка

4.82

48 голосов

  • 4.8189 из 10, голосов:48

Можете оставить свой голос отметив одну из звездочек.

 

 

Рекомендаций 4

Всего рекомендаций 4

Скачали 78934

Дата выхода в России (или в Мире): 13.04.2012

Жанр: Зарубежный фильм, Комедия

us  tagHD 1080,  tagHD 720

Продолжительность: 01:32:04

Режиссеры: Бобби Фаррелли, Питер Фаррелли

В ролях: Шон Хейс, Уилл Сассо, Крис Диамантополос, Джейн Линч, София Вергара, Дженнифер Хадсон, Крэйг Бирко, Стивен Коллинз, Ларри Дэвид, Кирби Хейборн

Подкидыши Ларри, Кёрли и Мо выросли если и не полными кретинами, то уж звезд с неба точно не хватали. Видимо, от большого ума они, задавшись высокой целью спасти дом своего детства, вляпались в неприятную историю с убийством и в то же время стали героями фантастически успешного реалити-шоу на ТВ.

Создание картины:

  • Американская комедия по мотивам одноименной классической серии юмористических короткометражек середины 20 века.
  • Братья Фаррелли заявили, что не собирались делать трибьют или ремейк классических сюжетов о трех балбесах, но хотели создать новую историю с участием культовых персонажей, которая происходила бы в наши дни. При этом внешний вид и манеры героев должны были сохраниться. В качестве ориентира они назвали свою комедию «Тупой и еще тупее».
  • Работа над проектом началась еще в 2000 году. После перехода от компании к компании в 2008 году создатели получили зеленый свет от студии MGM, которая планировала выпустить ленту в конце 2009-го. Но из-за проблем с кастингом премьеру отложили на 2010 год, а затем MGM обанкротилась, и фильм достался студии 20th Century Fox.
  • На роль Ларри сначала был утвержден Шон Пенн / Sean Penn, но подготовка проекта затянулась, и актер предпочел уделить время благотворительности на Гаити. В марте 2009 года роль Мо была отданаБенисио дель Торо / Benicio del Toro, но затем он покинул проект.
  • Братья Фаррелли об участии Шона Пенна: «Это было реально, Шон хотел этого, и когда он заявил это, все захотели участвовать. Но он был очень занят Гаити. Если бы мы подождали пару лет, скорее всего, он сыграл бы роль, но мы итак прождали достаточно».
  • Также претендентами на роли были Джонни Ноксвилль / Johnny Knoxville, Энди Сэмберг / Andy Samberg и Шейн Джейкобсон / Shane Jacobson. На роль матери-настоятельницы рассматривали кандидатуру Шер / Cher.
  • Постоянный партнер братьев Фаррелли Джим Керри / Jim Carrey собирался сыграть Кёрли и даже набрал 18 кг, но решил не рисковать здоровьем (всего ему надо было набрать около 30 кг).
  • По сюжету фильма «Три балбеса» приют был основан в 1934 году. Именно в этом году была снята первая короткометражка про оригинальных балбесов.
  • Съемки фильма «Три балбеса» проходили с мая по июль 2011 года в штате Джорджия.
  • Бюджет фильма «Три балбеса» составил 30 миллионов долларов.
Интересные факты
  • Песня, которая играет, когда малышей подбрасывают в приют, — это «Road Runner» Джонатана Ричмана и Modern Lovers. Ричман сыграл одного из уличных гитаристов в фильме «Все без ума от Мэри» (1998), режиссером которого также являются Бобби Фаррелли и Питер Фаррелли.
  • Актер дубляжа Билли Уэст (который взял за основу для своего голоса Ларри Файна, когда озвучивал Стимпи в сериале «Шоу Рена и Стимпи», 1991-1998) работал на съемочной площадке в качестве тренера диалекта для Шона Хейса, который играл Ларри.
  • Шэйн Джейкобсон и Билл Чотт рассматривались на роль Кёрли.
  • Знаменитое американское комедийное трио Three Stooges зародилось в 1930 году в составе Ларри Файна, Мо Ховарда и Шемпа Ховарда. В 1933 году Шемп Ховард оставил труппу, чтобы заниматься сольной карьерой, и его заменил младший брат Шемпа и Мо, Джером, выступавший под сценическим именем Кёрли (Кудряшка). В своем наиболее известном составе трио просуществовало почти 14 лет, снявшись за это время во многих фильмах. В мае 1946 года сценическую карьеру Кёрли Ховарда оборвал апоплексический удар, и на его место на несколько лет вернулся Шемп Ховард. Позднее Шемпа Ховарда и Кёрли Ховарда (после смерти последнего в 1952 году) заменяли комики Джо Бессер и Джо ДеРита. В таком виде трио просуществовало вплоть до начала 1970-х, продолжая появляться и пользоваться большим успехом на телевидении и в кино. За все время своего существования Three Stooges снялись в 220 фильмах, главным образом в короткометражках.
  • Проект находился в разработке на протяжении почти 14 лет. За это время по очередности им занимались студии Columbia Pictures, Warner Bros., MGM и 20th Century Fox. Основной трудностью все это время был кастинг актеров на три ключевые роли.
  • После того как дело наконец сдвинулось с мертвой точки, три главные роли были закреплены за Бенисио дель Торо, Шоном Пенном и Джимом Керри. Первым из проекта выбыл Бенисио дель Торо. Затем последовал отказ со стороны Шона Пенна, который сослался на необходимость уделять больше времени своей благотворительной деятельности на Гаити. Его примеру почти сразу же последовал Джим Керри, который не захотел рисковать своим здоровьем, набирая слишком много веса.
  • Роль настоятельницы приюта могла достаться Шер. В итоге ее получила Джейн Линч.
  • В фильме появляются в камео в качестве самих себя сразу несколько актеров популярного американского телесериала «Пляж».
  • Джонни Ноксвилу и Энди Сэмбергу были предложены роли в фильме.
  • Как показано в фильме, приют был основан в 1934 году. В том же году трио The Three Stooges начало снимать свою серию короткометражек для Columbia Pictures, продолжавшуюся до 1958 года.
  • Джастин Тимберлэйк прослушивался на роль Ларри.
  • Крис Диамантополос, который сыграл Мо в этом фильме, родился через пять дней после смерти реального Мо Ховарда.
  • В фильме Мо несет ответственность за стартовый капитал. В действительности же Мо Ховард заведовал всеми финансовыми делами трио, следя за тем, чтобы они всё не растратили.
  • Режиссеры, а вернее, двое актеров, которые играли режиссеров, в конце фильма раскрывают секрет того, как на самом деле делали физическую комедию. Кроме того, в реальной жизни шоу The Three Stooges несколько раз показывалось на телевидении (после инцидентов с детьми, которые травмировали друг друга, пародируя фирменный тычок в глаза и затрещины из этого шоу), чтобы рассказать о том, как без вреда для окружающих можно проделывать такие трюки.
  • Ларри Дэвид, который играет сестру Мэри-Менгеле, играл Ларри в нескольких пародиях на The Three Stooges в своем бывшем скетч-шоу Fridays (1980-1982) на ABC.
  • Дэвид Самсон, президент бейсбольного клуба «Майами Марлинс», снялся в сцене вечеринки в честь годовщины.
  • Во время сцены со стоматологом в начале фильма трое мальчиков утверждают, что «занимаются искусством», когда мать-настоятельница заходит в комнату, чтобы позвать их на ланч. Двое из трех занимались вещами, которые являлись отражением их жизненных интересов. Мо Ховард читает, и ему это нравится (по словам его брата Джека). Ларри Файн играл на скрипке и достаточно в этом преуспел. Преуспел настолько, что его родители всерьез задумались отправить Ларри в Европу учиться в консерватории.
  • Джерод Майо и Трой Браун из футбольного клуба «Нью-Ингленд Пэтриотс» играют двоих, чьи штаны падают. Режиссеры братья Фаррелли часто приглашают звезд спорта Новой Англии в свои фильмы.
  • Кэролайн Кимберли Скотт, которая сыграла одну из монахинь в начале фильма, приходится внучкой Мо Ховарду.
  • Сюжет о том, как три балбеса пытаются спасти свой старый приют, взят непосредственно из старой компьютерной игры Three Stooges.
  • Когда Кёрли произносит фразу «Почему Ларри не идет?», его голос звучит ниже. Это произошло потому, что Уилл Сассо охрип, пародируя голос Кёрли.
  • Многие из сцен, показанных в трейлере, не использовались в конечном варианте фильма.
  • В этом фильме у Крэйга Бирко большие усы, он работает с женщиной по имени Лидия (София Вергара). Это очевидный намек на Граучо Маркса из комедийного трио братьев Маркс, которое снимало фильмы приблизительно в то же время, что и настоящие «Три балбеса». Маркс носил накладные усы в большинстве его фильмов и исполнял песню «Лидия — девушка с татуировками» в фильме «В цирке» (1939).
Внимание! Список ошибок в фильме может содержать спойлеры. Будьте осторожны.
  • Когда Ларри и Кёрли воссоединяются с Мо на площадке Jersey Shore, продюсер очень удивлен, что их трое, забыв, что до этого он уже видел их вместе на сцене.
  • После того как машина взрывается на озере, Тедди и троица разговаривают на мосту. Лицо Тедди, первоначально испачканное чем-то черным (грязь или сажа), выглядит намного чище, чем в предыдущем кадре. А в последнем кадре этой сцены оно снова такое же грязное, как в начале.
  • Когда жена Тедди брызгает зубной пастой ему в лицо, показывают его лицо без каких-либо следов зубной пасты.
  • В сцене, где пара, которая в итоге станет родителями Тедди, едет по дороге с Мо (это происходит за 25 лет до настоящего времени, то есть до 2012 года), следом за ними едет красный Jeep Liberty, который поступил в производство только в 2001 году.
  • Когда Тедди делает снимок троицы на свой iPhone, слышен звук затвора, но при этом четко видно, что он не открывал приложение камеры, а на экране отображается обычный рабочий стол.
  • Когда монсеньор находится на лестнице, мальчики находятся за углом в гольф-каре с прикрепленной газонокосилкой. Складная ручка газонокосилки выдвинута таким образом, что сбивает лестницу и тем самым скидывает монсеньора. Но в кадре, где мальчики спрыгивают с гольф-кара, видно, что ручка косилки сложена.
  • В сцене, где три балбеса используют младенцев без подгузников, чтобы облить друг друга мочой, на ребенке в руках у Мо виден подгузник, когда он направляет его в сторону Кёрли.
  • Когда в начале фильма Мо бьет Ларри молотком по голове, заметно, что молоток резиновый (он сжимается при ударе).
  • Во время сцены в больнице, когда трио прыгает с крыши и падает прямо на Тедди, видно, что Мо приземляется на обочину. В момент приземления заметен переход от живого человека к пластиковой кукле, заменяющей его.

www.fast-torrent.ru

Скачать фильм Три балбеса через торрент в хорошем качестве бесплатно HDRip

Размер: 1.37 GB | Добавлен: 5 лет назад | Торрент скачан:1551 раз
Реклама Дарим 3000 рублей за регистрацию, не упусти свой шанс получить шикарный бонус!!!

18-10-2012 09:37 Три балбеса Скачать торрент  

Три балбеса / The Three StoogesГод выпуска: 2012Страна: США Жанр: комедияПродолжительность: 01:32:04Перевод: Профессиональный многоголосый, [Лицензия]Режиссер: Бобби Фаррелли, Питер ФарреллиПродюссер: Брэдли Томас, Чарльз Б. Весслер, Бобби ФарреллиСценарий: Майк Черроне, Бобби Фаррелли, Питер Фаррелли Бюджет: $30 000 000Премьера в мире: 13 апреля 2012 Шон Хейс, Уилл Сассо, Крис Диамантополос, Джейн Линч, София Вергара, Дженнифер Хадсон, Крэйг Бирко, Стивен Коллинз, Ларри Дэвид, Кирби Хэйборн Подкидыши Ларри, Кёрли и Мо выросли если и не полными кретинами, то уж звезд с неба точно не хватали. Видимо, от большого ума они, задавшись высокой целью спасти дом своего детства, вляпались в неприятную историю с убийством и в то же время стали героями фантастически успешного реалити-шоу на ТВ. Качество: HDRipФормат: AVIВидео кодек: XviDАудио кодек: AC3Видео: 720x384,1 668 Kbps, XviD, 23.976 fpsАудио#1: AC3, 448 Kb/s (6 ch), 48.0 KHz

GeneralFormat : AVIFormat/Info : Audio Video InterleaveFile size : 1.37 GiBDuration : 1h 32mnOverall bit rate : 2 125 KbpsWriting library : VirtualDubMod build 2550/releaseVideo #0ID : 0Format : MPEG-4 VisualFormat profile : Advanced [email protected] settings, BVOP : 2Format settings, QPel : NoFormat settings, GMC : No warppointsFormat settings, Matrix : Default (MPEG)Codec ID : XVIDCodec ID/Hint : XviDDuration : 1h 32mnBit rate : 1 668 KbpsWidth : 720 pixelsHeight : 384 pixelsDisplay aspect ratio : 1.875Frame rate : 23.976 fpsColor space : YUVChroma subsampling : 4:2:0Bit depth : 8 bitsScan type : ProgressiveCompression mode : LossyBits/(Pixel*Frame) : 0.252Stream size : 1.07 GiB (78%)Writing library : XviD 1.2.1 (UTC 2008-12-04)Audio #1ID : 1Format : AC-3Format/Info : Audio Coding 3Mode extension : CM (complete main)Codec ID : 2000Duration : 1h 32mnBit rate mode : ConstantBit rate : 448 KbpsChannel(s) : 6 channelsChannel positions : Front: L C R, Side: L R, LFESampling rate : 48.0 KHzBit depth : 16 bitsCompression mode : LossyStream size : 295 MiB (21%)Alignment : Split accross interleavesInterleave, duration : 42 ms (1.00 video frame)Interleave, preload duration : 500 ms

Скачать Три балбеса через торрент http://pic.pb.wtf/images/1/yl1ez4wgda.jpg Скачать фильм Три балбеса через торрент бесплантно в хорошем качестве Год выпуска: 2012Страна: США Жанр: комедияПродолжительность: 01:32:04Перевод: Профессиональный , [Лицензия]Режиссер: Бобби ... 2012-10-18 09:37 10 10 1

Loading...

Loading...

Последний раз редактировалось: Zclasss (2012-10-18 11:56), всего редактировалось 12 раз(а)

Рекламный пират

18-10-2012 10:24 Три балбеса Скачать торрент  

Судя по трейлеру фильм хороший должен быть

18-10-2012 11:42 Три балбеса Скачать торрент  

В моем топ10 самых тупых фильмов этот занимает почетное второе место!

18-10-2012 12:22 Три балбеса Скачать торрент  

Фильм полный отстой! Посмотрел минут 15 и удалил без сожаления. Хотя эти 15 минут были очень мучительно долгими из-за тупого юмора.

18-10-2012 13:26 Три балбеса Скачать торрент  

ujin1986 писал(а):

В моем топ10 самых тупых фильмов этот занимает почетное второе место!

А какой на первом?

18-10-2012 16:07 Три балбеса Скачать торрент  

Это даже трудно назвать фильмом. Полное говно.

04-11-2012 15:13 Три балбеса Скачать торрент  

прикольный фильм тупо посмеяться

06-11-2012 13:24 Три балбеса Скачать торрент  

ждем лучше от этих режиссеров второго Тупой и еще тупее

06-11-2012 16:27 Три балбеса Скачать торрент  

Такой фильм, лучте не смотреть так как етот шедевр до безобразия убогий

Pекламный агент PB

26-12-2012 20:12 Три балбеса Скачать торрент  

Для нас это бред полнейший, но для пиндосов норм комедийка, типо возрождения жанра 50-ых когда несколько людей крайне тупы и неуклюжи, постоянно дубасят друг друга, пинают, толкают и все в этом духе, для нас хрень, для них классика, типо наших Трус, Болбес, Бывалый

Дорогой пользователь! Огромная просьба, поблагодарите релизера, оцените раздачу и оставьте свои комментарий, если Вы скачали Три балбеса через торрент бесплатно! Внесите свою лепту в развитие PiratBit!

Комментировать посты могут только пользователи прошедшие не сложную регистрацию

Три балбеса через торрент Скачать бесплатно Три балбеса Три балбеса скачать торрент Три балбеса смотреть онлайн Cкачать фильм Три балбеса бесплатно Три балбеса скачать торрент в хорошем качестве Три балбеса смотреть онлайн бесплатно в хорошем качестве

Вы не можете начинать темыВы не можете отвечать на сообщенияВы не можете редактировать свои сообщенияВы не можете удалять свои сообщенияВы не можете голосовать в опросахВы не можете прикреплять файлы к сообщениямВы можете скачивать файлы

piratbit.ru

Скачать фильм Три балбеса через торрент в хорошем качестве бесплатно BDRip

Размер: 1.45 GB | Добавлен: 4 года 10 мес. назад | Торрент скачан:598 раз
Реклама Дарим 3000 рублей за регистрацию, не упусти свой шанс получить шикарный бонус!!!

21-12-2012 11:55 Три балбеса Скачать торрент  

Три балбеса / The Three Stooges

Год выпуска: 2012Страна: СШАЖанр: комедияПродолжительность: 92 мин. / 01:32Перевод: Профессиональный многоголосый, Лицензия

Субтитры:русские, английские (SDH)⇒ скачать]Режиссер: Бобби Фаррелли, Питер ФарреллиПродюссер: Бобби Фаррелли, Питер Фаррелли, Брэдли ТомасСценарий: Майк Черроне, Бобби Фаррелли, Питер Фаррелли

Мировой рейтинг IMDB 5.10 (14 128)

В ролях: Шон Хейс, Уилл Сассо, Крис Диамантополос, Джейн Линч, София Вергара, Дженнифер Хадсон, Крэйг Бирко, Стивен Коллинз, Ларри Дэвид, Кирби Хэйборн

Описание: Подкидыши Ларри, Кёрли и Мо выросли если и не полными кретинами, то уж звезд с неба точно не хватали. Видимо, от большого ума они, задавшись высокой целью спасти дом своего детства, вляпались в неприятную историю с убийством и в то же время стали героями фантастически успешного реалити-шоу на ТВ.

Качество: BDRip (источник: HDCLUB / Blu-Ray EUR / 1080р)Формат: AVIВидео кодек: XviDАудио кодек: AC3Видео: MPEG4, XviD, 704x384 (16:9), 23.976 fps, 1 802 Kbps (0.278 bit/pixel)Аудио#1: AC-3, 48.0 KHz, 6 ch, 448 Kbps, CBR

Три балбеса скачать торрент

Скачать Три балбеса через торрент http://i54.fastpic.ru/big/2012/1221/08/efa938561995fb70ecbd29b5c6ad2808.png Скачать фильм Три балбеса через торрент бесплантно в хорошем качестве Описание: Подкидыши Ларри, Кёрли и Мо выросли если и не полными кретинами, то уж звезд с неба точно не хватали. Видимо, от большого ума ... 2012-12-21 11:55 5 10 1

Loading...

Loading...

Рекламный пират

22-12-2012 06:37 Три балбеса Скачать торрент  

Вахх вах, от фарелли такого не ожидал, вообще в шоке

Дорогой пользователь! Огромная просьба, поблагодарите релизера, оцените раздачу и оставьте свои комментарий, если Вы скачали Три балбеса через торрент бесплатно! Внесите свою лепту в развитие PiratBit!

Комментировать посты могут только пользователи прошедшие не сложную регистрацию

Три балбеса через торрент Скачать бесплатно Три балбеса Три балбеса скачать торрент Три балбеса смотреть онлайн Cкачать фильм Три балбеса бесплатно Три балбеса скачать торрент в хорошем качестве Три балбеса смотреть онлайн бесплатно в хорошем качестве

Вы не можете начинать темыВы не можете отвечать на сообщенияВы не можете редактировать свои сообщенияВы не можете удалять свои сообщенияВы не можете голосовать в опросахВы не можете прикреплять файлы к сообщениямВы можете скачивать файлы

piratbit.ru

Скачать фильм Три балбеса через торрент в хорошем качестве бесплатно 720p

Format : MatroskaFormat version : Version 2File size : 6.61 GiBDuration : 1h 32mnOverall bit rate : 10.3 MbpsMovie name : IRONCLUBEncoded date : UTC 2012-10-18 08:07:05Writing application : mkvmerge v4.9.1 ('Ich will') сборка от Jul 11 2011 23:53:15Writing library : libebml v1.2.1 + libmatroska v1.1.1

VideoID : 1Format : AVCFormat/Info : Advanced Video CodecFormat profile : [email protected] settings, CABAC : YesFormat settings, ReFrames : 9 framesCodec ID : V_MPEG4/ISO/AVCBit rate : 8 000 KbpsWidth : 1 280 pixelsHeight : 694 pixelsDisplay aspect ratio : 1.85:1Frame rate mode : VariableOriginal frame rate : 23.976 fpsColor space : YUVChroma subsampling : 4:2:0Bit depth : 8 bitsScan type : ProgressiveBits/(Pixel*Frame) : 0.376Title : The.Three.Stooges.2012.720p.BluRay.DTS.x264-TayTOWriting library : x264 core 125 r2200 999b753Encoding settings : cabac=1 / ref=9 / deblock=1:-3:-3 / analyse=0x3:0x133 / me=tesa / subme=11 / psy=1 / psy_rd=1.11:0.00 / mixed_ref=1 / me_range=16 / chroma_me=1 / trellis=2 / 8x8dct=1 / cqm=0 / deadzone=21,11 / fast_pskip=0 / chroma_qp_offset=-2 / threads=12 / lookahead_threads=2 / sliced_threads=0 / nr=0 / decimate=0 / interlaced=0 / bluray_compat=0 / constrained_intra=0 / bframes=8 / b_pyramid=2 / b_adapt=2 / b_bias=0 / direct=3 / weightb=1 / open_gop=0 / weightp=2 / keyint=250 / keyint_min=23 / scenecut=40 / intra_refresh=0 / rc=2pass / mbtree=0 / bitrate=8000 / ratetol=1.0 / qcomp=0.65 / qpmin=0 / qpmax=69 / qpstep=4 / cplxblur=20.0 / qblur=0.5 / ip_ratio=1.40 / pb_ratio=1.30 / aq=1:0.70Language : EnglishDefault : YesForced : Yes

Audio #1ID : 2Format : DTSFormat/Info : Digital Theater SystemsCodec ID : A_DTSDuration : 1h 32mnBit rate mode : ConstantBit rate : 755 KbpsChannel(s) : 6 channelsChannel positions : Front: L C R, Side: L R, LFESampling rate : 48.0 KHzBit depth : 24 bitsCompression mode : LossyStream size : 497 MiB (7%)Title : DTS 5.1 @ 768 kbps - MVO, BD EURLanguage : RussianDefault : YesForced : Yes

Audio #2ID : 3Format : DTSFormat/Info : Digital Theater SystemsCodec ID : A_DTSDuration : 1h 32mnBit rate mode : ConstantBit rate : 1 510 KbpsChannel(s) : 6 channelsChannel positions : Front: L C R, Side: L R, LFESampling rate : 48.0 KHzBit depth : 24 bitsCompression mode : LossyStream size : 994 MiB (15%)Title : DTS 5.1 @ 1536 kbpsLanguage : EnglishDefault : NoForced : No

Text #1ID : 4Format : UTF-8Codec ID : S_TEXT/UTF8Codec ID/Info : UTF-8 Plain TextLanguage : RussianDefault : NoForced : No

Text #2ID : 5Format : UTF-8Codec ID : S_TEXT/UTF8Codec ID/Info : UTF-8 Plain TextLanguage : EnglishDefault : NoForced : No

Text #3ID : 6Format : UTF-8Codec ID : S_TEXT/UTF8Codec ID/Info : UTF-8 Plain TextLanguage : SpanishDefault : NoForced : No

Menu00:00:00.000 : en:00:00:00.00000:02:58.220 : en:00:02:58.22000:05:55.146 : en:00:05:55.14600:11:52.837 : en:00:11:52.83700:14:58.272 : en:00:14:58.27200:17:11.447 : en:00:17:11.44700:20:08.332 : en:00:20:08.33200:23:23.193 : en:00:23:23.19300:25:56.346 : en:00:25:56.34600:34:39.619 : en:00:34:39.61900:39:31.828 : en:00:39:31.82800:43:33.486 : en:00:43:33.48600:47:13.330 : en:00:47:13.33000:50:10.257 : en:00:50:10.25700:53:45.722 : en:00:53:45.72200:57:48.173 : en:00:57:48.17301:00:19.533 : en:01:00:19.53301:04:39.334 : en:01:04:39.33401:09:12.148 : en:01:09:12.14801:14:28.339 : en:01:14:28.33901:16:54.735 : en:01:16:54.73501:20:13.392 : en:01:20:13.39201:25:32.836 : en:01:25:32.83601:26:19.091 : en:01:26:19.091

piratbit.ru

Скачать фильм Три балбеса через торрент в хорошем качестве бесплатно BDRip-AVC] MVO + Original + Sub (rus.

ОбщееУникальный идентификатор : 212439472127891631615017358108998074104 (0x9FD25AA499873FDAB22C43FD01697EF8)Полное имя : Tri.Balbesa.2012.P.BDRip.x264.potroks.mkvФормат : MatroskaВерсия формата : Version 2Размер файла : 2,18 ГбайтПродолжительность : 1 ч. 32 м.Общий поток : 3391 Кбит/секНазвание фильма : -=POTROKS=-Дата кодирования : UTC 2012-10-18 16:53:31Программа кодирования : mkvmerge v5.7.0 ('The Whirlwind') built on Jul 8 2012 20:08:51Библиотека кодирования : libebml v1.2.3 + libmatroska v1.3.0

ВидеоИдентификатор : 1Формат : AVCФормат/Информация : Advanced Video CodecПрофиль формата : [email protected]Параметр CABAC формата : НетПараметр ReFrames формата : 9 кадровИдентификатор кодека : V_MPEG4/ISO/AVCПродолжительность : 1 ч. 32 м.Битрейт : 2495 Кбит/секШирина : 1024 пикселяВысота : 552 пикселяСоотношение сторон : 1,855Соотношение сторон в оригинале : 16:9Режим частоты кадров : ПеременныйЧастота кадров : 23,976 кадра/секЦветовое пространство : YUVСубдискретизация насыщенности : 4:2:0Битовая глубина : 8 битТип развёртки : ПрогрессивнаяБит/(Пиксели*Кадры) : 0.184Размер потока : 1,56 Гбайт (72%)Заголовок : Три балбесаБиблиотека кодирования : x264 core 116 r2019M 9cc407dНастройки программы : cabac=0 / ref=10 / deblock=1:-2:-2 / analyse=0x3:0x133 / me=umh / subme=9 / psy=1 / psy_rd=1.00:0.00 / mixed_ref=1 / me_range=52 / chroma_me=1 / trellis=1 / 8x8dct=1 / cqm=0 / deadzone=21,13 / fast_pskip=0 / chroma_qp_offset=-2 / threads=8 / sliced_threads=0 / nr=0 / decimate=1 / interlaced=0 / bluray_compat=0 / constrained_intra=0 / bframes=8 / b_pyramid=1 / b_adapt=2 / b_bias=0 / direct=3 / weightb=1 / open_gop=0 / weightp=2 / keyint=230 / keyint_min=23 / scenecut=40 / intra_refresh=0 / rc_lookahead=100 / rc=2pass / mbtree=1 / bitrate=2495 / ratetol=1.0 / qcomp=0.60 / qpmin=10 / qpmax=51 / qpstep=4 / cplxblur=20.0 / qblur=0.5 / ip_ratio=1.37 / aq=1:1.20Язык : EnglishDefault : ДаForced : Нет

Аудио #1Идентификатор : 2Формат : AC-3Формат/Информация : Audio Coding 3Расширение режима : CM (complete main)Параметр Endianness формата : BigИдентификатор кодека : A_AC3Продолжительность : 1 ч. 32 м.Вид битрейта : ПостоянныйБитрейт : 448 Кбит/секКаналы : 6 каналовРасположение каналов : Front: L C R, Side: L R, LFEЧастота : 48,0 КГцБитовая глубина : 16 битМетод сжатия : С потерямиРазмер потока : 295 Мбайт (13%)Заголовок : DD AC3 / 5.1 / 448 kbpsЯзык : RussianDefault : ДаForced : Да

Аудио #2Идентификатор : 3Формат : AC-3Формат/Информация : Audio Coding 3Расширение режима : CM (complete main)Параметр Endianness формата : BigИдентификатор кодека : A_AC3Продолжительность : 1 ч. 32 м.Вид битрейта : ПостоянныйБитрейт : 448 Кбит/секКаналы : 6 каналовРасположение каналов : Front: L C R, Side: L R, LFEЧастота : 48,0 КГцБитовая глубина : 16 битМетод сжатия : С потерямиРазмер потока : 295 Мбайт (13%)Заголовок : DD AC3 / 5.1 / 448 kbpsЯзык : EnglishDefault : НетForced : Нет

Текст #1Идентификатор : 4Формат : UTF-8Идентификатор кодека : S_TEXT/UTF8Идентификатор кодека/Информация : UTF-8 Plain TextЯзык : RussianDefault : НетForced : Нет

Текст #2Идентификатор : 5Формат : UTF-8Идентификатор кодека : S_TEXT/UTF8Идентификатор кодека/Информация : UTF-8 Plain TextЯзык : EnglishDefault : НетForced : Нет

Меню00:00:00.000 : en:00:00:00.00000:02:58.220 : en:00:02:58.22000:05:55.146 : en:00:05:55.14600:11:52.837 : en:00:11:52.83700:14:58.272 : en:00:14:58.27200:17:11.447 : en:00:17:11.44700:20:08.332 : en:00:20:08.33200:23:23.193 : en:00:23:23.19300:25:56.346 : en:00:25:56.34600:34:39.619 : en:00:34:39.61900:39:31.828 : en:00:39:31.82800:43:33.486 : en:00:43:33.48600:47:13.330 : en:00:47:13.33000:50:10.257 : en:00:50:10.25700:53:45.722 : en:00:53:45.72200:57:48.173 : en:00:57:48.17301:00:19.533 : en:01:00:19.53301:04:39.334 : en:01:04:39.33401:09:12.148 : en:01:09:12.14801:14:28.339 : en:01:14:28.33901:16:54.735 : en:01:16:54.73501:20:13.392 : en:01:20:13.39201:25:32.836 : en:01:25:32.83601:26:19.091 : en:01:26:19.091

piratbit.ru


Смотрите также