Тревожный вызов скачать торрент в хорошем качестве


Скачать фильм Тревожный вызов (2013) через торрент

gig-torrent.net

31 января 2016 15:09 Тревожный вызов / The Call (2013) BDRip 1080p by msltel | D, A .torrent   [Информация о файле (нажмите для просмотра)] Перевод: дублированный, авторскийСубтитры: русские (Voronine), английскиеКачество: BDRip 1080pСравнение с исходникомФормат: MKVВидео: 13.8 Mбит/с, 1920x1040, 23.976 кадра/с, 0.289 bppАудио 1: русский, AC3, 448 kbps, 6 ch, 48 kHz [дублированный]Аудио 2: русский, DTS, 1509 kbps, 6 ch, 48 kHz [авторский, Дмитрий Есарев]Аудио 3: английский, DTS, 1509 kbps, 6 ch, 48 kHz [оригинал]Видео: Идентификатор : 1 Формат : AVC Формат/Информация : Advanced Video Codec Профиль формата : [email protected] Параметр CABAC формата : Да Параметр ReFrames формата : 4 кадра Идентификатор кодека : V_MPEG4/ISO/AVC Продолжительность : 1 ч. 34 м. Битрейт : 13,8 Мбит/сек Ширина : 1920 пикселей Высота : 1040 пикселей Соотношение сторон : 1,85:1 Режим частоты кадров : Постоянный Частота кадров : 23,976 кадра/сек Цветовое пространство : YUV Субдискретизация насыщенности : 4:2:0 Битовая глубина : 8 бит Тип развёртки : Прогрессивная Бит/(Пиксели*Кадры) : 0.289 Размер потока : 9,10 Гбайт (78%) Заголовок : BDRip -- STarankov Библиотека кодирования : x264 core 142 r2431 ac76440 Настройки программы : cabac=1 / ref=4 / deblock=1:-1:-1 / analyse=0x3:0x113 / me=umh / subme=10 / psy=1 / psy_rd=1.00:0.15 / mixed_ref=1 / me_range=32 / chroma_me=1 / trellis=2 / 8x8dct=1 / cqm=0 / deadzone=21,11 / fast_pskip=1 / chroma_qp_offset=-3 / threads=6 / lookahead_threads=1 / sliced_threads=0 / nr=0 / decimate=1 / interlaced=0 / bluray_compat=0 / constrained_intra=0 / bframes=8 / b_pyramid=2 / b_adapt=2 / b_bias=0 / direct=3 / weightb=1 / open_gop=0 / weightp=2 / keyint=230 / keyint_min=23 / scenecut=40 / intra_refresh=0 / rc_lookahead=40 / rc=crf / mbtree=0 / crf=18.6 / qcomp=0.60 / qpmin=0 / qpmax=69 / qpstep=4 / vbv_maxrate=40000 / vbv_bufsize=50000 / crf_max=0.0 / nal_hrd=none / filler=0 / ip_ratio=1.40 / pb_ratio=1.30 / aq=1:1.00 Язык : English Default : Да Forced : Нет DURATION : 01:34:13.481000000 NUMBER_OF_FRAMES : 135548 NUMBER_OF_BYTES : 10012284562 _STATISTICS_WRITING_APP : mkvmerge v7.5.0 ('Glass Culture') 64bit built on Jan 4 2015 16:48:44 _STATISTICS_WRITING_DATE_UTC : 2015-01-08 03:10:32 _STATISTICS_TAGS : BPS DURATION NUMBER_OF_FRAMES NUMBER_OF_BYTESАудио #1: Идентификатор : 2 Формат : AC-3 Формат/Информация : Audio Coding 3 Расширение режима : CM (complete main) Параметр Endianness формата : Big Идентификатор кодека : A_AC3 Продолжительность : 1 ч. 34 м. Вид битрейта : Постоянный Битрейт : 448 Кбит/сек Каналы : 6 каналов Расположение каналов : Front: L C R, Side: L R, LFE Частота : 48,0 КГц Битовая глубина : 16 бит Метод сжатия : С потерями Размер потока : 302 Мбайт (3%) Заголовок : DUB Язык : Russian Default : Да Forced : НетАудио #2: Идентификатор : 3 Формат : DTS Формат/Информация : Digital Theater Systems Режим : 16 Параметр Endianness формата : Big Идентификатор кодека : A_DTS Продолжительность : 1 ч. 34 м. Вид битрейта : Постоянный Битрейт : 1509 Кбит/сек Каналы : 6 каналов Расположение каналов : Front: L C R, Side: L R, LFE Частота : 48,0 КГц Битовая глубина : 24 бит Метод сжатия : С потерями Размер потока : 1017 Мбайт (9%) Заголовок : AVO (Дмитрий Есарев) Язык : Russian Default : Нет Forced : НетАудио #3: Идентификатор : 4 Формат : DTS Формат/Информация : Digital Theater Systems Режим : 16 Параметр Endianness формата : Big Идентификатор кодека : A_DTS Продолжительность : 1 ч. 34 м. Вид битрейта : Постоянный Битрейт : 1509 Кбит/сек Каналы : 6 каналов Расположение каналов : Front: L C R, Side: L R, LFE Частота : 48,0 КГц Битовая глубина : 24 бит Метод сжатия : С потерями Размер потока : 1017 Мбайт (9%) Заголовок : Original Язык : English Default : Нет Forced : Нет 11,61 Gb 6 4
31 января 2016 15:09 Тревожный вызов / The Call (2013) BDRip 720p by msltel | D, A .torrent   [Информация о файле (нажмите для просмотра)] Перевод: дублированный, авторскийСубтитры: русские (Voronine), английскиеКачество: BDRip 720pСравнение с исходникомФормат: MKVВидео: 5345 Кбит/с, 1280x694, 23.976 кадра/с, 0.251 bppАудио 1: русский, AC3, 448 kbps, 6 ch, 48 kHz [дублированный]Аудио 2: русский, AC3, 448 kbps, 6 ch, 48 kHz [авторский, Дмитрий Есарев]Аудио 3: английский, AC3, 640 kbps, 6 ch, 48 kHz [оригинал]Видео: Идентификатор : 1 Формат : AVC Формат/Информация : Advanced Video Codec Профиль формата : [email protected] Параметр CABAC формата : Да Параметр ReFrames формата : 9 кадров Идентификатор кодека : V_MPEG4/ISO/AVC Продолжительность : 1 ч. 34 м. Битрейт : 5345 Кбит/сек Ширина : 1280 пикселей Высота : 694 пикселя Соотношение сторон : 1,85:1 Режим частоты кадров : Постоянный Частота кадров : 23,976 кадра/сек Цветовое пространство : YUV Субдискретизация насыщенности : 4:2:0 Битовая глубина : 8 бит Тип развёртки : Прогрессивная Бит/(Пиксели*Кадры) : 0.251 Размер потока : 3,52 Гбайт (76%) Заголовок : BDRip -- STarankov Библиотека кодирования : x264 core 142 r2431 ac76440 Настройки программы : cabac=1 / ref=9 / deblock=1:-1:-1 / analyse=0x3:0x113 / me=umh / subme=10 / psy=1 / psy_rd=1.00:0.15 / mixed_ref=1 / me_range=32 / chroma_me=1 / trellis=2 / 8x8dct=1 / cqm=0 / deadzone=21,11 / fast_pskip=1 / chroma_qp_offset=-3 / threads=6 / lookahead_threads=1 / sliced_threads=0 / nr=0 / decimate=1 / interlaced=0 / bluray_compat=0 / constrained_intra=0 / bframes=8 / b_pyramid=2 / b_adapt=2 / b_bias=0 / direct=3 / weightb=1 / open_gop=0 / weightp=2 / keyint=230 / keyint_min=23 / scenecut=40 / intra_refresh=0 / rc_lookahead=40 / rc=crf / mbtree=0 / crf=18.1 / qcomp=0.60 / qpmin=0 / qpmax=69 / qpstep=4 / vbv_maxrate=40000 / vbv_bufsize=50000 / crf_max=0.0 / nal_hrd=none / filler=0 / ip_ratio=1.40 / pb_ratio=1.30 / aq=1:1.00 Язык : English Default : Да Forced : Нет DURATION : 01:34:13.481000000 NUMBER_OF_FRAMES : 135548 NUMBER_OF_BYTES : 3874811429 _STATISTICS_WRITING_APP : mkvmerge v7.5.0 ('Glass Culture') 64bit built on Jan 4 2015 16:48:44 _STATISTICS_WRITING_DATE_UTC : 2015-01-06 11:56:39 _STATISTICS_TAGS : BPS DURATION NUMBER_OF_FRAMES NUMBER_OF_BYTESАудио #1: Идентификатор : 2 Формат : AC-3 Формат/Информация : Audio Coding 3 Расширение режима : CM (complete main) Параметр Endianness формата : Big Идентификатор кодека : A_AC3 Продолжительность : 1 ч. 34 м. Вид битрейта : Постоянный Битрейт : 448 Кбит/сек Каналы : 6 каналов Расположение каналов : Front: L C R, Side: L R, LFE Частота : 48,0 КГц Битовая глубина : 16 бит Метод сжатия : С потерями Размер потока : 302 Мбайт (6%) Заголовок : DUB Язык : Russian Default : Да Forced : НетАудио #2: Идентификатор : 3 Формат : AC-3 Формат/Информация : Audio Coding 3 Расширение режима : CM (complete main) Параметр Endianness формата : Big Идентификатор кодека : A_AC3 Продолжительность : 1 ч. 34 м. Вид битрейта : Постоянный Битрейт : 448 Кбит/сек Каналы : 6 каналов Расположение каналов : Front: L C R, Side: L R, LFE Частота : 48,0 КГц Битовая глубина : 16 бит Метод сжатия : С потерями Размер потока : 302 Мбайт (6%) Заголовок : AVO (Дмитрий Есарев) Язык : Russian Default : Нет Forced : НетАудио #3: Идентификатор : 4 Формат : AC-3 Формат/Информация : Audio Coding 3 Расширение режима : CM (complete main) Параметр Endianness формата : Big Идентификатор кодека : A_AC3 Продолжительность : 1 ч. 34 м. Вид битрейта : Постоянный Битрейт : 640 Кбит/сек Каналы : 6 каналов Расположение каналов : Front: L C R, Side: L R, LFE Частота : 48,0 КГц Битовая глубина : 16 бит Метод сжатия : С потерями Размер потока : 431 Мбайт (9%) Заголовок : Original Язык : English Default : Нет Forced : Нет 4,62 Gb 12 4
31 января 2016 15:09 Тревожный вызов / The Call (2013) BDRip 1080p .torrent   [Информация о файле (нажмите для просмотра)] Перевод: Дублированный + ОригиналКодек: x264Качество: BDRip (источник: BD-Remux)Видео: 1920x1040 (1,85:1), 23.976 fps, 10702 kbpsАудио #1: AC-3, 6 ch, 448 kbps (Rus) R5Аудио #2: AC-3, 6 ch, 640 kbps (Eng) ОригиналСубтитры: АнглийскиеВидео: Идентификатор : 1 Формат : AVC Формат/Информация : Advanced Video Codec Профиль формата : [email protected] Параметр CABAC формата : Да Параметр ReFrames формата : 4 кадра Идентификатор кодека : V_MPEG4/ISO/AVC Продолжительность : 1 ч. 34 м. Битрейт : 10,7 Мбит/сек Ширина : 1920 пикселей Высота : 1040 пикселей Соотношение сторон : 1,85:1 Режим частоты кадров : Постоянный Частота кадров : 23,976 кадра/сек Цветовое пространство : YUV Субдискретизация насыщенности : 4:2:0 Битовая глубина : 8 бит Тип развёртки : Прогрессивная Бит/(Пиксели*Кадры) : 0.224 Размер потока : 6,89 Гбайт (89%) Заголовок : Release by N1NT3NDO Библиотека кодирования : x264 core 130 r2273 b3065e6 Настройки программы : cabac=1 / ref=4 / deblock=1:-3:-3 / analyse=0x3:0x113 / me=umh / subme=10 / psy=1 / psy_rd=1.00:0.00 / mixed_ref=1 / me_range=32 / chroma_me=1 / trellis=2 / 8x8dct=1 / cqm=0 / deadzone=21,11 / fast_pskip=0 / chroma_qp_offset=-2 / threads=12 / lookahead_threads=1 / sliced_threads=0 / nr=0 / decimate=0 / interlaced=0 / bluray_compat=0 / constrained_intra=0 / bframes=5 / b_pyramid=2 / b_adapt=2 / b_bias=0 / direct=2 / weightb=1 / open_gop=0 / weightp=2 / keyint=240 / keyint_min=23 / scenecut=40 / intra_refresh=0 / rc_lookahead=80 / rc=2pass / mbtree=1 / bitrate=10702 / ratetol=1.0 / qcomp=0.60 / qpmin=0 / qpmax=69 / qpstep=4 / cplxblur=20.0 / qblur=0.5 / ip_ratio=1.40 / aq=1:0.70 Язык : English Default : Да Forced : НетАудио #1: Идентификатор : 2 Формат : AC-3 Формат/Информация : Audio Coding 3 Расширение режима : CM (complete main) Параметр Endianness формата : Big Идентификатор кодека : A_AC3 Продолжительность : 1 ч. 34 м. Вид битрейта : Постоянный Битрейт : 448 Кбит/сек Каналы : 6 каналов Расположение каналов : Front: L C R, Side: L R, LFE Частота : 48,0 КГц Битовая глубина : 16 бит Метод сжатия : С потерями Размер потока : 302 Мбайт (4%) Заголовок : Rus Язык : Russian Default : Да Forced : НетАудио #2: Идентификатор : 3 Формат : AC-3 Формат/Информация : Audio Coding 3 Расширение режима : CM (complete main) Параметр Endianness формата : Big Идентификатор кодека : A_AC3 Продолжительность : 1 ч. 34 м. Вид битрейта : Постоянный Битрейт : 640 Кбит/сек Каналы : 6 каналов Расположение каналов : Front: L C R, Side: L R, LFE Частота : 48,0 КГц Битовая глубина : 16 бит Метод сжатия : С потерями Размер потока : 431 Мбайт (5%) Заголовок : Eng Язык : English Default : Нет Forced : Нет 7,76 Gb 21 4
31 января 2016 15:09 Тревожный вызов / The Call (2013) BDRip-AVC от HELLYWOOD | Лицензия .torrent   [Информация о файле (нажмите для просмотра)] Перевод: Профессиональный (полное дублирование) [лицензия R5]Субтитры: Русские (Voronine), русские (SDH-Notabenoid), английские (Full + SDH + SDH-Colored)Качество: BDRip-AVCФормат: MKVВидео: x.264, 1008x546 (1.85:1), 23,976 fps, 1771 Кbps, 0.134 bit/pixelАудио: 48 kHz, AC3 Dolby Digital, 3/2 (L,C,R,l,r) + LFE ch, 448.00 kbps 1,46 Gb 23 5
31 января 2016 15:09 Тревожный Вызов / The Call (2013) DVDRip от MediaClub | КПК .torrent   [Информация о файле (нажмите для просмотра)] Перевод: ДублированныйКодек: MPEG-4Качество: DVDRipВидео: 500 Кбит/с, 320x160, 25.000 кадр/сЗвук: Русский (AAC, 2 ch, 128 Кбит/с) 384,17 Mb 5 4
31 января 2016 15:09 Тревожный вызов / The Call (2013) BDRip-AVC от 0ptimus | D | Poland Transfer .torrent   [Информация о файле (нажмите для просмотра)] Перевод: ДублированныйКодек: h.264Качество: BDRip-AVCВидео: 2371 Кбит/с, 1024x576, 23.976 кадр/сЗвук: • №1: Русский (АС3, 6 ch, 448 Кбит/с) Дублированный • №2: Английский (АС3, 6 ch, 448 Кбит/с)Субтитры: • №1: Русские [Voronine] • №2: Русские [Notabenoid] • №3: Русские [SDH, Notabenoid] • №4: Английские • №5: Английские [SDH] • №6: Английские [SDH, цветные]Видео: Идентификатор : 1 Формат : AVC Формат/Информация : Advanced Video Codec Профиль формата : [email protected] Параметр CABAC формата : Да Параметр ReFrames формата : 9 кадров Идентификатор кодека : V_MPEG4/ISO/AVC Продолжительность : 1 ч. 34 м. Битрейт : 2371 Кбит/сек Ширина : 1024 пикселя Высота : 576 пикселей Соотношение сторон : 16:9 Частота кадров : 23,976 кадра/сек Цветовое пространство : YUV Субдискретизация насыщенности : 4:2:0 Битовая глубина : 8 бит Тип развёртки : Прогрессивная Бит/(Пиксели*Кадры) : 0.168 Размер потока : 1,51 Гбайт (71%) Заголовок : Rip by 0ptimus Библиотека кодирования : x264 core 133 r2334 a3ac64b Настройки программы : cabac=1 / ref=9 / deblock=1:-3:-3 / analyse=0x3:0x113 / me=umh / subme=10 / psy=1 / psy_rd=1.00:0.20 / mixed_ref=1 / me_range=32 / chroma_me=1 / trellis=2 / 8x8dct=1 / cqm=0 / deadzone=21,11 / fast_pskip=0 / chroma_qp_offset=-3 / threads=3 / lookahead_threads=1 / sliced_threads=0 / nr=0 / decimate=0 / interlaced=0 / bluray_compat=0 / constrained_intra=0 / bframes=10 / b_pyramid=2 / b_adapt=2 / b_bias=0 / direct=3 / weightb=1 / open_gop=0 / weightp=2 / keyint=240 / keyint_min=23 / scenecut=40 / intra_refresh=0 / rc_lookahead=40 / rc=2pass / mbtree=0 / bitrate=2371 / ratetol=1.0 / qcomp=0.60 / qpmin=0 / qpmax=69 / qpstep=4 / cplxblur=20.0 / qblur=0.5 / vbv_maxrate=50000 / vbv_bufsize=50000 / nal_hrd=none / ip_ratio=1.40 / pb_ratio=1.30 / aq=1:1.00 Язык : EnglishАудио #1: Идентификатор : 2 Формат : AC-3 Формат/Информация : Audio Coding 3 Расширение режима : CM (complete main) Идентификатор кодека : A_AC3 Продолжительность : 1 ч. 34 м. Вид битрейта : Постоянный Битрейт : 448 Кбит/сек Каналы : 6 каналов Расположение каналов : Front: L C R, Side: L R, LFE Частота : 48,0 КГц Битовая глубина : 16 бит Метод сжатия : С потерями Размер потока : 301 Мбайт (14%) Заголовок : Дублированный AC3 5.1 @ 448 kbps Язык : RussianАудио #2: Идентификатор : 3 Формат : AC-3 Формат/Информация : Audio Coding 3 Расширение режима : CM (complete main) Идентификатор кодека : A_AC3 Продолжительность : 1 ч. 34 м. Вид битрейта : Постоянный Битрейт : 448 Кбит/сек Каналы : 6 каналов Расположение каналов : Front: L C R, Side: L R, LFE Частота : 48,0 КГц Битовая глубина : 16 бит Метод сжатия : С потерями Размер потока : 301 Мбайт (14%) Заголовок : AC3 5.1 @ 448 kbps Язык : English 2,14 Gb 34 3
31 января 2016 15:09 Тревожный вызов / The Call (2013) BDRip от HQCLUB | Poland Transfer | Лицензия .torrent   [Информация о файле (нажмите для просмотра)] Перевод: Профессиональный (полное дублирование) R5 +Оригинальная звуковая дорожкаСубтитры: Русские (voronine, notabenoid (full, sdh)), Английские (Full, SDH, SDH-COLORED, Commentary) (внешние srt*)Формат: AVIКачество: BDRip (источник: Arifis /BD-Remux / 1080p)Видео: 720x400 (1.80:1), 23,976 fps, XviD build 65 ~ 1757 kbps avg, 0.25 bit/pixelАудио #1: 48 kHz, AC3 Dolby Digital, 3/2 (L,C,R,l,r) + LFE ch, ~448.00 kbps avgАудио #2: 48 kHz, AC3 Dolby Digital, 3/2 (L,C,R,l,r) + LFE ch, ~448.00 kbps avg(отдельно, http) 1,45 Gb 132 9
31 января 2016 15:09 Тревожный вызов / The Call (2013) HDRip-AVC | D | Лицензия .torrent   [Информация о файле (нажмите для просмотра)] Перевод: Профессиональный (полное дублирование)ЛицензияКодек: H.264Качество: HDRip-AVC -[BDRip 720p]Видео: 768x416 (16:9), 23,976 fps, ~1059 Kbps, 0.132 bit/pixelЗвук: 48 KHz, AAC-LC, 2(L,R) ch, ~96.00 kbps avg 745,28 Mb 24 6
31 января 2016 15:09 Тревожный вызов / The Call (2013) HDRip от New-Team | D | Лицензия .torrent   [Информация о файле (нажмите для просмотра)] Перевод: Профессиональный (дублированный)Видео: 624x336 (1.86:1), 23.976 fps, XviD build 65, 967 kbps avg, 0.19 bit/pixelАудио: MPEG Layer 3, 48 kHz, 2 ch, 128 kbps |Dub 744,77 Mb 35 4
31 января 2016 15:09 Тревожный вызов / The Call (2013) НDRip от Scarabey | D | Лицензия .torrent   [Информация о файле (нажмите для просмотра)] Перевод: Профессиональный (дублированный) [лицензия]Видео: 704x384 (1.83:1), 23.976 fps, XviD build 73 ~1744 kbps avg, 0.27 bit/pixelАудио: 48 kHz, AC3 Dolby Digital, 3/2 (L,C,R,l,r) + LFE ch, ~448 kbps 1,45 Gb 410 18
31 января 2016 15:09 Тревожный вызов / The Call (2013) НDRip от Scarabey | D | Лицензия .torrent   [Информация о файле (нажмите для просмотра)] Перевод: Профессиональный (дублированный) [лицензия]Видео: 624x336 (1.86:1), 23.976 fps, XviD build 73 ~968 kbps avg, 0.19 bit/pixelАудио: 48 kHz, MPEG Layer 3, 2 ch, ~128.00 kbps avg 745,41 Mb 18 1
31 января 2016 15:09 Тревожный вызов / The Call (2013) BDRip 720p от leonardo 59 | Лицензия .torrent   [Информация о файле (нажмите для просмотра)] Перевод: Профессиональный (полное дублирование) | ЛицензияФормат: MKVВидео кодек: MPEG-4 AVC Аудио кодек: AC3Видео: AVC, 1280x694 (1.85:1) at 23.976 fps, AVC at 3561 kbps avg, 0.167 bit/pixelАудио: AC3, 6ch 448 kbps 2,69 Gb 62 2
31 января 2016 15:09 Тревожный вызов / The Call (2013) Blu-ray 1080p | D | Лицензия .torrent   [Информация о файле (нажмите для просмотра)] Перевод: Профессиональный (дублированный)Видео: MPEG-4 AVC Video 25581 kbps 1080p / 23,976 fps / 16:9 / High Profile 4.1Аудио 1: DTS-HD Master Audio English 3583 kbps 5.1 / 48 kHz / 3583 kbps / 24-bit (DTS Core: 5.1 / 48 kHz / 1509 kbps / 24-bit)Аудио 2: Dolby Digital Audio Russian 448 kbps 5.1 / 48 kHz / 448 kbps / DN -4dBАудио 3: DTS-HD Master Audio French 2180 kbps 5.1 / 48 kHz / 2180 kbps / 16-bit (DTS Core: 5.1 / 48 kHz / 1509 kbps / 16-bit)Аудио 4: Dolby Digital Audio English 192 kbps 2.0 / 48 kHz / 192 kbps / Dolby Surround 30,89 Gb 1 7
31 января 2016 15:09 Тревожный вызов / The Call (2013) BDRip-AVC | от R.G. 25 Кадр .torrent   [Информация о файле (нажмите для просмотра)] Перевод: Профессиональный (дублированный) [лицензия]Субтитры: нетВидео: AVC / [email protected] / 984 x 532 / 1 769 Kbps / 1.85:1Аудио: 48 kHz, AC3 Dolby Digital, 3/2 (L,C,R,l,r) + LFE ch, ~448 kbps - Русский 1,46 Gb 4 4
31 января 2016 15:08 Тревожный вызов / The Call (2013) BDRip от HQ-ViDEO | Лицензия .torrent   [Информация о файле (нажмите для просмотра)] Перевод: Профессиональный дублированный /Лицензия/Субтитры: Английские |внешние *.srt|Видео: XviD, 704x384 (1.84:1), ~1753 kbps avg, 23,976 fpsАудио #1: AC3 Dolby Digital, 48 KHz, ~448 kbps, 3/2 (L,C,R,l,r) + LFE ch/RUS/Аудио #2: AC3 Dolby Digital, 48 KHz, ~448 kbps, 3/2 (L,C,R,l,r) + LFE ch/ENG, скачать отдельно с disk.yandex.ru/ 1,45 Gb 134 4
31 января 2016 15:08 Тревожный вызов / The Call (2013) BDRip 720p от HQ-ViDEO | Лицензия .torrent   [Информация о файле (нажмите для просмотра)] Перевод: Профессиональный дублированный /Лицензия/Субтитры: Английские|отключаемые, *.srt|Видео: x.264, 1280x694 (1.85:1), ~6796 kbps avg, 23,976 fpsАудио 1: AC3 Dolby Digital, 48 KHz, ~448 kbps, 3/2 (L,C,R,l,r) + LFE ch/RUS/Аудио 2: AC3 Dolby Digital, 48 KHz, ~640 kbps, 3/2 (L,C,R,l,r) + LFE ch/ENG/ 5,19 Gb 6 3
31 января 2016 15:08 Тревожный вызов / The Call (2013) BDRip-AVC от potroks | D | Лицензия .torrent   [Информация о файле (нажмите для просмотра)] Перевод: Профессиональный (полное дублирование) Субтитры: АнглийскиеКачество: BDRip-AVC [The.Call.2013.1080p.BluRay.AVC.DTS-HD.MA.5.1-PublicHD]Формат: MKVВидео: H.264, 1200x650 (1.85:1), 23,976 кадр/сек, 2425 Кбит/сек, 0.130 bit/pixelАудио#1: 48 kHz, AC3 Dolby Digital, 3/2 (L,C,R,l,r) + LFE ch, 448.00 kbps |RUSАудио#2: 48 kHz, AC3 Dolby Digital, 3/2 (L,C,R,l,r) + LFE ch, 448.00 kbps |ENGВидео: Идентификатор : 1 Формат : AVC Формат/Информация : Advanced Video Codec Профиль формата : [email protected] Параметр CABAC формата : Да Параметр ReFrames формата : 9 кадров Идентификатор кодека : V_MPEG4/ISO/AVC Продолжительность : 1 ч. 34 м. Битрейт : 2425 Кбит/сек Ширина : 1200 пикселей Высота : 650 пикселей Соотношение сторон : 1,85:1 Режим частоты кадров : Постоянный Частота кадров : 23,976 кадра/сек Цветовое пространство : YUV Субдискретизация насыщенности : 4:2:0 Битовая глубина : 8 бит Тип развёртки : Прогрессивная Бит/(Пиксели*Кадры) : 0.130 Размер потока : 1,55 Гбайт (71%) Заголовок : The Call Библиотека кодирования : x264 core 125 r2208 d9d2288 Настройки программы : cabac=1 / ref=9 / deblock=1:-2:-2 / analyse=0x3:0x133 / me=umh / subme=11 / psy=1 / psy_rd=1.05:0.00 / mixed_ref=1 / me_range=32 / chroma_me=1 / trellis=2 / 8x8dct=1 / cqm=0 / deadzone=21,11 / fast_pskip=0 / chroma_qp_offset=-2 / threads=9 / lookahead_threads=1 / sliced_threads=0 / nr=0 / decimate=1 / interlaced=0 / bluray_compat=0 / constrained_intra=0 / bframes=10 / b_pyramid=2 / b_adapt=2 / b_bias=0 / direct=3 / weightb=1 / open_gop=0 / weightp=2 / keyint=240 / keyint_min=23 / scenecut=40 / intra_refresh=0 / rc_lookahead=100 / rc=2pass / mbtree=1 / bitrate=2425 / ratetol=1.0 / qcomp=0.70 / qpmin=0 / qpmax=69 / qpstep=4 / cplxblur=20.0 / qblur=0.5 / vbv_maxrate=50000 / vbv_bufsize=62500 / nal_hrd=none / ip_ratio=1.35 / aq=1:0.70 Язык : English Default : Да Forced : НетАудио #1: Идентификатор : 2 Формат : AC-3 Формат/Информация : Audio Coding 3 Расширение режима : CM (complete main) Параметр Endianness формата : Big Идентификатор кодека : A_AC3 Продолжительность : 1 ч. 34 м. Вид битрейта : Постоянный Битрейт : 448 Кбит/сек Каналы : 6 каналов Расположение каналов : Front: L C R, Side: L R, LFE Частота : 48,0 КГц Битовая глубина : 16 бит Метод сжатия : С потерями Размер потока : 302 Мбайт (13%) Заголовок : Dub | DD 5.1 @ 448 kbps - R5 Язык : Russian Default : Да Forced : ДаАудио #2: Идентификатор : 3 Формат : AC-3 Формат/Информация : Audio Coding 3 Расширение режима : CM (complete main) Параметр Endianness формата : Big Идентификатор кодека : A_AC3 Продолжительность : 1 ч. 34 м. Вид битрейта : Постоянный Битрейт : 448 Кбит/сек Каналы : 6 каналов Расположение каналов : Front: L C R, Side: L R, LFE Частота : 48,0 КГц Битовая глубина : 16 бит Метод сжатия : С потерями Размер потока : 302 Мбайт (13%) Заголовок : Original | DD 5.1 @ 448 kbps Язык : English Default : Нет Forced : Нет 2,19 Gb 32 6
31 января 2016 15:08 Тревожный вызов / The Call (2013) BDRemux 1080p | Лицензия .torrent   [Информация о файле (нажмите для просмотра)] Качество: Blu-Ray Remux (1080p)Видео: MPEG-4 AVC, 25.5 Мбит/с, 1920x1080, 23.976 кадр/сАудио: Русский (АС3, 6 ch, 448 Кбит/с), английский (DTS-HD МА, 6 ch, 3583 Кбит/с)Перевод: Дублированный [лицензия]Субтитры: Английские 19,49 Gb 10 3
31 января 2016 15:08 Тревожный вызов / The Call (2013) DVD5 | Лицензия .torrent   [Информация о файле (нажмите для просмотра)] Качество: DVDВидео: PAL 16:9 ([email protected], 4734 Кбит/сек) VBRАудио: Русский (AC3, 6 ch, 448 Кбит/с)Перевод: Дублированный [лицензия] 3,9 Gb 2 4

Скачать Тревожный вызов через торрент

Категория: Фильмы 2838 0 Торрент добавлен: 15-04-2015 Рейтинг:

Жанр: триллер Выпущено: СШАПродолжительность: 01:27:41 Режиссер: Брэд Андерсон В ролях: Холли Берри, Эбигейл Бреслин, Моррис Честнат, Майкл Эклунд, Майкл Империоли, Дэвид Отунга, Жустина Мачадо, Хосе Суньига, Рома Маффиа, Эви Томпсон

Все американцы прекрасно знают, что если твоей жизни угрожает какая-либо опасность, нужно немедленно звонит 911. Главная героиня работает в одном из таких центров экстренной помощи, и однажды до нее дозванивается девочка, которая может стать жертвой убийцы. В этом звонке нет ничего необычного, потому что каждый день таких тысячи, однако оператор, который принял звонок от девочки, сама оказывалась в подобной ситуации.

Трейлер к фильму Тревожный вызов

Тревожный вызов скачать торрент

Качество видео: Blu-ray DiscФормат видео: BDMVВидео: MPEG-4 AVC Video 25581 kbps 1080p / 23,976 fps / 16:9 / High Profile 4.1Аудио: DTS-HD Master Audio English 3583 kbps 5.1 / 48 kHz / 3583 kbps / 24-bit (DTS Core: 5.1 / 48 kHz / 1509 kbps / 24-bit)

30,89 Gb

Качество: BDRip (1080p)Видео: MPEG-4 AVC, 8450 Кбит/с, 1920x1040Аудио: Русский (АС3, 6 ch, 448 Кбит/с), английский (DTS, 6 ch, 1510 Кбит/с) Дублированный [лицензия]

6,85 Gb

Качество: BDRip (720p)Видео: MPEG-4 AVC; 5127 Kbps; 1280x696Аудио: Русский (АС3, 6 ch, 448 Кбит/с), английский (DTS, 6 ch, 1510 Кбит/с)Дублированный[лицензия]

4,66 Gb

Качество: DVDRipВидео: XviD, 1713 Кбит/с, 704x368Аудио: AC3, 6 ch, 448 Кбит/сПеревод: Дублированный [лицензия] 1,37 Gb

скачать

Вы находитесь на странице, где можете совершенно бесплатно скачать фильм Тревожный вызов в хорошем качестве через торрент, в любом формате, который больше всего вам на данный момент подходит. Скачивание осуществляется через торрент, что означает максимально высокую скорость загрузки. Желаем Вам приятного просмотра!. Не забудь поделиться своими впечатлениями после того как посмотришь фильм Тревожный вызов.

Информация Посетители, находящиеся в группе Гости, не могут оставлять комментарии к данной публикации.

psp-gu.ru

Тревожный вызов (2013) скачать торрент в хорошем качестве бесплатно. Скачать Тревожный вызов (2013) через торрент фильм в HD качестве

Для того чтобы скачать фильм Тревожный вызов (2013) через торрент, Вам необходимо нажать на кнопку скачать торрент, которая находится над постером сверху, или на текстовую ссылку с надписью - Тревожный вызов (2013) скачать торрент в хорошем качестве.

igrhost.ru

Название: Тревожный вызовОригинальное название: The CallГод выпуска: 2013Выпущено: СШАЖанр: триллер, маньякиПродолжительность: 01:28:06Перевод: Дублированный (лицензия)

Качество видео: HDRip (Лицензия)Формат видео: aviРазмер: 1450 MB

Режиссер: Брэд АндерсонВ ролях: Холли Берри, Эбигейл Бреслин, Моррис Честнат, Майкл Эклунд, Майкл Империоли, Дэвид Отунга и др.

Описание: Наша главная героиня фильма Тревожный звонок, является сотрудником команды быстрого реагирования 911. Она работает оператором, ежедневно она вынуждена сталкиваться с персонами, которые нуждаются в поддержке, или в неотложной помощи. Главные её обязанности, морально поддержать человека, и своевременно дать ориентировку, на необходимое место, подразделению служителям порядка. Один раз ей позвонила молодая женщина, её норовят похитить. Все было гладко, злоумышленник, не получивший то чего хотел, уходил из квартиры. Он предположил, что девушка убежала из дома. Только, внезапно Джотан, имеющая огромный опыт работы в службе 911, делает непростительную ошибку, перезванивает молодой женщине. Маньяк, который уже почти покинул дом услышал, что кто - то поднял трубку, и у него, получается, осуществить преступление. Женщину через определенный промежуток времени находят бездыханной. После этих трагических событий Джордан зарабатывает серьезную эмоциональную травму, и теперь она не может работать оператором. Конечно же, девушку не уволили с работы, а предложили должность инструктора, с которой она соглашается. Однако все равно, после тревожного звонка она не может спокойно спать - снится постоянно один и тот же сон, на работе не может собраться. Ведь это по её вине была убита та девушка, тот звонок и посодействовал убийце в поисках женщины. В скором времени Джордан вновь выпадет случай наткнуться на этого маньяка. Допустит ли она очередную ошибку, сможет ли предотвратить еще одно преступление?

Рецензия от сайта Igrhost.ruМолодая женщина по имени Джордан Тернер работает оператором службы спасения 911. Лиа Темполтон – девочка, которая звонит в службу и попадает именно Джордан. Позвонившая утверждает, что кто-то хочет пробраться к ней в дом. Джордан дает совет, согласно которому девочке необходимо выкинуть обувь в окно, а самой спрятаться под кроватью. Это даст ей возможность запутать преступника. Когда преступник заметил открытое окно и обувь, он решает спуститься вниз, направившись во двор. Именно в этот момент звонок оборвался, и оператор совершает ошибку – она перезванивает. Когда нападающий слышит наверху звонок, то понимает, что был обведен вокруг пальца. Когда он находит девочку под кроватью, то оглушает жертву. Прежде чем он прекратит звонок, Джордон просит его не совершать то, о чем он потом сильно пожалеет, но тот утверждает, что уже это совершил и обрывает разговор. Оператор находится в шоке от произошедшего, но все же ей удается оправиться. Через некоторое время в новостях рассказывают, что был обнаружен труп той самой девочки, с которой сняли скальп. Проходит полгода после случившегося, Тернер по-прежнему работает в 911, только теперь в качестве преподавателя-консультанта, обучающего молодых сотрудников.

Когда человек оказывается в критической или смертельно опасной ситуации, то он должен не потерять самоконтроль и самообладание. Когда осознаешь, что близка опасность, необходимо сосредоточиться, не паниковать и разработать план последующих действий. Но как действовать, если под угрозой находится не ваша жизнь, а чужая, которая именно от вас и зависит? Похожей идеей сценаристы воспользовались при создании киноленты «Тревожный вызов».Даже не смотря на то, что фильм выглядит просто, его очень сильно выделяет игра актеров, а если быть точной, то двух замечательных актрис – Эбигейл Бреслин и Холли Берри. Последней была отведена роль Джордан – персонажа довольно непростого, но актрисе удалось великолепно передать характер героини. Эбигейл Бреслин, игравшая похищенную девочку Кейси, смогла идеально вжиться в роль невинной жертвы.Режиссеру Брэду Андерсону удалось снять картину в стиле классического остросюжетного триллера, который удерживает зрителя в напряжении во время всего просмотра. Чтобы показать всю силу страха главных героинь, была использована отличная работа оператора и монтаж.Сюжет самой киноленты можно считать слишком простой, если бы не появившаяся там детективная линия. Именно она берет на себя роль раскрытия все секретов и мотивов маньяка, вынуждающих его заниматься похищением и убийством женщин.Нельзя сказать, что фильм займет в моей фильмотеке разряд самых любимых, но при этом есть полная уверенность относительно того, что «Тревожный вызов» - это один из самых лучших и ярких остросюжетных триллеров, который запоминается великолепной игрой актеров. Смущение вызывает лишь тот момент, что создатели заранее не делали никаких попыток для того, чтобы ввести смотрящего в состояние неожиданности действия.

Скачать фильм Тревожный вызов через торрент в хорошем качестве бесплатно 720p

GeneralUnique ID : 192378572079867384697702538248771885613 (0x90BAC3E841BD7D95B348EE8031705A2D)Complete name : E:ФильмыThe.Call.BDRip.720p.mkvFormat : MatroskaFormat version : Version 4 / Version 2File size : 4.66 GiBDuration : 1h 34mnOverall bit rate : 7 084 KbpsMovie name : The.CallEncoded date : UTC 2013-06-11 22:31:12Writing application : mkvmerge v6.2.0 ('Promised Land') built on Apr 28 2013 12:22:01Writing library : libebml v1.3.0 + libmatroska v1.4.0

VideoID : 1Format : AVCFormat/Info : Advanced Video CodecFormat profile : [email protected] settings, CABAC : YesFormat settings, ReFrames : 5 framesCodec ID : V_MPEG4/ISO/AVCDuration : 1h 34mnBit rate : 5 127 KbpsWidth : 1 280 pixelsHeight : 696 pixelsDisplay aspect ratio : 1.85:1Frame rate mode : ConstantFrame rate : 23.976 fpsColor space : YUVChroma subsampling : 4:2:0Bit depth : 8 bitsScan type : ProgressiveBits/(Pixel*Frame) : 0.240Stream size : 3.28 GiB (70%)Title : The.Call.2013.720p.BluRay.x264-SPARKSWriting library : x264 core 133 r2334 a3ac64bEncoding settings : cabac=1 / ref=5 / deblock=1:0:0 / analyse=0x3:0x133 / me=umh / subme=7 / psy=1 / psy_rd=1.00:0.00 / mixed_ref=1 / me_range=16 / chroma_me=1 / trellis=1 / 8x8dct=1 / cqm=0 / deadzone=21,11 / fast_pskip=0 / chroma_qp_offset=-2 / threads=12 / lookahead_threads=2 / sliced_threads=0 / nr=0 / decimate=1 / interlaced=0 / bluray_compat=0 / constrained_intra=0 / bframes=3 / b_pyramid=2 / b_adapt=1 / b_bias=0 / direct=1 / weightb=1 / open_gop=0 / weightp=2 / keyint=250 / keyint_min=23 / scenecut=40 / intra_refresh=0 / rc_lookahead=40 / rc=2pass / mbtree=1 / bitrate=5127 / ratetol=1.0 / qcomp=0.60 / qpmin=0 / qpmax=69 / qpstep=4 / cplxblur=20.0 / qblur=0.5 / ip_ratio=1.40 / aq=1:1.00Language : EnglishDefault : YesForced : Yes

Audio #1ID : 2Format : AC-3Format/Info : Audio Coding 3Mode extension : CM (complete main)Format settings, Endianness : BigCodec ID : A_AC3Duration : 1h 34mnBit rate mode : ConstantBit rate : 448 KbpsChannel(s) : 6 channelsChannel positions : Front: L C R, Side: L R, LFESampling rate : 48.0 KHzBit depth : 16 bitsCompression mode : LossyStream size : 302 MiB (6%)Title : DD 5.1 @ 448 kbps - Dub, R5Language : RussianDefault : YesForced : Yes

Audio #2ID : 3Format : DTSFormat/Info : Digital Theater SystemsMode : 16Format settings, Endianness : BigCodec ID : A_DTSDuration : 1h 34mnBit rate mode : ConstantBit rate : 1 509 KbpsChannel(s) : 6 channelsChannel positions : Front: L C R, Side: L R, LFESampling rate : 48.0 KHzBit depth : 24 bitsCompression mode : LossyStream size : 1 017 MiB (21%)Title : DTS 5.1 @ 1536 kbpsLanguage : EnglishDefault : NoForced : No

Menu00:00:00.000 : en:00:00:00.00000:06:26.678 : en:00:06:26.67800:12:30.500 : en:00:12:30.50000:17:15.034 : en:00:17:15.03400:24:12.409 : en:00:24:12.40900:30:43.759 : en:00:30:43.75900:36:00.075 : en:00:36:00.07500:42:41.726 : en:00:42:41.72600:46:51.892 : en:00:46:51.89200:49:57.912 : en:00:49:57.91200:54:50.913 : en:00:54:50.91301:01:31.563 : en:01:01:31.56301:06:08.173 : en:01:06:08.17301:12:30.638 : en:01:12:30.63801:20:04.216 : en:01:20:04.21601:26:01.782 : en:01:26:01.782

piratbit.ru


Смотрите также