Тор 2 скачать через торрент в хорошем качестве


The Drk Wrld 3D (2013) -

General Unique ID : 239324164166038260570854725585393618592 (0xB40C284C9084E250B02696CA56FB0EA0) Complete name : E:\Thor2.TheDarkWorld(2013)3D-halfOU(Ash61)ClearSound\Thor2.TheDarkWorld(2013)3D-halfOU(Ash61).mkv Format : Matroska Format version : Version 2 File size : 5.70 GiB Duration : 1h 52mn Overall bit rate : 7 277 Kbps Movie name : 2: / Thor: The Dark World (2013) 3D Encoded date : UTC 2014-02-15 06:47:32 Writing application : mkvmerge v5.8.0 ('No Sleep / Pillow') built on Sep 2 2012 15:37:04 Writing library : libebml v1.2.3 + libmatroska v1.3.0

Video

ID : 1 Format : AVC Format/Info : Advanced Video Codec Format profile : [email protected] Format settings, CABAC : Yes Format settings, ReFrames : 4 frames Codec ID : V_MPEG4/ISO/AVC Duration : 1h 52mn Bit rate : 5 852 Kbps Width : 1 920 pixels Height : 1 080 pixels Display aspect ratio : 16:9 Frame rate mode : Constant Frame rate : 23.976 fps Color space : YUV Chroma subsampling : 4:2:0 Bit depth : 8 bits Scan type : Progressive Bits/(Pixel*Frame) : 0.118 Stream size : 4.58 GiB (80%) Title : BDRip by Ash61 Writing library : x264 core 129 r2245 bc13772 Encoding settings : cabac=1 / ref=4 / deblock=1:-3:-3 / analyse=0x3:0x113 / me=umh / subme=10 / psy=1 / psy_rd=1.00:0.15 / mixed_ref=1 / me_range=32 / chroma_me=1 / trellis=2 / 8x8dct=1 / cqm=0 / deadzone=21,11 / fast_pskip=1 / chroma_qp_offset=-3 / threads=12 / lookahead_threads=2 / sliced_threads=0 / nr=0 / decimate=1 / interlaced=0 / bluray_compat=0 / constrained_intra=0 / bframes=10 / b_pyramid=2 / b_adapt=2 / b_bias=0 / direct=3 / weightb=1 / open_gop=0 / weightp=2 / keyint=250 / keyint_min=23 / scenecut=40 / intra_refresh=0 / rc_lookahead=60 / rc=crf / mbtree=1 / crf=17.0 / qcomp=0.70 / qpmin=0 / qpmax=69 / qpstep=4 / vbv_maxrate=40000 / vbv_bufsize=30000 / crf_max=0.0 / nal_hrd=none / frame-packing=4 / ip_ratio=1.40 / aq=1:0.70 Language : English Default : Yes Forced : No

Audio #1

ID : 2 Format : AC-3 Format/Info : Audio Coding 3 Mode extension : CM (complete main) Format settings, Endianness : Big Codec ID : A_AC3 Duration : 1h 52mn Bit rate mode : Constant Bit rate : 640 Kbps Channel(s) : 6 channels Channel positions : Front: L C R, Side: L R, LFE Sampling rate : 48.0 KHz Bit depth : 16 bits Compression mode : Lossy Stream size : 513 MiB (9%) Title : - BD 3D CEE Language : Russian Default : Yes Forced : No

Audio #2

ID : 3 Format : AC-3 Format/Info : Audio Coding 3 Mode extension : CM (complete main) Format settings, Endianness : Big Codec ID : A_AC3 Duration : 1h 52mn Bit rate mode : Constant Bit rate : 640 Kbps Channel(s) : 6 channels Channel positions : Front: L C R, Side: L R, LFE Sampling rate : 48.0 KHz Bit depth : 16 bits Compression mode : Lossy Stream size : 513 MiB (9%) Title : Original - BD 3D Language : English Default : No Forced : No

Text #1

ID : 4 Format : UTF-8 Codec ID : S_TEXT/UTF8 Codec ID/Info : UTF-8 Plain Text Title : Language : Russian Default : Yes Forced : No

Text #2

ID : 5 Format : UTF-8 Codec ID : S_TEXT/UTF8 Codec ID/Info : UTF-8 Plain Text Title : Forced Language : English Default : No Forced : No

Menu

00:00:00.000 : :1. Prologue 00:06:13.665 : :2. The Nine Realms At Peace 00:13:05.535 : :3. Strange Happenings In London 00:18:40.995 : :4. The Aether Awakens 00:24:56.829 : :5. Welcome To Asgard 00:29:07.663 : :6. The Last Of The Kursed 00:41:33.366 : :7. Attack On Asgard 00:49:40.227 : :8. We Are Not Immortal 00:55:56.144 : :9. Desperate Times 01:00:08.897 : :10. Escape From Asgard 01:08:12.672 : :11. Brothers In Arms 01:12:39.897 : :12. Return To The Dark World 01:21:34.473 : :13. Follow The Signs 01:26:23.095 : :14. Thor vs. Malekith vs. The Convergence 01:33:58.800 : :15. The Aether Unleashed 01:38:31.656 : :16. Born To Be A King 01:41:49.520 : :17. End Credits

unionpeer.com

Царство тьмы в 3Д через торрент в хорошем качестве бесплатно 1080p

ОбщееУникальный идентификатор : 233454559083101786994129952764225273694 (0xAFA1B66CE679208482C9C7BCB3C23F5E)Полное имя : E:закачкиThor The Dark World.Rip by SeRoGa00.mkvФормат : MatroskaВерсия формата : Version 2Размер файла : 9,13 ГбайтПродолжительность : 1 ч. 52 м.Общий поток : 11,7 Мбит/секДата кодирования : UTC 2014-02-14 13:52:41Программа кодирования : mkvmerge v3.4.0 ('Rapunzel') сборка от May 15 2010 09:38:20Библиотека кодирования : libebml v0.8.0 + libmatroska v0.9.0

ВидеоИдентификатор : 1Формат : AVCФормат/Информация : Advanced Video CodecПрофиль формата : [email protected]Параметр CABAC формата : ДаПараметр ReFrames формата : 4 кадраИдентификатор кодека : V_MPEG4/ISO/AVCПродолжительность : 1 ч. 52 м.Битрейт : 10,2 Мбит/секШирина : 1920 пикселейВысота : 1600 пикселейСоотношение сторон : 1,200Частота кадров : 23,976 кадра/секЦветовое пространство : YUVСубдискретизация насыщенности : 4:2:0Битовая глубина : 8 битТип развёртки : ПрогрессивнаяБит/(Пиксели*Кадры) : 0.138Размер потока : 7,95 Гбайт (87%)Заголовок : Rip by SeRoGa00Библиотека кодирования : x264 core 138 r2356 a1d3d17Настройки программы : cabac=1 / ref=4 / deblock=1:-3:-3 / analyse=0x3:0x113 / me=umh / subme=9 / psy=1 / psy_rd=1.00:0.15 / mixed_ref=1 / me_range=24 / chroma_me=1 / trellis=2 / 8x8dct=1 / cqm=0 / deadzone=21,11 / fast_pskip=1 / chroma_qp_offset=-3 / threads=9 / lookahead_threads=1 / sliced_threads=0 / nr=0 / decimate=1 / interlaced=0 / bluray_compat=0 / constrained_intra=0 / bframes=8 / b_pyramid=2 / b_adapt=2 / b_bias=0 / direct=3 / weightb=1 / open_gop=0 / weightp=2 / keyint=250 / keyint_min=23 / scenecut=40 / intra_refresh=0 / rc_lookahead=60 / rc=crf / mbtree=1 / crf=18.0 / qcomp=0.60 / qpmin=10 / qpmax=69 / qpstep=4 / vbv_maxrate=40000 / vbv_bufsize=40000 / crf_max=0.0 / nal_hrd=none / ip_ratio=1.40 / aq=1:1.00Язык : English

Аудио #1Идентификатор : 2Формат : AC-3Формат/Информация : Audio Coding 3Расширение режима : CM (complete main)Идентификатор кодека : A_AC3Продолжительность : 1 ч. 52 м.Вид битрейта : ПостоянныйБитрейт : 640 Кбит/секКаналы : 6 каналовРасположение каналов : Front: L C R, Side: L R, LFEЧастота : 48,0 КГцБитовая глубина : 16 битМетод сжатия : С потерямиРазмер потока : 513 Мбайт (5%)Язык : Russian

Аудио #2Идентификатор : 3Формат : AC-3Формат/Информация : Audio Coding 3Расширение режима : CM (complete main)Идентификатор кодека : A_AC3Продолжительность : 1 ч. 52 м.Вид битрейта : ПостоянныйБитрейт : 640 Кбит/секКаналы : 6 каналовРасположение каналов : Front: L C R, Side: L R, LFEЧастота : 48,0 КГцБитовая глубина : 16 битМетод сжатия : С потерямиРазмер потока : 513 Мбайт (5%)Язык : English

ТекстИдентификатор : 4Формат : UTF-8Идентификатор кодека : S_TEXT/UTF8Идентификатор кодека/Информация : UTF-8 Plain Text

piratbit.ru

Царство тьмы в 3D через торрент в хорошем качестве бесплатно 1080p

ОбщееУникальный идентификатор : 246554388353560219248606888572722394664 (0xB97CA5DFB98F03C096D85019B71CB628)Полное имя : D:DVDThor2.The.Dark.World(2013)3D(Anaglyph_Dubois).mkvФормат : MatroskaВерсия формата : Version 4 / Version 2Размер файла : 5,33 ГбайтПродолжительность : 1 ч. 52 м.Общий поток : 6810 Кбит/секНазвание фильма : Тор 2: Царство тьмы / Thor.The.Dark.World.3D.2013.1080p.BluRay.(Anaglyph_Dubois)Дата кодирования : UTC 2014-02-14 15:04:47Программа кодирования : mkvmerge v6.2.0 ('Promised Land') built on Apr 28 2013 12:22:01Библиотека кодирования : libebml v1.3.0 + libmatroska v1.4.0

ВидеоИдентификатор : 1Формат : AVCФормат/Информация : Advanced Video CodecПрофиль формата : [email protected]_Count : 2MultiView_Layout : Anaglyph (cyan/red)Параметр CABAC формата : ДаПараметр ReFrames формата : 4 кадраИдентификатор кодека : V_MPEG4/ISO/AVCПродолжительность : 1 ч. 52 м.Битрейт : 5394 Кбит/секШирина : 1920 пикселейВысота : 1080 пикселейСоотношение сторон : 16:9Режим частоты кадров : ПостоянныйЧастота кадров : 23,976 кадра/секЦветовое пространство : YUVСубдискретизация насыщенности : 4:2:0Битовая глубина : 8 битТип развёртки : ПрогрессивнаяБит/(Пиксели*Кадры) : 0.108Размер потока : 4,22 Гбайт (79%)Заголовок : Thor.The.Dark.World.3D.2013.1080p.BluRay.(Anaglyph_Dubois).mkvБиблиотека кодирования : x264 core 112 r1834bm a51816aНастройки программы : cabac=1 / ref=4 / deblock=1:-1:-1 / analyse=0x3:0x113 / me=umh / subme=8 / psy=1 / psy_rd=1.00:0.15 / mixed_ref=1 / me_range=16 / chroma_me=1 / trellis=1 / 8x8dct=1 / cqm=0 / deadzone=21,11 / fast_pskip=1 / chroma_qp_offset=-3 / threads=3 / sliced_threads=0 / nr=0 / decimate=1 / interlaced=0 / constrained_intra=0 / bframes=3 / b_pyramid=2 / b_adapt=2 / b_bias=0 / direct=3 / weightb=1 / open_gop=0 / weightp=2 / keyint=250 / keyint_min=23 / scenecut=40 / intra_refresh=0 / rc_lookahead=50 / rc=crf / mbtree=1 / crf=18.5 / qcomp=0.60 / qpmin=0 / qpmax=51 / qpstep=4 / crop_rect=0,0,0,0 / ip_ratio=1.40 / aq=1:1.00Язык : EnglishDefault : ДаForced : Нет

Аудио #1Идентификатор : 2Формат : AC-3Формат/Информация : Audio Coding 3Расширение режима : CM (complete main)Параметр Endianness формата : BigИдентификатор кодека : A_AC3Продолжительность : 1 ч. 52 м.Вид битрейта : ПостоянныйБитрейт : 640 Кбит/секКаналы : 6 каналовРасположение каналов : Front: L C R, Side: L R, LFEЧастота : 48,0 КГцБитовая глубина : 16 битМетод сжатия : С потерямиРазмер потока : 513 Мбайт (9%)Язык : RussianDefault : ДаForced : Нет

Аудио #2Идентификатор : 3Формат : AC-3Формат/Информация : Audio Coding 3Расширение режима : CM (complete main)Параметр Endianness формата : BigИдентификатор кодека : A_AC3Продолжительность : 1 ч. 52 м.Вид битрейта : ПостоянныйБитрейт : 640 Кбит/секКаналы : 6 каналовРасположение каналов : Front: L C R, Side: L R, LFEЧастота : 48,0 КГцБитовая глубина : 16 битМетод сжатия : С потерямиРазмер потока : 513 Мбайт (9%)Заголовок : Original - BD 3DЯзык : EnglishDefault : НетForced : Нет

Текст #1Идентификатор : 4Формат : UTF-8Идентификатор кодека : S_TEXT/UTF8Идентификатор кодека/Информация : UTF-8 Plain TextЯзык : RussianDefault : ДаForced : Нет

Текст #2Идентификатор : 5Формат : UTF-8Идентификатор кодека : S_TEXT/UTF8Идентификатор кодека/Информация : UTF-8 Plain TextЯзык : RussianDefault : НетForced : Нет

Текст #3Идентификатор : 6Формат : UTF-8Идентификатор кодека : S_TEXT/UTF8Идентификатор кодека/Информация : UTF-8 Plain TextЗаголовок : ForcedЯзык : EnglishDefault : НетForced : Нет

Текст #4Идентификатор : 7Формат : UTF-8Идентификатор кодека : S_TEXT/UTF8Идентификатор кодека/Информация : UTF-8 Plain TextЗаголовок : SDHЯзык : EnglishDefault : НетForced : Нет

Меню00:00:00.000 : :1. Prologue00:06:13.665 : :2. The Nine Realms At Peace00:13:05.535 : :3. Strange Happenings In London00:18:40.995 : :4. The Aether Awakens00:24:56.829 : :5. Welcome To Asgard00:29:07.663 : :6. The Last Of The Kursed00:41:33.366 : :7. Attack On Asgard00:49:40.227 : :8. We Are Not Immortal00:55:56.144 : :9. Desperate Times01:00:08.897 : :10. Escape From Asgard01:08:12.672 : :11. Brothers In Arms01:12:39.897 : :12. Return To The Dark World01:21:34.473 : :13. Follow The Signs01:26:23.095 : :14. Thor vs. Malekith vs. The Convergence01:33:58.800 : :15. The Aether Unleashed01:38:31.656 : :16. Born To Be A King01:41:49.520 : :17. End Credits

piratbit.ru

Царство тьмы через торрент в хорошем качестве бесплатно 1080p] Дубляж

piratbit.ru

Раздают: 1 [ 0 KB/s ]
Размер: 10.24 GB | Добавлен: 3 года 8 мес. назад | Торрент скачан:1879 раз
Реклама Дарим 3000 рублей за регистрацию, не упусти свой шанс получить шикарный бонус!!!

10-02-2014 23:39 Тор 2: Царство тьмы Скачать торрент  

Тор 2: Царство тьмы / Thor: The Dark WorldГод выпуска: 2013Страна: СШАЖанр: фэнтези, боевик, приключенияПродолжительность: 01:52:03Перевод: |Профессиональный (полное дублирование), iTunes|Субтитры: Русские (форс + полные)Режиссер: Алан Тейлор / Alan TaylorВ ролях: Крис Хемсворт (Thor), Натали Портман (Jane Foster), Том Хиддлстон (Loki), Энтони Хопкинс (Odin), Кристофер Экклстон (Malekith), Джейми Александер (Sif), Закари Левай (Fandral), Рэй Стивенсон (Volstagg), Таданобу Асано (Hogun), Идрис Эльба (Heimdall), Рене Руссо (Frigga), Адевале Акинойе-Агбаже (Algrim /Kurse)Описание: Продолжение приключений одного из членов команды Мстителей, скандинавского бога Тора, которому на этот раз в одиночку предстоит защитить Землю и все девять миров от нашествия неизвестного врага.Могучему Тору предстоит вновь сразиться за восстановление порядка в галактике, встретившись лицом к лицу с древней инопланетной расой, ведомой злодеем Малекитом, жаждущим установить в девяти мирах власть тьмы. Столкнувшись с врагом, более могущественным чем сам Один и всё воинство Асгарда, Тор должен собрать силы для решающей битвы. Его ждёт опасное путешествие и долгожданная встреча со своей земной возлюбленной Джейн Фостер. Сможет ли Тор рискнуть самым дорогим, чтобы не дать тьме воцариться на просторах вселенной?Рейтинг MPAA: PG-13 - Детям до 13 лет просмотр не желателенКачество: BDRip 1080pФормат: MKVВидео кодек: AVCАудио кодек: AC3, DTSВидео: AVC, 11000 Kбит/с, 1920х800, 23.976 кадр/сАудио №1: AC3 / 5.1 / 48 kHz / 384 kbps / 16 bitАудио №2: английский / DTS / 48 kHz / 1536 kbps / 24 bitАудио №3: английский / AC3 / 2.0 / 48 kHz / 192 kbps / 16 bitОформление: Messa-fan

Код:

За исходный блюр спасибо [b]LAZERS[/b]Rip by [b]bog3417[/b]

Код:

GeneralUnique ID                                : 241387348469925954858232342526557377185 (0xB599832390F07FBE98958A9B6C1352A1)Complete name                            : /home/sb672/files/Tor.2.Tsarstvo.tmy.2013.BDRip.1080p_by_bog3417.mkvFormat                                   : MatroskaFormat version                           : Version 2File size                                : 10.2 GiBDuration                                 : 1h 52mnOverall bit rate                         : 13.1 MbpsMovie name                               : by_bog3417Encoded date                             : UTC 2014-02-10 19:29:09Writing application                      : mkvmerge v6.7.0 ('Back to the Ground') 32bit built on Jan  8 2014 15:03:17Writing library                          : libebml v1.3.0 + libmatroska v1.4.1

VideoID                                       : 1Format                                   : AVCFormat/Info                              : Advanced Video CodecFormat profile                           : [email protected] settings, CABAC                   : YesFormat settings, ReFrames                : 5 framesCodec ID                                 : V_MPEG4/ISO/AVCDuration                                 : 1h 52mnBit rate                                 : 11.0 MbpsWidth                                    : 1 920 pixelsHeight                                   : 800 pixelsDisplay aspect ratio                     : 2.40:1Frame rate                               : 23.976 fpsColor space                              : YUVChroma subsampling                       : 4:2:0Bit depth                                : 8 bitsScan type                                : ProgressiveBits/(Pixel*Frame)                       : 0.299Stream size                              : 8.41 GiB (82%)Title                                    : by_bog3417Writing library                          : x264 core 138 r2358 9e941d1Encoding settings                        : cabac=1 / ref=5 / deblock=1:-3:-3 / analyse=0x3:0x133 / me=tesa / subme=11 / psy=1 / psy_rd=1.00:0.10 / mixed_ref=1 / me_range=48 / chroma_me=1 / trellis=2 / 8x8dct=1 / cqm=0 / deadzone=21,11 / fast_pskip=0 / chroma_qp_offset=-3 / threads=8 / lookahead_threads=2 / sliced_threads=0 / nr=0 / decimate=0 / interlaced=0 / bluray_compat=0 / stitchable=1 / constrained_intra=0 / bframes=10 / b_pyramid=2 / b_adapt=2 / b_bias=0 / direct=3 / weightb=1 / open_gop=0 / weightp=2 / keyint=240 / keyint_min=23 / scenecut=40 / intra_refresh=0 / rc_lookahead=40 / rc=2pass / mbtree=1 / bitrate=11000 / ratetol=1.0 / qcomp=0.60 / qpmin=10 / qpmax=51 / qpstep=4 / cplxblur=20.0 / qblur=0.5 / ip_ratio=1.40 / aq=1:1.00Language                                 : EnglishDefault                                  : YesForced                                   : No

Audio #1ID                                       : 2Format                                   : AC-3Format/Info                              : Audio Coding 3Mode extension                           : CM (complete main)Format settings, Endianness              : BigCodec ID                                 : A_AC3Duration                                 : 1h 52mnBit rate mode                            : ConstantBit rate                                 : 384 KbpsChannel(s)                               : 6 channelsChannel positions                        : Front: L C R, Side: L R, LFESampling rate                            : 48.0 KHzBit depth                                : 16 bitsCompression mode                         : LossyStream size                              : 308 MiB (3%)Language                                 : RussianDefault                                  : YesForced                                   : No

Audio #2ID                                       : 3Format                                   : DTSFormat/Info                              : Digital Theater SystemsCodec ID                                 : A_DTSDuration                                 : 1h 52mnBit rate mode                            : ConstantBit rate                                 : 1 510 KbpsChannel(s)                               : 6 channelsChannel positions                        : Front: L C R, Side: L R, LFESampling rate                            : 48.0 KHzBit depth                                : 24 bitsCompression mode                         : LossyStream size                              : 1.18 GiB (12%)Title                                    : DTS 5.1 / 1536 kbps / OriginalLanguage                                 : EnglishDefault                                  : NoForced                                   : No

Audio #3ID                                       : 4Format                                   : AC-3Format/Info                              : Audio Coding 3Mode extension                           : CM (complete main)Format settings, Endianness              : BigCodec ID                                 : A_AC3Duration                                 : 1h 52mnBit rate mode                            : ConstantBit rate                                 : 192 KbpsChannel(s)                               : 2 channelsChannel positions                        : Front: L RSampling rate                            : 48.0 KHzBit depth                                : 16 bitsCompression mode                         : LossyStream size                              : 154 MiB (1%)Title                                    : AC3 2.0 / 192 kbps / CommentaryLanguage                                 : EnglishDefault                                  : NoForced                                   : No

Text #1ID                                       : 5Format                                   : UTF-8Codec ID                                 : S_TEXT/UTF8Codec ID/Info                            : UTF-8 Plain TextTitle                                    : ForcedLanguage                                 : RussianDefault                                  : YesForced                                   : No

Text #2ID                                       : 6Format                                   : UTF-8Codec ID                                 : S_TEXT/UTF8Codec ID/Info                            : UTF-8 Plain TextTitle                                    : FullLanguage                                 : RussianDefault                                  : NoForced                                   : No

Text #3ID                                       : 7Format                                   : UTF-8Codec ID                                 : S_TEXT/UTF8Codec ID/Info                            : UTF-8 Plain TextTitle                                    : ForcedLanguage                                 : EnglishDefault                                  : NoForced                                   : No

Text #4ID                                       : 8Format                                   : UTF-8Codec ID                                 : S_TEXT/UTF8Codec ID/Info                            : UTF-8 Plain TextTitle                                    : SDHLanguage                                 : EnglishDefault                                  : NoForced                                   : No

Menu00:00:00.000                             : en:Prologue00:06:13.665                             : en:The Nine Realms At Peace00:13:05.535                             : en:Strange Happenings In London00:18:40.995                             : en:The Aether Awakens00:24:56.829                             : en:Welcome To Asgard00:29:07.663                             : en:The Last Of The Kursed00:41:33.366                             : en:Attack On Asgard00:49:40.227                             : en:We Are Not Immortal00:55:56.144                             : en:Desperate Times01:00:08.897                             : en:Escape From Asgard01:08:12.672                             : en:Brothers In Arms01:12:39.897                             : en:Return To The Dark World01:21:34.473                             : en:Follow The Signs01:26:22.094                             : en:Thor vs. Malekith vs. The Convergence01:33:58.800                             : en:The Aether Unleashed01:38:31.656                             : en:Born To Be A King01:41:49.520                             : en:End Credits

  • Адевале Акинойе-Агбаже описал своего персонажа как «смесь быка и лавы». Во время съемок ему каждый день по три часа наносили макияж и 18 кг пластического грима.
  • В фильме эльфы изображаются как благородный народ, поэтому были сконструированы специальные маски с заниженными прорезями для глаз - чтобы видеть через них, актерам приходится держать спину ровно, а голову слегка запрокидывать назад, что придает им сильный и гордый вид.
  • Мастер по реквизиту Барри Гиббс (Barry Gibbs) и его команда из 18 техников сконструировали 140 единиц оружия за 10 недель. Всего же для фильма сконструировано более 600 единиц оружия.
  • Предполагалось, что Джошуа Даллас вернется в фильм в роли Фандрала, однако занятость на съемках сериала «Однажды в сказке» не позволила актеру этого сделать. Место Далласа в фильме занял Закари Левай, которому изначально и предназначалась роль Фандрала.
  • Улицы Асгарда - самая большая съемочная площадка, когда-либо строившаяся для фильма Marvel. Город воспроизведён с такой точностью, что можно прогуляться по его улицам, заглянуть в магазины, пабы и на тренировочные площадки.
  • Съемочная группа множество часов снимала с воздуха водопад Деттифосс в Исландии, самый мощный водопад в Европе, чтобы потом на компьютере придать природную реалистичность водопадам, окружающим Асгард.
  • Съемки в Исландии проходили в таких труднодоступных точках, что зачастую съемочной группе приходилось часами добираться от аэропорта до отеля, а затем ехать еще несколько часов от отеля до вулканических полей, послуживших съёмочной площадкой для сцен в Царстве тьмы.
  • Если хорошо приглядеться к деталям интерьера лондонской квартиры Джейн Фостер, можно заметить, что листок с нотами на фортепиано озаглавлен «Тор - Бог Грома».
  • Фотографии Джейн Фостер в детстве были любезно предоставлены для съемок мамой Натали Портман.
  • Для съемок было изготовлено около 30 молотов разного веса для использования в различных сценах. Основной молот выполнен из алюминия и воспроизведен в нескольких вариантах разного веса и из разных материалов, включая «мягкую» версию для выполнения трюков в фильме.
  • Дизайн Мьёльнира, молота Тора, претерпел изменения со времен его появления в фильме Marvel «Мстители» (2012). Новый Мьёльнир выглядит более древним, имеет больше деталей на рукоятке и напоминает тот, что использовался в оригинальном фильме «Тор» (2011).
  • Руническая надпись на молоте Тора гласит: «Кто бы ни взял этот молот, если достоин, будет обладать силой Тора».
  • Для фильма было создано более 40 костюмов темных эльфов за 3,5 месяца работы.
  • Актерам Кристоферу Экклстону и Адевале Акинойе-Агбаже, исполняющим роли темных эльфов, пришлось разучить диалоги на эльфийском языке, созданном специально для фильма.
  • Основные части фильма были отсняты в октябре - декабре 2012 года на английской студии Шеппертон, а также на основных площадках в Лондоне - Гринвиче, Уэмбли, Соборе Св. Павла, Боро Маркет, в лесах графства Суррей и Стоунхендже в Уилтшире. Сцены в мире темных эльфов создатели фильма снимали в Исландии, эта локация была выбрана из-за темных вулканических пейзажей.
  • Прежде чем начать съемки с вертолета над исторической частью Гринвича, создатели фильма отправили 4000 писем, по 2000 с каждой стороны реки, чтобы предупредить местных жителей о возможном беспокойстве и объяснить, что будет происходить во время съёмок.
  • После того, как съемочная группа наконец-то получила разрешение на съемку в районе Стоунхенджа, создатели фильма столкнулись с целым рядом правил и ограничений. Например, оказалось, что снимать там можно только в нерабочие часы, так что съемки проходили рано утром и всего по несколько часов в день. Так как Стоунхендж охраняется государством, по камням нельзя ходить и до них нельзя дотрагиваться, что существенно усложнило логистику съемок.
  • Мадс Миккельсен рассматривался на роль Малекита, но покинул проект из-за несогласованности расписаний съемок с сериалом «Ганнибал» (2013) (Энтони Хопкинс, исполняющий роль Одина, ранее играл Ганнибала). В итоге роль досталась Кристоферу Экклстону.
  • В конце 2011 года Пэтти Дженкинс была официально объявлена режиссером этого фильма. В декабре 2011-го она отказалась от проекта из-за «творческих разногласий». Натали Портман была так расстроена тем, что переговоры между Дженкинс и Marvel не состоялись, что даже хотела отказаться сниматься в сиквеле, но была вынуждена вернуться в связи с ее контрактом.
  • В конце сентября Джейми Александер получила травму на съемках в Лондоне: «Было около 5 часов утра, шел дождь, на улице было темно - я спускалась вниз по металлической лестнице и поскользнулась, в результате получила смещение диска в грудном отделе позвоночника и повреждения 11-ти позвонков. Также я выбила себе левое плечо… В итоге я не могла сниматься в течение месяца!»
  • Фильм снимался в Англии под названием «Траур четверга». В скандинавской мифологии «четверг» был назван в честь Тора (в оригинале «Thursday» - Thor`s Day).
  • Картер Бёруэлл должен был написать музыку к фильму, но покинул проект из-за творческих разногласий и был заменен композитором фильма «Железный человек 3» (2013) - Брайаном Тайлером.
  • Режиссер Алан Тейлор был так впечатлен игрой Адевале Акинойе-Агбаже, что уговорил его сделать все трюки самостоятельно, потому что у каскадера не получалось двигаться таким же образом, как это делал он.
  • Каменное существо, с которым сражается Тор, - это Кронан, пришелец, появляющийся в первом комиксе о Торе «Путешествие в тайну» («Journey Into Mystery» #83).
  • Девять миров позаимствованы из мифологии викингов. Миры держатся на ветвях огромного ясеня Иггдрасиля, играющего центральную роль в скандинавской мифологии. Асгард изображен наверху, а Земля, также известная как Мидгард - посередине. Вот эти девять миров: Асгард - мир богов;
  • Стэн Ли появляется в камео в роли мужчины, дающего ботинок доктору Селвигу.
  • Режиссёром первой сцены после титров является Джеймс Ганн.
  • Скачать Тор 2: Царство тьмы через торрент http://i3.imageban.ru/out/2014/02/11/156e0981ee7224ff7c4b69965c9a1241.jpg Скачать фильм Тор 2: Царство тьмы через торрент бесплантно в хорошем качестве Описание: Продолжение приключений одного из членов команды Мстителей, скандинавского бога Тора, которому на этот раз в одиночку предстоит ... 2014-02-10 23:57 9.5 10 42

    Loading...

    Loading...

    Рекламный пират

    11-02-2014 00:23 Тор 2: Царство тьмы Скачать торрент  

    Дорогой пользователь! Огромная просьба, поблагодарите релизера, оцените раздачу и оставьте свои комментарий, если Вы скачали Тор 2: Царство тьмы через торрент бесплатно! Внесите свою лепту в развитие PiratBit!

    Комментировать посты могут только пользователи прошедшие не сложную регистрацию

    Тор 2: Царство тьмы через торрент Скачать бесплатно Тор 2: Царство тьмы Тор 2: Царство тьмы скачать торрент Тор 2: Царство тьмы смотреть онлайн Cкачать фильм Тор 2: Царство тьмы бесплатно Тор 2: Царство тьмы скачать торрент в хорошем качестве Тор 2: Царство тьмы смотреть онлайн бесплатно в хорошем качестве

    Вы не можете начинать темыВы не можете отвечать на сообщенияВы не можете редактировать свои сообщенияВы не можете удалять свои сообщенияВы не можете голосовать в опросахВы не можете прикреплять файлы к сообщениямВы можете скачивать файлы


    Смотрите также