То что ее заводит скачать через торрент в хорошем качестве


Скачать фильм То, что её заводит (2011) через торрент

gig-torrent.net

22 января 2016 09:55 То, что её заводит / F meg p, for faen (2011) HDRip от Scarabey | P .torrent   [Информация о файле (нажмите для просмотра)] Перевод: Профессиональный (многоголосый закадровый)Видео: 688x368 (1.87:1), 25 fps, XviD build 50 ~1288 kbps avg, 0.20 bit/pixelАудио: 48 kHz, MPEG Layer 3, 2 ch, ~128.00 kbps avg 740,3 Mb 9 5
22 января 2016 09:55 То, что её заводит / Fа meg pа, for faen (2011) BDRip 720p | Лицензия .torrent   [Информация о файле (нажмите для просмотра)] Формат: MKVКачество: BDRip 720pВидео: MPEG-4 AVC, 5231 Кбит/с, 1280x690, 25.000 Кадр/сАудио: Русский (DTS-HD МА, 6 ch, 1561 Кбит/с), норвежский (DTS-HD МА, 6 ch, 1576 Кбит/с)Субтитры: Русские, английскиеMedia InfoФормат : Matroska Версия формата : Version 2 Размер файла : 6,13 Гбайт Продолжительность : 1 ч. 12 м. Режим общего битрейта : Переменный Общий поток : 12,1 Мбит/сек Дата кодирования : UTC 2012-05-10 18:30:17 Программа кодирования : mkvmerge v4.6.0 ('Still Crazy After All These Years') сборка от Apr 1 2011 21:01:49 Библиотека кодирования : libebml v1.2.0 + libmatroska v1.1.0Видео: Идентификатор : 1 Формат : AVC Формат/Информация : Advanced Video Codec Профиль формата : [email protected] Параметр CABAC формата : Да Параметр ReFrames формата : 8 кадров Идентификатор кодека : V_MPEG4/ISO/AVC Продолжительность : 1 ч. 12 м. Вид битрейта : Переменный Битрейт : 8707 Кбит/сек Номинальный битрейт : 5231 Кбит/сек Максимальный битрейт : 40,0 Мбит/сек Ширина : 1280 пикселей Высота : 690 пикселей Соотношение сторон : 1,855 Частота кадров : 25,000 кадров/сек Цветовое пространство : YUV Субдискретизация насыщенности : 4:2:0 Битовая глубина : 8 бит Тип развёртки : Прогрессивная Бит/(Пиксели*Кадры) : 0.394 Размер потока : 4,41 Гбайт (72%) Библиотека кодирования : x264 core 119 r2106 07efeb4 Настройки программы : cabac=1 / ref=8 / deblock=1:-3:-3 / analyse=0x3:0x113 / me=umh / subme=11 / psy=1 / psy_rd=1.05:0.10 / mixed_ref=1 / me_range=32 / chroma_me=1 / trellis=2 / 8x8dct=1 / cqm=0 / deadzone=21,11 / fast_pskip=0 / chroma_qp_offset=-3 / threads=24 / sliced_threads=0 / nr=0 / decimate=1 / interlaced=0 / bluray_compat=0 / constrained_intra=0 / bframes=5 / b_pyramid=2 / b_adapt=2 / b_bias=0 / direct=3 / weightb=1 / open_gop=0 / weightp=2 / keyint=360 / keyint_min=1 / scenecut=40 / intra_refresh=0 / rc_lookahead=60 / rc=2pass / mbtree=1 / bitrate=5231 / ratetol=1.0 / qcomp=0.60 / qpmin=0 / qpmax=69 / qpstep=4 / cplxblur=20.0 / qblur=0.5 / vbv_maxrate=40000 / vbv_bufsize=30000 / nal_hrd=none / ip_ratio=1.40 / aq=1:0.8 Default : Да Forced : НетАудио #1: Идентификатор : 3 Формат : DTS Формат/Информация : Digital Theater Systems Профиль формата : MA / Core Идентификатор кодека : A_DTS Продолжительность : 1 ч. 12 м. Вид битрейта : Переменный Битрейт : 1561 Кбит/сек / 1510 Кбит/сек Каналы : 6 каналов Расположение каналов : Front: L C R, Side: L R, LFE Частота : 48,0 КГц Битовая глубина : 24 бит Метод сжатия : Без потерь / Lossy Язык : Russian Default : Да Forced : НетАудио #2: Идентификатор : 4 Формат : DTS Формат/Информация : Digital Theater Systems Профиль формата : MA / Core Идентификатор кодека : A_DTS Продолжительность : 1 ч. 12 м. Вид битрейта : Переменный Битрейт : 1576 Кбит/сек / 1510 Кбит/сек Каналы : 6 каналов Расположение каналов : Front: L C R, Side: L R, LFE Частота : 48,0 КГц Битовая глубина : 24 бит Метод сжатия : Без потерь / Lossy Язык : English Default : Нет Forced : Нет 6,13 Gb 6 4
22 января 2016 09:55 То, что её заводит / Fа meg pа, for faen (2011) HDRip-AVC от ExKinoRay .torrent   [Информация о файле (нажмите для просмотра)] Перевод: Профессиональный многоголосыйСубтитры: Русские, английскиеКодек: H.264Качество: HDRip-AVCВидео: MPEG-4 AVC, 2000 Кбит/с, 1024x552, 25.000 кадра/сЗвук: Русский (AC3, 6 ch, 448 Кбит/с) 1,23 Gb 26 1
22 января 2016 09:55 То, что её заводит / Fа meg pа, for faen (2011) DVD9 | Лицензия .torrent   [Информация о файле (нажмите для просмотра)] Формат: DVD-VideoКачество: DVD9Видео: PAL 16:9 (720x576(0.661)) MPEG Video, 25,000 кадр/сек, 6850 Кбит/секАудио: Russian / Norsk (Dolby AC3, 6 ch) 448 Кбит/секСубтитры: Нет 4,74 Gb 2 3
22 января 2016 09:55 То, что её заводит / Fа meg pа, for faen (2011) BDRip 720p | Лицензия .torrent   [Информация о файле (нажмите для просмотра)] Формат: MKVКачество: BDRip 720pВидео: MPEG-4 AVC, 5231 Кбит/с, 1280x690, 25.000 Кадр/сАудио: Русский, норвежский (AC3, 6 ch, 448 Кбит/c)Субтитры: Русские, английскиеMedia InfoФормат : Matroska Версия формата : Version 1 Размер файла : 3,11 Гбайт Продолжительность : 1 ч. 12 м. Общий поток : 6127 Кбит/сек Название фильма : То, что её заводит / F? meg p?, for faen (2011) BDRip 720p Дата кодирования : UTC 2012-05-10 04:50:37 Программа кодирования : mkvmerge v2.3.0 ('Freak U') built on Sep 8 2008 18:32:16 Библиотека кодирования : libebml v0.7.7 + libmatroska v0.8.1Видео: Идентификатор : 1 Формат : AVC Формат/Информация : Advanced Video Codec Профиль формата : [email protected] Параметр CABAC формата : Да Параметр ReFrames формата : 8 кадров Идентификатор кодека : V_MPEG4/ISO/AVC Продолжительность : 1 ч. 12 м. Битрейт : 5231 Кбит/сек Ширина : 1280 пикселей Высота : 690 пикселей Соотношение сторон : 1,855 Частота кадров : 25,000 кадров/сек Цветовое пространство : YUV Субдискретизация насыщенности : 4:2:0 Битовая глубина : 8 бит Тип развёртки : Прогрессивная Бит/(Пиксели*Кадры) : 0.237 Размер потока : 2,59 Гбайт (83%) Библиотека кодирования : x264 core 119 r2106 07efeb4 Настройки программы : cabac=1 / ref=8 / deblock=1:-3:-3 / analyse=0x3:0x113 / me=umh / subme=11 / psy=1 / psy_rd=1.05:0.10 / mixed_ref=1 / me_range=32 / chroma_me=1 / trellis=2 / 8x8dct=1 / cqm=0 / deadzone=21,11 / fast_pskip=0 / chroma_qp_offset=-3 / threads=24 / sliced_threads=0 / nr=0 / decimate=1 / interlaced=0 / bluray_compat=0 / constrained_intra=0 / bframes=5 / b_pyramid=2 / b_adapt=2 / b_bias=0 / direct=3 / weightb=1 / open_gop=0 / weightp=2 / keyint=360 / keyint_min=1 / scenecut=40 / intra_refresh=0 / rc_lookahead=60 / rc=2pass / mbtree=1 / bitrate=5231 / ratetol=1.0 / qcomp=0.60 / qpmin=0 / qpmax=69 / qpstep=4 / cplxblur=20.0 / qblur=0.5 / vbv_maxrate=40000 / vbv_bufsize=30000 / nal_hrd=none / ip_ratio=1.40 / aq=1:0.80 Язык : NorwegianАудио #1: Идентификатор : 2 Формат : AC-3 Формат/Информация : Audio Coding 3 Расширение режима : CM (complete main) Идентификатор кодека : A_AC3 Продолжительность : 1 ч. 12 м. Вид битрейта : Постоянный Битрейт : 448 Кбит/сек Каналы : 6 каналов Расположение каналов : Front: L C R, Side: L R, LFE Частота : 48,0 КГц Битовая глубина : 16 бит Метод сжатия : С потерями Размер потока : 233 Мбайт (7%) Язык : RussianАудио #2: Идентификатор : 3 Формат : AC-3 Формат/Информация : Audio Coding 3 Расширение режима : CM (complete main) Идентификатор кодека : A_AC3 Продолжительность : 1 ч. 12 м. Вид битрейта : Постоянный Битрейт : 448 Кбит/сек Каналы : 6 каналов Расположение каналов : Front: L C R, Side: L R, LFE Частота : 48,0 КГц Битовая глубина : 16 бит Метод сжатия : С потерями Размер потока : 233 Мбайт (7%) Язык : Norwegian 3,11 Gb 51 6
22 января 2016 09:55 То, что её заводит / Fа meg pа, for faen (2011) HDRip | Лицензия .torrent   [Информация о файле (нажмите для просмотра)] Формат: AVI(XviD)Качество: HDRip [Рип с BDRip 720p]Видео: 1205 kb/s, 640x352Аудио: MP3, 128 kb/s (2 ch) 697 Mb 12 1
22 января 2016 09:55 То, что её заводит / Fа meg pа, for faen (2011) HDRip | Лицензия .torrent   [Информация о файле (нажмите для просмотра)] Формат: AVI (XviD)Качество: HDRipВидео: 1970 kb/s, 720x384Аудио: Russian / Norwegian: AC3, 448 kb/s (6 ch) 1,46 Gb 94 11

Скачать фильм То, что её заводит через торрент в хорошем качестве бесплатно 720p)

piratbit.ru

Размер: 6.79 GB | Добавлен: 5 лет 5 мес. назад | Торрент скачан:75 раз
Реклама Дарим 3000 рублей за регистрацию, не упусти свой шанс получить шикарный бонус!!!

10-05-2012 13:52 То, что её заводит Скачать торрент  

То, что её заводит / Turn Me On, Dammit! / Fа meg pа, for faen

Год выпуска: 2011Страна: Норвегия / MotlysЖанр: КомедияПродолжительность: 01:12:32Перевод: Профессиональный + Оригинал

Режиссер: Яннике Систад Якобсен

В ролях: Хелен Бергшолм, Генриетта Стинстрап, Джулия Баке-Виг, Джулия Элиз Шахт, Артур Бернинг

Описание: Альме 15 лет, ее самые «заводные» годы проходят в захолустном норвежском городке. Здесь тишина, покой и овечки на лугах - кошмар для барышни с чрезвычайно развитым воображением и непрекращающимся гормональным взрывом! Неудивительно, что Альма полностью погрузилась в эротические мечты, подогреваемые телефонной службой «Дикие и горячие фантазии». И только мама возвращает Альму к реальности, когда видит счета за «секс по телефону»!

Качество: BDRip (720p)Формат: MKVВидео кодек: Другой MPEG4Аудио кодек: AC3Видео: AVC, 1280x690 (1.855), 25.000 fps, 11.4 Mbps (0.518 bit/pixel)Аудио#1: AC-3, 48.0 KHz, 6 ch, 448 Kbps, CBR (Russian)Аудио#2: DTS, 48.0 KHz, 6 ch, 1 510 Kbps, CBR (Norwegian)Субтитры: Russian, English

GeneralUnique ID : 234535497236804961920099229842752811764 (0xB071E4CA81C9420EBCEECF2E326632F4)Complete name : D:\Turn.Me.On.Dammit.2011.P.BDRip720p.IRONCLUB.mkvFormat : MatroskaFile size : 6.79 GiBDuration : 1h 12mnOverall bit rate : 13.4 MbpsMovie name : ..:IRONCLUB:..Encoded date : UTC 2012-05-09 14:46:44Writing application : mkvmerge v5.2.0 ('I can't explain') built on Dec 18 2011 18:12:03Writing library : libebml v1.2.3 + libmatroska v1.3.0

VideoID : 1Format : AVCFormat/Info : Advanced Video CodecFormat profile : [email protected] settings, CABAC : YesFormat settings, ReFrames : 9 framesFormat settings, GOP : M=1, N=25Codec ID : V_MPEG4/ISO/AVCDuration : 1h 12mnBit rate : 11.4 MbpsWidth : 1 280 pixelsHeight : 690 pixelsDisplay aspect ratio : 1.855Frame rate : 25.000 fpsColor space : YUVChroma subsampling : 4:2:0Bit depth : 8 bitsScan type : ProgressiveBits/(Pixel*Frame) : 0.518Stream size : 5.66 GiB (83%)Title : ..:IRONCLUB:..Writing library : x264 core 119 r2106 07efeb4Encoding settings : cabac=1 / ref=9 / deblock=1:-3:-3 / analyse=0x3:0x133 / me=umh / subme=10 / psy=1 / psy_rd=1.00:0.10 / mixed_ref=1 / me_range=48 / chroma_me=1 / trellis=2 / 8x8dct=1 / cqm=0 / deadzone=21,11 / fast_pskip=0 / chroma_qp_offset=-3 / threads=12 / sliced_threads=0 / nr=0 / decimate=0 / interlaced=0 / bluray_compat=0 / constrained_intra=0 / bframes=6 / b_pyramid=2 / b_adapt=2 / b_bias=0 / direct=3 / weightb=1 / open_gop=0 / weightp=2 / keyint=360 / keyint_min=2 / scenecut=40 / intra_refresh=0 / rc_lookahead=60 / rc=2pass / mbtree=1 / bitrate=11433 / ratetol=1.0 / qcomp=0.70 / qpmin=0 / qpmax=69 / qpstep=4 / cplxblur=20.0 / qblur=0.5 / vbv_maxrate=50000 / vbv_bufsize=30000 / nal_hrd=none / ip_ratio=1.40 / aq=2:1.00

Audio #1ID : 2Format : AC-3Format/Info : Audio Coding 3Mode extension : CM (complete main)Codec ID : A_AC3Duration : 1h 12mnBit rate mode : ConstantBit rate : 448 KbpsChannel(s) : 6 channelsChannel positions : Front: L C R, Side: L R, LFESampling rate : 48.0 KHzBit depth : 16 bitsCompression mode : LossyStream size : 232 MiB (3%)Title : Rus_R5Language : Russian

Audio #2ID : 3Format : DTSFormat/Info : Digital Theater SystemsCodec ID : A_DTSDuration : 1h 12mnBit rate mode : ConstantBit rate : 1 510 KbpsChannel(s) : 6 channelsChannel positions : Front: L C R, Side: L R, LFESampling rate : 48.0 KHzBit depth : 24 bitsCompression mode : LossyStream size : 783 MiB (11%)Language : Norwegian

Text #1ID : 4Format : UTF-8Codec ID : S_TEXT/UTF8Codec ID/Info : UTF-8 Plain TextLanguage : Russian

Text #2ID : 5Format : UTF-8Codec ID : S_TEXT/UTF8Codec ID/Info : UTF-8 Plain TextLanguage : English

Скачать То, что её заводит через торрент http://rghost.ru/38008649/image.png Скачать фильм То, что её заводит через торрент бесплантно в хорошем качестве Описание: Альме 15 лет, ее самые «заводные» годы проходят в захолустном норвежском городке. Здесь тишина, покой и овечки на лугах - кошмар ... 2012-05-10 13:52 5 10 1

Loading...

Loading...

Последний раз редактировалось: ~Relizer~ (2012-05-10 14:10), всего редактировалось 1 раз

Рекламный пират

10-05-2012 14:07 То, что её заводит Скачать торрент  

10-05-2012 14:10 То, что её заводит Скачать торрент  

алешкапиздюк писал(а):

как фильм??

видио для кого?

10-05-2012 15:18 То, что её заводит Скачать торрент  

Судя по трейлеру - это порнография для детей 12-14 лет...

10-05-2012 15:27 То, что её заводит Скачать торрент  

жесткое дерьмо)) :D

10-05-2012 16:00 То, что её заводит Скачать торрент  

трейлер прикольный. Фильм девчачий

10-05-2012 19:07 То, что её заводит Скачать торрент  

:girl_devil: :rtfm: пипец как только такое можно показывать то..это только для любителей-педофилов. режиссер походу из этих.. и фильм гавнои тема тоже.

15-06-2012 11:41 То, что её заводит Скачать торрент  

Бредятина..ни чего интересного

Дорогой пользователь! Огромная просьба, поблагодарите релизера, оцените раздачу и оставьте свои комментарий, если Вы скачали То, что её заводит через торрент бесплатно! Внесите свою лепту в развитие PiratBit!

Комментировать посты могут только пользователи прошедшие не сложную регистрацию

То, что её заводит через торрент Скачать бесплатно То, что её заводит То, что её заводит скачать торрент То, что её заводит смотреть онлайн Cкачать фильм То, что её заводит бесплатно То, что её заводит скачать торрент в хорошем качестве То, что её заводит смотреть онлайн бесплатно в хорошем качестве

Вы не можете начинать темыВы не можете отвечать на сообщенияВы не можете редактировать свои сообщенияВы не можете удалять свои сообщенияВы не можете голосовать в опросахВы не можете прикреплять файлы к сообщениямВы можете скачивать файлы

То, что её заводит через торрент

piratbit.ru

Размер: 1.37 GB | Добавлен: 5 лет 6 мес. назад | Торрент скачан:444 раза
Реклама Дарим 3000 рублей за регистрацию, не упусти свой шанс получить шикарный бонус!!!

01-04-2012 06:42 То, что её заводит Скачать торрент  

То, что её заводит / Turn Me On, Dammit! / Fa meg pa, for faenОсновная информация:Год выпуска: 2011Страна: НорвегияЖанр: комедияПродолжительность: 01:12:33Перевод: Профессиональное (многоголосовое) [NOW]Режиссер: Яннике Систад ЯкобсенIMDB рейтинг: 6.1/10 (1,286 голосов)Кинопоиск рейтинг: 5.243 (620 голосов) В ролях: Хелен Бергшолм, Генриетта Стинстрап, Джулия Баке-Виг, Джулия Элиз Шахт, Артур БернингОписание:

Альме 15 лет, ее самые «заводные» годы проходят в захолустном норвежском городке. Здесь тишина, покой и овечки на лугах — кошмар для барышни с чрезвычайно развитым воображением и непрекращающимся гормональным взрывом! Неудивительно, что Альма полностью погрузилась в эротические мечты, подогреваемые телефонной службой «Дикие и горячие фантазии». И только мама возвращает Альму к реальности, когда видит счета за «секс по телефону»!Качество: HDRip [Рип с BDRip 720p]Формат: AVI(XviD)Видео: XviD 720x384, 2050 kb/s Аудио: Russian: AC3, 256 kb/s (2 ch) / Norwegian: AC3, 384 kb/s (6 ch)

Скриншоты: Скачать То, что её заводит через торрент http://img.zoneland.ru/images9/58aabd645b387feccd9a289ff5fff306.jpg.jpg Скачать фильм То, что её заводит через торрент бесплантно в хорошем качестве Описание:Альме 15 лет, ее самые «заводные» годы проходят в захолустном норвежском городке. Здесь тишина, покой и овечки на лугах — кошмар ... 2012-04-01 06:42 10 10 1

Loading...

Loading...

Рекламный пират

01-04-2012 08:08 То, что её заводит Скачать торрент  

как фильмец? кто скачал отпишитесь

01-04-2012 08:55 То, что её заводит Скачать торрент  

Kassadin писал(а):

как фильмец? кто скачал отпишитесь

Фильм огонь!!!!

01-04-2012 11:41 То, что её заводит Скачать торрент  

ну во первых это Норвегия, а Норвегия это страна пукающих обезьян и слонов. ну а вовторых не видно верблюжьих лапок на постере.фильм - кал!! :suicide:

01-04-2012 15:12 То, что её заводит Скачать торрент  

Меттерних К.В писал(а):

ну во первых это Норвегия, а Норвегия это страна пукающих обезьян и слонов. ну а вовторых не видно верблюжьих лапок на постере.фильм - кал!! :suicide:посмотри сначало

01-04-2012 15:33 То, что её заводит Скачать торрент  

[email protected]а там верблюжие лапки естьи я не могу скачать у тебя у меня тогда кол-во скаченного повыситься

01-04-2012 16:58 То, что её заводит Скачать торрент  

Меттерних К.В писал(а):

и я не могу скачать у тебя у меня тогда кол-во скаченного повыситься

Ты мне одолжение делаешь????

01-04-2012 21:22 То, что её заводит Скачать торрент  

кому ты нужен, чтоб тебе его делать

03-04-2012 07:07 То, что её заводит Скачать торрент  

Фильм досмотрел с трех раз. Переживания очень озабоченной пятнадцатилетней скандинавской девочки из глубинки, по поводу того, что ее приятель прижался к ее бедру членом. Короче "и хочется, и колется, и мамка не велит". :pink:

Pекламный агент PB

10-04-2012 19:40 То, что её заводит Скачать торрент  

Отстой полнейший. Друзья, чтобы никого не обидеть, скажу так:" НЕ ЗНАЮ ДЛЯ КОГО ЭТОТ ФИЛЬМ..."

24-05-2012 19:22 То, что её заводит Скачать торрент  

Странный фильм, зачем такое снимать. Довольно больная фантазия у режиссера. Для какой возрастной категории этот фильм остается загадкой. Если вы решили его посмотреть, то лучше делать это в одиночестве, потому что компания не примет этот фильм... в серьез?!

Дорогой пользователь! Огромная просьба, поблагодарите релизера, оцените раздачу и оставьте свои комментарий, если Вы скачали То, что её заводит через торрент бесплатно! Внесите свою лепту в развитие PiratBit!

Комментировать посты могут только пользователи прошедшие не сложную регистрацию

То, что её заводит через торрент Скачать бесплатно То, что её заводит То, что её заводит скачать торрент То, что её заводит смотреть онлайн Cкачать фильм То, что её заводит бесплатно То, что её заводит скачать торрент в хорошем качестве То, что её заводит смотреть онлайн бесплатно в хорошем качестве

Вы не можете начинать темыВы не можете отвечать на сообщенияВы не можете редактировать свои сообщенияВы не можете удалять свои сообщенияВы не можете голосовать в опросахВы не можете прикреплять файлы к сообщениямВы можете скачивать файлы

Скачать фильм То, что её заводит через торрент в хорошем качестве бесплатно DVD9

Title: To.chto.ee.zavodit.2011.P.DVD.IRONCLUBSize: 4.74 Gb ( 4 966 280,00 KBytes ) - DVD-9Enabled regions: 1, 2, 3, 4, 5, 6, 7, 8

VTS_01 :  Play Length: 00:00:15  Video: PAL 4:3 (720x576) VBR  Audio:      Not specified, AC3, 2/0 (L,R) ch, 192 kbps, Delay 0 mSec

VTS_02 :  Play Length: 00:00:08  Video: PAL 16:9 (720x576) VBR, Auto Letterboxed  Audio:      Not specified, AC3, 2/0 (L,R) ch, 224 kbps, Delay 0 mSec

VTS_03 :  Play Length: 00:00:12  Video: PAL 16:9 (720x576) VBR, Auto Letterboxed  Audio:      Not specified, AC3, 2/0 (L,R) ch, 224 kbps, Delay 0 mSec

VTS_04 :  Play Length: 00:02:20  Video: PAL 4:3 (720x576) VBR  Audio:      Not specified, AC3, 2/0 (L,R) ch, 224 kbps, Delay 0 mSec

VTS_05 :  Play Length: 00:01:47  Video: PAL 16:9 (720x576) VBR, Auto Letterboxed  Audio:      Not specified, AC3, 2/0 (L,R) ch, 224 kbps, Delay 0 mSec

VTS_06 :  Play Length: 00:01:12  Video: PAL 16:9 (720x576) VBR, Auto Letterboxed  Audio:      Not specified, AC3, 2/0 (L,R) ch, 224 kbps, Delay 0 mSec

VTS_07 :  Play Length: 00:02:06  Video: PAL 4:3 (720x576) VBR  Audio:      Not specified, AC3, 2/0 (L,R) ch, 224 kbps, Delay 0 mSec

VTS_08 :  Play Length: 00:01:30  Video: PAL 16:9 (720x576) VBR, Auto Letterboxed  Audio:      Not specified, AC3, 2/0 (L,R) ch, 224 kbps, Delay 0 mSec

VTS_09 :  Play Length: 00:02:34  Video: PAL 16:9 (720x576) VBR, Auto Letterboxed  Audio:      Not specified, AC3, 2/0 (L,R) ch, 224 kbps, Delay 0 mSec

VTS_10 :  Play Length: 00:02:03  Video: PAL 16:9 (720x576) VBR, Auto Letterboxed  Audio:      Not specified, AC3, 2/0 (L,R) ch, 224 kbps, Delay 0 mSec

VTS_11 :  Play Length: 00:02:33  Video: PAL 16:9 (720x576) VBR, Auto Letterboxed  Audio:      Not specified, AC3, 2/0 (L,R) ch, 224 kbps, Delay 0 mSec

VTS_12 :  Play Length: 01:12:32  Video: PAL 16:9 (720x576) VBR, Auto Letterboxed  Audio:      Russian, AC3, 3/2 (L,C,R,SL,SR)+LFE ch, 448 kbps, Delay 0 mSec      Norsk, AC3, 3/2 (L,C,R,SL,SR)+LFE ch, 448 kbps, Delay 0 mSec

* Menus Information *

VIDEO_TS MenuVideo:      PAL 16:9 (720x576) VBR      Auto Pan&ScanEnglish Language Unit :      Title Menu

VTS_01 MenuVideo:      PAL 16:9 (720x576) VBR      Auto LetterboxedAudio:      Not specified (Dolby AC3, 2 ch)English Language Unit :      Root Menu      Chapter (PTT) Menu

VTS_02 MenuVideo:      PAL 4:3 (720x576) VBR      Auto Pan&Scan, Auto LetterboxedEnglish Language Unit :      Root Menu      Chapter (PTT) Menu

VTS_03 MenuVideo:      PAL 4:3 (720x576) VBR      Auto Pan&Scan, Auto LetterboxedEnglish Language Unit :      Root Menu      Chapter (PTT) Menu

VTS_04 MenuVideo:      PAL 4:3 (720x576) VBR      Auto Pan&Scan, Auto LetterboxedEnglish Language Unit :      Root Menu      Chapter (PTT) Menu

VTS_05 MenuVideo:      PAL 4:3 (720x576) VBR      Auto Pan&Scan, Auto LetterboxedEnglish Language Unit :      Root Menu      Chapter (PTT) Menu

VTS_06 MenuVideo:      PAL 4:3 (720x576) VBR      Auto Pan&Scan, Auto LetterboxedEnglish Language Unit :      Root Menu      Chapter (PTT) Menu

VTS_07 MenuVideo:      PAL 4:3 (720x576) VBR      Auto Pan&Scan, Auto LetterboxedEnglish Language Unit :      Root Menu      Chapter (PTT) Menu

VTS_08 MenuVideo:      PAL 4:3 (720x576) VBR      Auto Pan&Scan, Auto LetterboxedEnglish Language Unit :      Root Menu      Chapter (PTT) Menu

VTS_09 MenuVideo:      PAL 4:3 (720x576) VBR      Auto Pan&Scan, Auto LetterboxedEnglish Language Unit :      Root Menu      Chapter (PTT) Menu

VTS_10 MenuVideo:      PAL 4:3 (720x576) VBR      Auto Pan&Scan, Auto LetterboxedEnglish Language Unit :      Root Menu      Chapter (PTT) Menu

VTS_11 MenuVideo:      PAL 4:3 (720x576) VBR      Auto Pan&Scan, Auto LetterboxedEnglish Language Unit :      Root Menu      Chapter (PTT) Menu

VTS_12 MenuVideo:      PAL 4:3 (720x576) VBR      Auto Pan&Scan, Auto LetterboxedEnglish Language Unit :      Root Menu      Chapter (PTT) Menu

piratbit.ru


Смотрите также