Тетрадь смерти 2017 скачать торрент в хорошем качестве hd 1080


Скачать торрент Тетрадь смерти / Death Note (2017) WEBRip 1080p

Информация о фильмеНазвание: Тетрадь смертиОригинальное название: Death NoteГод выхода: 2017Жанр: ужасы, фэнтези, боевик, триллер, детектив, приключенияРежиссер: Адам ВингардВ ролях: Маргарет Куэлли, Лейкит Стэнфилд, Уиллем Дефо, Нат Вулф, Шей Уигэм, Маси Ока, Майкл Шамус Уайлз, Пол МакДжиллион, Олена Медвид, Лия Лам

Описание фильма: Способный студент Лайт находит загадочную тетрадь смерти, которая может убить любого, чье имя в нее вписать. Парень решает начать миссию по очистке улиц от преступников. Вскоре студент-линчеватель обнаруживает, что его преследует известный профайлер ФБР, скрывающийся под псевдонимом L.

Страна: СШАПродолжительность: 01:40:16

ФайлКачество: WEBRip 1080pВидео: 1920x1080 at 23.976 fps, [email protected], 3830 kbpsЗвук: 48 kHz, AAC-HE, 6 ch, 384 kbpsСубтитры: русские (full), английские (forced, SDH)

MediaInfo

Общее Уникальный идентификатор : 246801218001064001388356623891105069234 (0xB9AC2F83DF1970E9B6109A6355EC38B2) Полное имя : Death.Note.2017.1080p.NF.WEBRip.DD5.1.x264.mkv Формат : Matroska Версия формата : Version 4 / Version 2 Размер файла : 2,94 Гбайт Продолжительность : 1 ч. 40 м. Режим общего битрейта : Переменный Общий поток : 4200 Кбит/сек Дата кодирования : UTC 2017-08-25 11:35:15 Программа кодирования : mkvmerge v15.0.0 ('Duel with the Devil') 32-bit Библиотека кодирования : libebml v1.3.5 + libmatroska v1.4.5 DURATION : 01:32:41.305000000 NUMBER_OF_FRAMES : 1058 NUMBER_OF_BYTES : 57956 _STATISTICS_WRITING_APP : mkvmerge v15.0.0 ('Duel with the Devil') 32-bit _STATISTICS_WRITING_DATE_UTC : 2017-08-25 11:35:15 _STATISTICS_TAGS : BPS DURATION NUMBER_OF_FRAMES NUMBER_OF_BYTES

Видео Идентификатор : 1 Формат : AVC Формат/Информация : Advanced Video Codec Профиль формата : [email protected] Параметр CABAC формата : Да Параметр ReFrames формата : 3 кадра Идентификатор кодека : V_MPEG4/ISO/AVC Продолжительность : 1 ч. 40 м. Вид битрейта : Переменный Битрейт : 3830 Кбит/сек Максимальный битрейт : 5745 Кбит/сек Ширина : 1920 пикселей Высота : 1080 пикселей Соотношение сторон : 16:9 Режим частоты кадров : Постоянный Частота кадров : 23,976 кадра/сек Цветовое пространство : YUV Субдискретизация насыщенности : 4:2:0 Битовая глубина : 8 бит Тип развёртки : Прогрессивная Бит/(Пиксели*Кадры) : 0.077 Размер потока : 2,61 Гбайт (89%) Библиотека кодирования : x264 core 118 Настройки программы : cabac=1 / ref=3 / deblock=1:0:0 / analyse=0x1:0x111 / me=umh / subme=10 / psy=1 / psy_rd=1.00:0.00 / mixed_ref=1 / me_range=24 / chroma_me=1 / trellis=2 / 8x8dct=0 / cqm=0 / deadzone=21,11 / fast_pskip=1 / chroma_qp_offset=-2 / threads=8 / sliced_threads=0 / nr=0 / decimate=1 / interlaced=0 / bluray_compat=0 / constrained_intra=0 / bframes=2 / b_pyramid=0 / b_adapt=2 / b_bias=0 / direct=3 / weightb=1 / open_gop=0 / weightp=2 / keyint=48 / keyint_min=25 / scenecut=0 / intra_refresh=0 / rc_lookahead=0 / rc=2pass / mbtree=1 / bitrate=3830 / ratetol=1.0 / qcomp=0.50 / qpmin=6 / qpmax=51 / qpstep=4 / cplxblur=20.0 / qblur=0.5 / vbv_maxrate=5745 / vbv_bufsize=7660 / nal_hrd=vbr / ip_ratio=1.40 / aq=1:1.00 Default : Да Forced : Нет

Аудио Идентификатор : 2 Формат : AC-3 Формат/Информация : Audio Coding 3 Расширение режима : CM (complete main) Параметр Endianness формата : Big Идентификатор кодека : A_AC3 Продолжительность : 1 ч. 40 м. Вид битрейта : Постоянный Битрейт : 384 Кбит/сек Каналы : 6 каналов Расположение каналов : Front: L C R, Side: L R, LFE Частота : 48,0 КГц Битовая глубина : 16 бит Метод сжатия : С потерями Размер потока : 275 Мбайт (9%) Язык : English Default : Да Forced : Нет

Текст #1 Идентификатор : 3 Формат : UTF-8 Идентификатор кодека : S_TEXT/UTF8 Идентификатор кодека/Информация : UTF-8 Plain Text Язык : Russian Default : Да Forced : Да

Текст #2 Идентификатор : 4 Формат : UTF-8 Идентификатор кодека : S_TEXT/UTF8 Идентификатор кодека/Информация : UTF-8 Plain Text Заголовок : Forced Язык : English Default : Нет Forced : Нет

Текст #3 Идентификатор : 5 Формат : UTF-8 Идентификатор кодека : S_TEXT/UTF8 Идентификатор кодека/Информация : UTF-8 Plain Text Заголовок : SDH Язык : English Default : Нет Forced : Нет

krutor.org

Тетрадь смерти / Death Note скачать фильм торрент 2017 -

hokit.ru

Коротко о фильме "Тетрадь смерти" - Способный студент Лайт находит загадочную тетрадь смерти, которая может убить любого, чье имя в нее вписать. Парень решает начать миссию по очистке улиц от преступников. Вскоре студент-линчеватель обнаруживает, что его преследует известный профайлер ФБР, скрывающийся под псевдонимом L.

Тетрадь смерти

Оригинальное название Death Note
Фильм выпущен: 2017
Страна (кинокомпания): США
Режиссер: Адам Вингард
Сценарий фильма: Чарли Парлапанидес, Влас Парлапанидес, Джереми Слэйтер
Продюсер фильма: Джейсон Хоффс, Рой Ли, Дэн Лин
Оператор: Дэвид Тэттерсолл
Композитор: Аттикус Росс, Лео Росс
Художники: Томас С. Хэммок, Катрин Ирча, Шерил Мэрион
Монтаж: Луис Циоффи
Жанр фильма: ужасы, фэнтези, триллер, детектив
Премьера (мир): 24 августа 2017
премьера (Pоссия):
продолжительность101 мин
В главных ролях:
Лейкит Стэнфилд
Уиллем Дефо
Маргарет Куэлли
Нат Вулф
Шей Уигэм
Маси Ока
Майкл Шамус Уайлз
Пол МакДжиллион
Джейсон Лилз
и другие ...

Трейлер фильма:

 

Фильм Тетрадь смерти / Death Note скачать торрент - новинка кино 2017

Скачать файлы .torrent Тетрадь смерти (фильм)

на сайте Вы можете получить ссылку на торрент файлы или скачать сами торрент файлы, в которых находится информация о местонахождении фильмов, сериалов у пользователей.

В фильме "Тетрадь смерти" - блестящий студент Лайт спотыкается о мистический блокнот, который может убить любого указанного человека, и Лайт решает избавить улицы от преступников, но его начинает преследовать детектив L



Параметры: 26.09.2017 WEB-DLRip, 1,46 Гб -

Формат: WEB-DLRip, AVI, XviD, AC3, размер файла: 1,46 ГбВидео: 720x304, XviD - 1663 Кбит/сАудио: AC3, 6 каналов, 384 Кбит/сПеревод (озвучивание): Профессиональный многоголосый закадровый [Good People]

Параметры: 26.09.2017 WEB-DLRip 1080p, 9,86 Гб -

Формат: WEB-DLRip 1080p, AC3, размер файла: 9,86 ГбВидео: 1920x800, - 13930 Кбит/сАудио: Русский: AC3, 6 каналов, 384 Кбит/с / English: AC3, 6 каналов, 384 Кбит/сПеревод (озвучивание): Профессиональный многоголосый закадровый [Good People]

Параметры: 26.09.2017 WEBRip | P, 1,46 Гб

Формат: WEBRip, AVI, XviD, AC3, размер файла: 1,46 ГбВидео: 688x288, XviD - ~ 1685 Кбит/сАудио: Русский: AC3, 6 каналов, 384 Кбит/сПеревод (озвучивание): Профессиональный многоголосый закадровый (студия Good People)

Параметры: 26.09.2017 WEBRip 1080p | P, 9,86 Гб

Формат: WEBRip 1080p, MKV, AC3, размер файла: 9,86 ГбВидео: 1920x802, - 13000 Кбит/сАудио: Русский: AC3, 6 каналов, 384 Кбит/с / English: AC3, 6 каналов, 384 Кбит/сПеревод (озвучивание): Профессиональный многоголосый закадровый (студия Good People)

Параметры: 01.09.2017 WEBRip | AvePremier, 1,36 Гб

Формат: WEBRip, AVI, XviD, AC3, размер файла: 1,36 ГбВидео: 720x400, XviD - 1679 Кбит/сАудио: AC3, 2 канала, 256 Кбит/сПеревод (озвучивание): Любительский (многолосый закадровый) AvePremier

Параметры: 30.08.2017 WEBRip-AVC от k.e.n | L1, 2,18 Гб

Формат: WEBRip-AVC, MKV, AVC, AC3, размер файла: 2,18 ГбВидео: 1024x428, AVC - 2 340 Кбит/сАудио: Русский: AC3, 2 канала, 192 Кбит/с::Русский: AC3, 2 канала, 192 Кбит/с::English: AC3, 6 каналов, 384 Кбит/сПеревод (озвучивание): Любительский (одноголосый, закадровый) AniStar / ХиХиДок

Параметры: 27.08.2017 WEBRip, 2,02 Гб -

Формат: WEBRip, AVI, XviD, AC3, размер файла: 2,02 ГбВидео: 720x304, XviD - 2307 Кбит/сАудио: Русский: AC3, 6 каналов, 192 Кбит/сПеревод (озвучивание): Любительский (одноголосый закадровый) [Хихикающий доктор]

Параметры: 26.08.2017 WEBRip 1080p | L1, 2,90 Гб

Формат: WEBRip 1080p, MKV, MP3, размер файла: 2,90 ГбВидео: 1920x1080, - 3830 Кбит/сАудио: MP3, 2 канала, 320 Кбит/сПеревод (озвучивание): Любительский одноголосый (AniStar)

Смотрите фильм Тетрадь смерти онлайн:

Скачать Тетрадь смерти, Death Note, фильм бесплатно скачать торрент, ужасы, фэнтези, триллер, детектив, новинка кино

 

Фильм Тетрадь смерти / Death Note 2017 скачать торрент

Коротко о фильме "Тетрадь смерти" - Способный студент Лайт находит загадочную тетрадь смерти, которая может убить любого, чье имя в нее вписать. Парень решает начать миссию по очистке улиц от преступников. Вскоре студент-линчеватель обнаруживает, что его преследует известный профайлер ФБР, скрывающийся под псевдонимом L.

Тетрадь смерти

Оригинальное название Death Note
Фильм выпущен: 2017
Страна (кинокомпания): США
Режиссер: Адам Вингард
Сценарий фильма: Чарли Парлапанидес, Влас Парлапанидес, Джереми Слэйтер
Продюсер фильма: Джейсон Хоффс, Рой Ли, Дэн Лин
Оператор: Дэвид Тэттерсолл
Композитор: Аттикус Росс, Лео Росс
Художники: Томас С. Хэммок, Катрин Ирча, Шерил Мэрион
Монтаж: Луис Циоффи
Жанр фильма: ужасы, фэнтези, триллер, детектив
Премьера (мир): 24 августа 2017
премьера (Pоссия):
продолжительность101 мин

В главных ролях:

Джейсон Лилз, Пол МакДжиллион, Майкл Шамус Уайлз, Маси Ока, Шей Уигэм, Нат Вулф, Маргарет Куэлли, Уиллем Дефо, Лейкит Стэнфилд, и другие ...

 

 

Трейлер фильма:

 

Фильм Тетрадь смерти / Death Note скачать торрент - новинка кино 2017

В фильме "Тетрадь смерти" - блестящий студент Лайт спотыкается о мистический блокнот, который может убить любого указанного человека, и Лайт решает избавить улицы от преступников, но его начинает преследовать детектив L



Параметры: 26.09.2017 WEB-DLRip, 1,46 Гб -

Формат: WEB-DLRip, AVI, XviD, AC3, размер файла: 1,46 ГбВидео: 720x304, XviD - 1663 Кбит/сАудио: AC3, 6 каналов, 384 Кбит/сПеревод (озвучивание): Профессиональный многоголосый закадровый [Good People]

Параметры: 26.09.2017 WEB-DLRip 1080p, 9,86 Гб -

Формат: WEB-DLRip 1080p, AC3, размер файла: 9,86 ГбВидео: 1920x800, - 13930 Кбит/сАудио: Русский: AC3, 6 каналов, 384 Кбит/с / English: AC3, 6 каналов, 384 Кбит/сПеревод (озвучивание): Профессиональный многоголосый закадровый [Good People]

Параметры: 26.09.2017 WEBRip | P, 1,46 Гб

Формат: WEBRip, AVI, XviD, AC3, размер файла: 1,46 ГбВидео: 688x288, XviD - ~ 1685 Кбит/сАудио: Русский: AC3, 6 каналов, 384 Кбит/сПеревод (озвучивание): Профессиональный многоголосый закадровый (студия Good People)

Параметры: 26.09.2017 WEBRip 1080p | P, 9,86 Гб

Формат: WEBRip 1080p, MKV, AC3, размер файла: 9,86 ГбВидео: 1920x802, - 13000 Кбит/сАудио: Русский: AC3, 6 каналов, 384 Кбит/с / English: AC3, 6 каналов, 384 Кбит/сПеревод (озвучивание): Профессиональный многоголосый закадровый (студия Good People)

Параметры: 01.09.2017 WEBRip | AvePremier, 1,36 Гб

Формат: WEBRip, AVI, XviD, AC3, размер файла: 1,36 ГбВидео: 720x400, XviD - 1679 Кбит/сАудио: AC3, 2 канала, 256 Кбит/сПеревод (озвучивание): Любительский (многолосый закадровый) AvePremier

Параметры: 30.08.2017 WEBRip-AVC от k.e.n | L1, 2,18 Гб

Формат: WEBRip-AVC, MKV, AVC, AC3, размер файла: 2,18 ГбВидео: 1024x428, AVC - 2 340 Кбит/сАудио: Русский: AC3, 2 канала, 192 Кбит/с::Русский: AC3, 2 канала, 192 Кбит/с::English: AC3, 6 каналов, 384 Кбит/сПеревод (озвучивание): Любительский (одноголосый, закадровый) AniStar / ХиХиДок

Параметры: 27.08.2017 WEBRip, 2,02 Гб -

Формат: WEBRip, AVI, XviD, AC3, размер файла: 2,02 ГбВидео: 720x304, XviD - 2307 Кбит/сАудио: Русский: AC3, 6 каналов, 192 Кбит/сПеревод (озвучивание): Любительский (одноголосый закадровый) [Хихикающий доктор]

Параметры: 26.08.2017 WEBRip 1080p | L1, 2,90 Гб

Формат: WEBRip 1080p, MKV, MP3, размер файла: 2,90 ГбВидео: 1920x1080, - 3830 Кбит/сАудио: MP3, 2 канала, 320 Кбит/сПеревод (озвучивание): Любительский одноголосый (AniStar)

Смотрите фильм Тетрадь смерти онлайн:

Скачать торрент файлы фильма Тетрадь смерти / Death Note: на сайте Вы можете получить ссылку на торрент файлы или скачать сами торрент файлы, в которых находится информация о местонахождении фильмов, сериалов у пользователей.

 

 

xn--h1adlsl.xn--p1ai

Скачать торрент Тетрадь смерти / Death Note (2017) WEBRip 1080p

Информация о фильмеНазвание: Тетрадь смертиОригинальное название: Death NoteГод выхода: 2017Жанр: ужасы, фэнтези, боевик, триллер, детектив, приключенияРежиссер: Адам ВингардВ ролях: Маргарет Куэлли, Лейкит Стэнфилд, Уиллем Дефо, Нат Вулф, Шей Уигэм, Маси Ока, Майкл Шамус Уайлз, Пол МакДжиллион, Олена Медвид, Лия Лам

Описание фильма: Способный студент Лайт находит загадочную тетрадь смерти, которая может убить любого, чье имя в нее вписать. Парень решает начать миссию по очистке улиц от преступников. Вскоре студент-линчеватель обнаруживает, что его преследует известный профайлер ФБР, скрывающийся под псевдонимом L.

Страна: СШАПродолжительность: 01:40:16

ФайлКачество: WEBRip 1080pВидео: 1920x1080 at 23.976 fps, [email protected], 3830 kbpsЗвук: 48 kHz, AAC-HE, 6 ch, 384 kbpsСубтитры: русские (full), английские (forced, SDH)

MediaInfo

Общее Уникальный идентификатор : 246801218001064001388356623891105069234 (0xB9AC2F83DF1970E9B6109A6355EC38B2) Полное имя : Death.Note.2017.1080p.NF.WEBRip.DD5.1.x264.mkv Формат : Matroska Версия формата : Version 4 / Version 2 Размер файла : 2,94 Гбайт Продолжительность : 1 ч. 40 м. Режим общего битрейта : Переменный Общий поток : 4200 Кбит/сек Дата кодирования : UTC 2017-08-25 11:35:15 Программа кодирования : mkvmerge v15.0.0 ('Duel with the Devil') 32-bit Библиотека кодирования : libebml v1.3.5 + libmatroska v1.4.5 DURATION : 01:32:41.305000000 NUMBER_OF_FRAMES : 1058 NUMBER_OF_BYTES : 57956 _STATISTICS_WRITING_APP : mkvmerge v15.0.0 ('Duel with the Devil') 32-bit _STATISTICS_WRITING_DATE_UTC : 2017-08-25 11:35:15 _STATISTICS_TAGS : BPS DURATION NUMBER_OF_FRAMES NUMBER_OF_BYTES

Видео Идентификатор : 1 Формат : AVC Формат/Информация : Advanced Video Codec Профиль формата : [email protected] Параметр CABAC формата : Да Параметр ReFrames формата : 3 кадра Идентификатор кодека : V_MPEG4/ISO/AVC Продолжительность : 1 ч. 40 м. Вид битрейта : Переменный Битрейт : 3830 Кбит/сек Максимальный битрейт : 5745 Кбит/сек Ширина : 1920 пикселей Высота : 1080 пикселей Соотношение сторон : 16:9 Режим частоты кадров : Постоянный Частота кадров : 23,976 кадра/сек Цветовое пространство : YUV Субдискретизация насыщенности : 4:2:0 Битовая глубина : 8 бит Тип развёртки : Прогрессивная Бит/(Пиксели*Кадры) : 0.077 Размер потока : 2,61 Гбайт (89%) Библиотека кодирования : x264 core 118 Настройки программы : cabac=1 / ref=3 / deblock=1:0:0 / analyse=0x1:0x111 / me=umh / subme=10 / psy=1 / psy_rd=1.00:0.00 / mixed_ref=1 / me_range=24 / chroma_me=1 / trellis=2 / 8x8dct=0 / cqm=0 / deadzone=21,11 / fast_pskip=1 / chroma_qp_offset=-2 / threads=8 / sliced_threads=0 / nr=0 / decimate=1 / interlaced=0 / bluray_compat=0 / constrained_intra=0 / bframes=2 / b_pyramid=0 / b_adapt=2 / b_bias=0 / direct=3 / weightb=1 / open_gop=0 / weightp=2 / keyint=48 / keyint_min=25 / scenecut=0 / intra_refresh=0 / rc_lookahead=0 / rc=2pass / mbtree=1 / bitrate=3830 / ratetol=1.0 / qcomp=0.50 / qpmin=6 / qpmax=51 / qpstep=4 / cplxblur=20.0 / qblur=0.5 / vbv_maxrate=5745 / vbv_bufsize=7660 / nal_hrd=vbr / ip_ratio=1.40 / aq=1:1.00 Default : Да Forced : Нет

Аудио Идентификатор : 2 Формат : AC-3 Формат/Информация : Audio Coding 3 Расширение режима : CM (complete main) Параметр Endianness формата : Big Идентификатор кодека : A_AC3 Продолжительность : 1 ч. 40 м. Вид битрейта : Постоянный Битрейт : 384 Кбит/сек Каналы : 6 каналов Расположение каналов : Front: L C R, Side: L R, LFE Частота : 48,0 КГц Битовая глубина : 16 бит Метод сжатия : С потерями Размер потока : 275 Мбайт (9%) Язык : English Default : Да Forced : Нет

Текст #1 Идентификатор : 3 Формат : UTF-8 Идентификатор кодека : S_TEXT/UTF8 Идентификатор кодека/Информация : UTF-8 Plain Text Язык : Russian Default : Да Forced : Да

Текст #2 Идентификатор : 4 Формат : UTF-8 Идентификатор кодека : S_TEXT/UTF8 Идентификатор кодека/Информация : UTF-8 Plain Text Заголовок : Forced Язык : English Default : Нет Forced : Нет

Текст #3 Идентификатор : 5 Формат : UTF-8 Идентификатор кодека : S_TEXT/UTF8 Идентификатор кодека/Информация : UTF-8 Plain Text Заголовок : SDH Язык : English Default : Нет Forced : Нет

mrutor.org


Смотрите также