Терминатор генезис в хорошем качестве hd 720 скачать торрент


Генезис через торрент в хорошем качестве бесплатно 720p] DUB

piratbit.ru

Раздают: 10 [ 0 KB/s ]
Размер: 7.66 GB | Добавлен: 1 год 11 мес. назад | Торрент скачан:550 раз
Реклама Дарим 3000 рублей за регистрацию, не упусти свой шанс получить шикарный бонус!!!

26-10-2015 19:04 Терминатор: Генезис Скачать торрент  

Терминатор: Генезис / Terminator Genisys«Судьба переписана» Год выпуска: 2015Страна: СШАЖанр: фантастика, боевик, триллер Продолжительность: 02:05:43Перевод: Дублированный, Профессиональный многоголосый, Авторский (одноголосый)Субтитры: русские (Forced), русские (2 вида), английские (Full), английские (SDH)Режиссер: Алан Тейлор В ролях: Арнольд Шварценеггер , Джейсон Кларк , Эмилия Кларк , Джай Кортни , Дж.К. Симмонс , Дайо Окенийи , Мэтт Смит , Кортни Б. Вэнс , Ли Бён Хон , Майкл Глэдис , Сандрин Холт , Уэйн БаструпОписание:

Когда Джон Коннор, лидер сопротивления, посылает сержанта Кайла Риза назад в 1984 год, чтобы защитить Сару Коннор и спасти будущее, неожиданный поворот событий создает разлом во времени. Сержант Риз оказывается в новой, незнакомой версии прошлого, где он встречает неожиданных союзников, в том числе Терминатора, новых опасных врагов, и новую миссию: изменить будущее...

PG-13 - Детям до 13 лет просмотр не желателенКачество: BDRip 720pКонтейнер (Расширение): MKVВидео: 1280x536, 4743 Кбит/сек, 23,976 кадр/сек, 0,288 Бит/[Пиксели*Кадры]Аудио №1: русский / AC3 / 5.1 / 48 kHz / 640 kbps / 16 bit |Дублированный| Аудио №2: русский / AC3 / 5.1 / 48 kHz / 640 kbps / 16 bit |Многоголосый закадровый, Омикрон| Аудио №3: русский / AC3 / 5.1 / 48 kHz / 640 kbps / 16 bit |Авторский, А.Гаврилов| Аудио №4: русский / AC3 / 5.1 / 48 kHz / 640 kbps / 16 bit |Авторский, Д.Есарев| Аудио №5: русский / AC3 / 5.1 / 48 kHz / 640 kbps / 16 bit |Авторский, Л.Володарский| Аудио №6: английский / AC3 / 5.1 / 48 kHz / 640 kbps / 16 bitНавигация по главам(Чаптеры): естьВидеоряд EbPРелиз от: Сообщество:

  • Создатели фильма рассматривали в качестве претендентов на роль Дэнни Дайсона актеров Джона Бойегу и Дайо Окенийи. Первый в итоге отклонил предложение сам ради участия в седьмом эпизоде «Звездных войн», и роль Дайсона досталась Окенийи.
  • Это первый фильм франшизы, снятый на цифровую камеру и с анаморфным объективом.
  • Режиссером фильма могли стать Джастин Лин, Энг Ли, Бретт Рэтнер, Райан Джонсон и Дени Вильнёв.
  • Эмилия Кларк стала второй актрисой из сериала «Игра престолов» (2011), исполнившей роль Сары Коннор. Несколько лет назад мать спасителя человечества играла Лина Хиди в сериале «Терминатор: Битва за будущее» (2008-2009).
  • Джай Кортни мог выбыть из актерского состава фильма, так как съемочный график совпадал с производством сиквела фильма «Дивергент» (2014). Но контракт был составлен таким образом, чтобы он смог сняться в обоих фильмах.
  • Рабочее название фильма - Vista, что является отсылкой к известной фразе «Hasta la vista, baby».
  • Первоначально на роль Джона Коннора рассматривали кандидатуру Тома Харди.
  • Прежде чем Джай Кортни получил роль в этом фильме, на его место рассматривались Бойд Холбрук, Тейлор Китч, Николас Холт, Зак Эфрон, Уилсон Бетел, Сэм Рид, Томас Кокерел и Гаррет Хедлунд.
  • Кроме Эмилии Кларк, на роль Сары Коннор рассматривались Бри Ларсон и Марго Робби.
  • Тело молодого Арнольда Шварценеггера в фильме сыграл актер и бодибилдер Бретт Азар.
  • В трейлере фильма звучит песня Jetta «I’d Love to Change the World».
  • Роберт Патрик отклонил предложение вновь сыграть терминатора из жидкого металла Т-1000, поскольку сомневался, что в силу проблем со здоровьем физически справится с ролью.
  • Кристиан Бэйл не смог найти время в графике, чтобы вновь сыграть Джона Коннора - роль, доставшуюся ему в фильме «Терминатор: Да придет спаситель» (2009).
  • Исполнительный продюсер Дэвид Эллисон неслучайно знаком со сферой компьютерных технологий. Его отец - Ларри Эллисон, основатель Oracle, одной из крупнейших в мире IT-корпораций. А самая соль в том, что съемки сцен «Кибердайн Системс» проходили именно в головном корпусе софтверного гиганта в Редвуд-Шорс. Примечательно также, что и в жизни, и по сюжету этот центр находится в пределах Сан-Франциско.
  • Студия Paramount получила добро на два сиквела к этому фильму еще до его выхода, однако независимо от того, насколько хорошими или плохими будут кассовые сборы этих фильмов, все права на франшизу вернутся к Джеймсу Кэмерону в 2019 году.
  • В процессе создания фильма художник по костюмам Сьюзэн Мэтисон столкнулась с проблемой в поиске новых кроссовок Nike Vandal, которые Кайл Риз носил в 1984 году. Все, что ей удавалось найти, - поношенные образцы. На протяжении нескольких месяцев она обращалась в фирму Nike с просьбой изготовить для съемок эту конкретную модель, но компания Nike хотела, чтобы она придумала дизайн кроссовок на базе их модели Air-Force. Мэтисон отказалась, поскольку не хотела чувствовать себя виноватой перед поклонниками первой части франшизы, которые могли бы заметить, что модель кроссовок другая. И только после вмешательства студии Paramount фирма Nike согласилась специально для этого фильма изготовить 25 пар кроссовок Vandal.
  • Меган Эллисон приобрела права на франшизу в июне 2011 года за 20 миллионов долларов, обойдя студию Lionsgate, которая предлагала 15 миллионов долларов. В 2014 году, решив сконцентрироваться на продюсировании фильмов в стиле артхаус на ее лейбле Annapurna, она передала права на франшизу своему брату Дэвиду Эллисону. Владевшие ранее правами Виктор Кубичек и Дерек Андерсон были вынуждены от них отказаться из-за долгов у их компании Halycon, повлекших за собой расследование ФБР, в результате которого был выявлен факт мошенничества с хедж-фондом во время финансирования фильма «Терминатор: Да придет спаситель» (2009).
  • Сценарист Лаэта Калогридис рассказала, что одним из источников вдохновения при написании сценария был фильм «Назад в будущее 2» (1989). Сама Калогридис и Патрик Люссье трижды отказывались от предложения написать сценарий к этому фильму, поскольку им не нравился сюжет третьей и четвертой частей франшизы, и согласились они лишь после личной беседы с Джеймсом Кэмероном.
  • Адриану Джеймсу предлагали роль в этом фильме, но он отказался из-за несогласованности рабочих графиков.
  • В сцене, где Терминатор изучает новый тип боеприпасов, он говорит, что читал о них на gunsandammo.com. При подготовке к съемкам первой части франшизы Арнольд Шварценеггер проходил недельный курс по обращению с оружием и в результате получил комплимент от журнала Soldier of Fortune, отметившего реалистичность, с которой актер управлялся с оружием в фильме.
  • Кристанна Локен рассматривалась на роль Т-Х.
  • Песня, которую Сара Коннор слушает на кассетном проигрывателе, - это «I Wanna Be Sedated» группы The Ramones.
  • Это первый фильм франшизы, в котором в анимации терминаторов не принял участие Стэн Уинстон - мастер спецэффектов и близкий друг Арнольда Шварценеггера, ушедший из жизни в 2008 году. За спецэффекты в новом фильме отвечает команда Legacy Effect, созданная бывшими подмастерьями Уинстона.
  • Когда Сара и Кайл высаживаются в 2017 году в Сан-Франциско, играет отрывок из песни «Love runs out» группы «One Republic».
  • Возраст Арнольда Шварценеггера было решено не скрывать CGI-эффектами. Вместо этого сценаристы решили объяснить, что живая ткань, которой покрыт Терминатор, может стареть, а волосы робота - седеть. Эту идею авторам фильма подсказал Джеймс Кэмерон.
  • В сцене погони на мосту Терминатор, в исполнении Арнольда, пробивает лицом лобовое стекло автомобиля. На всех современных автомобилях лобовое стекло - триплекс - многослойное: два или более стекла, склеенные специальной плёнкой, способной при ударе удерживать осколки. То есть такого не могло произойти на настоящем автомобиле, при очень сильном ударе стекло вылетело бы полностью, но никак не получилось бы отверстия.
  • Бронебойная винтовка Barrett M82, используемая Сарой Коннор, была разработана в 1982-м году, однако принята на вооружение лишь в 1989-ом, что сильно уменьшает шансы гражданского лица на получение такого оружия, тем более, его модернизированной версии M82A1.
  • В сцене, где показаны улицы Сан-Франциско во время ядерного удара в 1997 году, можно заметить автомобили Toyota Prius 3 поколения, модели, выпуск которой начался лишь в 2009 году, а также рестайлинговая версия Land Rover Range Rover, выпуск которой был запущен лишь в конце 2000-х годов.
  • В сцене погони через мост Золотые Ворота (которая происходит в 2017 году) на мосту еще не было видно подвижной системы заграждений. Эти заграждения установлены в январе 2015 года, через несколько месяцев после завершения съемок фильма.
  • Код:

    Format                                   : MatroskaFormat version                           : Version 2File size                                : 7.66 GiBDuration                                 : 2h 5mnOverall bit rate                         : 8 720 KbpsMovie name                               : Terminator.Genisys.(2015).BDRip.720p.[denis100]Encoded date                             : UTC 2015-11-20 20:24:12Writing application                      : mkvmerge v5.8.0 ('No Sleep / Pillow') built on Sep  2 2012 15:37:04Writing library                          : libebml v1.2.3 + libmatroska v1.3.0

    VideoID                                       : 1Format                                   : AVCFormat/Info                              : Advanced Video CodecFormat profile                           : [email protected] settings, CABAC                   : YesFormat settings, ReFrames                : 12 framesCodec ID                                 : V_MPEG4/ISO/AVCDuration                                 : 2h 5mnBit rate                                 : 4 706 KbpsWidth                                    : 1 280 pixelsHeight                                   : 536 pixelsDisplay aspect ratio                     : 2.40:1Frame rate                               : 23.976 fpsColor space                              : YUVChroma subsampling                       : 4:2:0Bit depth                                : 8 bitsScan type                                : ProgressiveBits/(Pixel*Frame)                       : 0.286Stream size                              : 4.13 GiB (54%)Title                                    : Terminator.Genisys.(2015).BDRip.720p.[denis100]Writing library                          : x264 core 142 r2431+42 c69a006 tMod [[email protected]:2:0 X86_64]Encoding settings                        : cabac=1 / ref=12 / deblock=1:-3:-3 / analyse=0x3:0x133 / me=umh / subme=11 / psy=1 / fade_compensate=0.00 / psy_rd=1.05:0.00 / mixed_ref=1 / me_range=32 / chroma_me=1 / trellis=2 / 8x8dct=1 / cqm=0 / deadzone=21,11 / fast_pskip=0 / chroma_qp_offset=-2 / threads=12 / lookahead_threads=2 / sliced_threads=0 / nr=0 / decimate=0 / interlaced=0 / bluray_compat=0 / constrained_intra=0 / fgo=0 / bframes=8 / b_pyramid=2 / b_adapt=2 / b_bias=0 / direct=3 / weightb=1 / open_gop=0 / weightp=2 / keyint=250 / keyint_min=23 / scenecut=40 / intra_refresh=0 / rc_lookahead=60 / rc=crf / mbtree=0 / crf=15.4000 / qcomp=0.75 / qpmin=0:0:0 / qpmax=69:69:69 / qpstep=4 / vbv_maxrate=62500 / vbv_bufsize=78125 / crf_max=0.0 / nal_hrd=none / filler=0 / ip_ratio=1.30 / pb_ratio=1.20 / aq=3:0.70 / aq-sensitivity=10.00 / aq-factor=1.00:1.00:1.00 / aq2=0 / aq3=0 / zones=551,636,crf=12.5/2043,2283,crf=12.5/3443,3530,crf=12/12521,12557,crf=13/12923,13301,crf=12/17807,18240,crf=12.5/23439,23514,crf=12.5/25552,25625,crf=12/29803,29895,crf=12/30560,30656,crf=11.5/39221,39270,crf=11/46291,46355,crf=10.5/52838,52896,crf=10.5/53782,53807,crf=11/54426,54638,crf=12/65003,65175,crf=12/74742,74781,crf=11/111635,111947,crf=11/112772,112874,crf=10/117479,117558,crf=11/123588,123733,crf=11/129233,129254,crf=11.5/129674,129819,crf=12/130553,130622,crf=11/134878,134967,crf=11/135530,135564,crf=12/140584,140784,crf=11/152226,152303,crf=11/153587,153666,crf=11.5/153882,153943,crf=12/157802,157882,crf=11Language                                 : EnglishDefault                                  : YesForced                                   : NoMatrix coefficients                      : BT.709-5, BT.1361, IEC 61966-2-4 709, SMPTE RP177

    Audio #1ID                                       : 2Format                                   : AC-3Format/Info                              : Audio Coding 3Mode extension                           : CM (complete main)Codec ID                                 : A_AC3Duration                                 : 2h 5mnBit rate mode                            : ConstantBit rate                                 : 640 KbpsChannel(s)                               : 6 channelsChannel positions                        : Front: L C R, Side: L R, LFESampling rate                            : 48.0 KHzBit depth                                : 16 bitsCompression mode                         : LossyStream size                              : 575 MiB (7%)Title                                    : ДублированныйLanguage                                 : RussianDefault                                  : YesForced                                   : No

    Audio #2ID                                       : 3Format                                   : AC-3Format/Info                              : Audio Coding 3Mode extension                           : CM (complete main)Codec ID                                 : A_AC3Duration                                 : 2h 5mnBit rate mode                            : ConstantBit rate                                 : 640 KbpsChannel(s)                               : 6 channelsChannel positions                        : Front: L C R, Side: L R, LFESampling rate                            : 48.0 KHzBit depth                                : 16 bitsCompression mode                         : LossyStream size                              : 575 MiB (7%)Title                                    : Многоголосый закадровый, ОмикронLanguage                                 : RussianDefault                                  : NoForced                                   : No

    Audio #3ID                                       : 4Format                                   : AC-3Format/Info                              : Audio Coding 3Mode extension                           : CM (complete main)Codec ID                                 : A_AC3Duration                                 : 2h 5mnBit rate mode                            : ConstantBit rate                                 : 640 KbpsChannel(s)                               : 6 channelsChannel positions                        : Front: L C R, Side: L R, LFESampling rate                            : 48.0 KHzBit depth                                : 16 bitsCompression mode                         : LossyStream size                              : 575 MiB (7%)Title                                    : Авторский, А.ГавриловLanguage                                 : RussianDefault                                  : NoForced                                   : No

    Audio #4ID                                       : 5Format                                   : AC-3Format/Info                              : Audio Coding 3Mode extension                           : CM (complete main)Codec ID                                 : A_AC3Duration                                 : 2h 5mnBit rate mode                            : ConstantBit rate                                 : 640 KbpsChannel(s)                               : 6 channelsChannel positions                        : Front: L C R, Side: L R, LFESampling rate                            : 48.0 KHzBit depth                                : 16 bitsCompression mode                         : LossyStream size                              : 575 MiB (7%)Title                                    : Авторский, Д.ЕсаревLanguage                                 : RussianDefault                                  : NoForced                                   : No

    Audio #5ID                                       : 6Format                                   : AC-3Format/Info                              : Audio Coding 3Mode extension                           : CM (complete main)Codec ID                                 : A_AC3Duration                                 : 2h 5mnBit rate mode                            : ConstantBit rate                                 : 640 KbpsChannel(s)                               : 6 channelsChannel positions                        : Front: L C R, Side: L R, LFESampling rate                            : 48.0 KHzBit depth                                : 16 bitsCompression mode                         : LossyStream size                              : 575 MiB (7%)Title                                    : Авторский, Л.ВолодарскийLanguage                                 : RussianDefault                                  : NoForced                                   : No

    Audio #6ID                                       : 7Format                                   : AC-3Format/Info                              : Audio Coding 3Mode extension                           : CM (complete main)Codec ID                                 : A_AC3Duration                                 : 2h 5mnBit rate mode                            : ConstantBit rate                                 : 640 KbpsChannel(s)                               : 6 channelsChannel positions                        : Front: L C R, Side: L R, LFESampling rate                            : 48.0 KHzBit depth                                : 16 bitsCompression mode                         : LossyStream size                              : 575 MiB (7%)Language                                 : EnglishDefault                                  : NoForced                                   : No

    Text #1ID                                       : 8Format                                   : UTF-8Codec ID                                 : S_TEXT/UTF8Codec ID/Info                            : UTF-8 Plain TextTitle                                    : ForcedLanguage                                 : RussianDefault                                  : YesForced                                   : No

    Text #2ID                                       : 9Format                                   : UTF-8Codec ID                                 : S_TEXT/UTF8Codec ID/Info                            : UTF-8 Plain TextLanguage                                 : RussianDefault                                  : NoForced                                   : No

    Text #3ID                                       : 10Format                                   : UTF-8Codec ID                                 : S_TEXT/UTF8Codec ID/Info                            : UTF-8 Plain TextLanguage                                 : RussianDefault                                  : NoForced                                   : No

    Text #4ID                                       : 11Format                                   : UTF-8Codec ID                                 : S_TEXT/UTF8Codec ID/Info                            : UTF-8 Plain TextTitle                                    : FullLanguage                                 : EnglishDefault                                  : NoForced                                   : No

    Text #5ID                                       : 12Format                                   : UTF-8Codec ID                                 : S_TEXT/UTF8Codec ID/Info                            : UTF-8 Plain TextTitle                                    : SDHLanguage                                 : EnglishDefault                                  : NoForced                                   : No

    Menu00:00:00.000                             : en:00:00:00.00000:07:40.335                             : en:00:07:40.33500:14:20.735                             : en:00:14:20.73500:20:31.564                             : en:00:20:31.56400:27:48.417                             : en:00:27:48.41700:34:54.801                             : en:00:34:54.80100:41:02.627                             : en:00:41:02.62700:46:28.786                             : en:00:46:28.78600:53:05.516                             : en:00:53:05.51601:01:00.240                             : en:01:01:00.24001:08:22.557                             : en:01:08:22.55701:14:43.813                             : en:01:14:43.81301:21:31.261                             : en:01:21:31.26101:31:01.706                             : en:01:31:01.70601:38:42.750                             : en:01:38:42.75001:45:41.085                             : en:01:45:41.08501:52:48.971                             : en:01:52:48.97101:58:00.115                             : en:01:58:00.115

    x264 [info]: frame I:1652 Avg QP:11.16 size: 94907x264 [info]: frame P:44246 Avg QP:13.20 size: 45431x264 [info]: frame B:134953 Avg QP:14.29 size: 18012

    Скачать Терминатор: Генезис через торрент http://i58.fastpic.ru/big/2015/1026/42/0f4ab549203a891cb13d056cda5b5b42.png Скачать фильм Терминатор: Генезис через торрент бесплантно в хорошем качестве Описание:Когда Джон Коннор, лидер сопротивления, посылает сержанта Кайла Риза назад в 1984 год, чтобы защитить Сару Коннор и спасти ... 2015-11-21 08:14 9.1 10 20

    Loading...

    Loading...

    Последний раз редактировалось: _denis_100 (2015-11-21 08:14), всего редактировалось 1 раз

    Рекламный пират

    19-11-2015 16:51 Терминатор: Генезис Скачать торрент  

    Обновил: добавил Многоголосый перевод от Омикрон и авторский А.Гаврилов+ добавил Авторский, Л.Володарский

    Дорогой пользователь! Огромная просьба, поблагодарите релизера, оцените раздачу и оставьте свои комментарий, если Вы скачали Терминатор: Генезис через торрент бесплатно! Внесите свою лепту в развитие PiratBit!

    Комментировать посты могут только пользователи прошедшие не сложную регистрацию

    Терминатор: Генезис через торрент Скачать бесплатно Терминатор: Генезис Терминатор: Генезис скачать торрент Терминатор: Генезис смотреть онлайн Cкачать фильм Терминатор: Генезис бесплатно Терминатор: Генезис скачать торрент в хорошем качестве Терминатор: Генезис смотреть онлайн бесплатно в хорошем качестве

    Вы не можете начинать темыВы не можете отвечать на сообщенияВы не можете редактировать свои сообщенияВы не можете удалять свои сообщенияВы не можете голосовать в опросахВы не можете прикреплять файлы к сообщениямВы можете скачивать файлы

    Генезис через торрент в хорошем качестве бесплатно 720p от potroks

    GeneralUnique ID                   : 185722918771539910502866523026032996083 (0x8BB8EEDD289295D59D360647B23CAEF3)Complete name               : N:\Фантастика\Terminator.Geneziz.2015.DUAL.BDRip.720p.-HELLYWOOD.mkvFormat                      : MatroskaFormat version              : Version 4 / Version 2File size                   : 4.37 GiBDuration                    : 2h 5mnOverall bit rate            : 4 978 KbpsMovie name                  : Terminator: Genisys (2015) - HELLYWOODEncoded date                : UTC 2010-02-22 21:41:31Writing application         : mkvmerge v5.8.0 ('No Sleep / Pillow') built on Sep 30 2012 10:57:14Writing library             : libebml v1.3.0 + libmatroska v1.4.0

    VideoID                          : 1Format                      : AVCFormat/Info                 : Advanced Video CodecFormat profile              : [email protected] settings, CABAC      : YesFormat settings, ReFrames   : 9 framesCodec ID                    : V_MPEG4/ISO/AVCDuration                    : 2h 5mnBit rate                    : 4 083 KbpsWidth                       : 1 280 pixelsHeight                      : 536 pixelsDisplay aspect ratio        : 2.40:1Frame rate mode             : ConstantFrame rate                  : 23.976 fpsColor space                 : YUVChroma subsampling          : 4:2:0Bit depth                   : 8 bitsScan type                   : ProgressiveBits/(Pixel*Frame)          : 0.248Stream size                 : 3.50 GiB (80%)Title                       : potroksWriting library             : x264 core 146 r2538 121396cEncoding settings           : cabac=1 / ref=9 / deblock=1:-3:-3 / analyse=0x3:0x113 / me=umh / subme=11 / psy=1 / psy_rd=1.02:0.06 / mixed_ref=1 / me_range=56 / chroma_me=1 / trellis=2 / 8x8dct=1 / cqm=0 / deadzone=21,11 / fast_pskip=0 / chroma_qp_offset=-3 / threads=9 / lookahead_threads=2 / sliced_threads=0 / nr=0 / decimate=0 / interlaced=0 / bluray_compat=0 / constrained_intra=0 / bframes=10 / b_pyramid=2 / b_adapt=2 / b_bias=0 / direct=3 / weightb=1 / open_gop=0 / weightp=2 / keyint=250 / keyint_min=23 / scenecut=40 / intra_refresh=0 / rc_lookahead=60 / rc=2pass / mbtree=0 / bitrate=4083 / ratetol=1.0 / qcomp=0.70 / qpmin=0 / qpmax=69 / qpstep=4 / cplxblur=20.0 / qblur=0.5 / vbv_maxrate=14000 / vbv_bufsize=14000 / nal_hrd=none / filler=0 / ip_ratio=1.40 / pb_ratio=1.30 / aq=1:0.80Language                    : EnglishDefault                     : YesForced                      : No

    Audio #1ID                          : 2Format                      : AC-3Format/Info                 : Audio Coding 3Mode extension              : CM (complete main)Format settings, Endianness : BigCodec ID                    : A_AC3Duration                    : 2h 5mnBit rate mode               : ConstantBit rate                    : 448 KbpsChannel(s)                  : 6 channelsChannel positions           : Front: L C R, Side: L R, LFESampling rate               : 48.0 KHzCompression mode            : LossyStream size                 : 403 MiB (9%)Title                       : Dub | DD 5.1 @ 448 kbps - Blu-Ray CEELanguage                    : RussianDefault                     : YesForced                      : No

    Audio #2ID                          : 3Format                      : AC-3Format/Info                 : Audio Coding 3Mode extension              : CM (complete main)Format settings, Endianness : BigCodec ID                    : A_AC3Duration                    : 2h 5mnBit rate mode               : ConstantBit rate                    : 448 KbpsChannel(s)                  : 6 channelsChannel positions           : Front: L C R, Side: L R, LFESampling rate               : 48.0 KHzCompression mode            : LossyStream size                 : 403 MiB (9%)Title                       : Original | DD 5.1 @ 448 kbpsLanguage                    : EnglishDefault                     : NoForced                      : No

    Text #1ID                          : 4Format                      : UTF-8Codec ID                    : S_TEXT/UTF8Codec ID/Info               : UTF-8 Plain TextTitle                       : ForcedLanguage                    : RussianDefault                     : YesForced                      : No

    Text #2ID                          : 5Format                      : UTF-8Codec ID                    : S_TEXT/UTF8Codec ID/Info               : UTF-8 Plain TextTitle                       : iTunesLanguage                    : RussianDefault                     : NoForced                      : No

    Text #3ID                          : 6Format                      : UTF-8Codec ID                    : S_TEXT/UTF8Codec ID/Info               : UTF-8 Plain TextTitle                       : FullLanguage                    : EnglishDefault                     : NoForced                      : No

    Text #4ID                          : 7Format                      : UTF-8Codec ID                    : S_TEXT/UTF8Codec ID/Info               : UTF-8 Plain TextTitle                       : SDHLanguage                    : EnglishDefault                     : NoForced                      : No

    Text #5ID                          : 8Format                      : UTF-8Codec ID                    : S_TEXT/UTF8Codec ID/Info               : UTF-8 Plain TextTitle                       : SDH-ColoredLanguage                    : EnglishDefault                     : NoForced                      : No

    Menu00:00:00.000                : :(01)00:00:00:00000:07:40.334                : :(02)00:07:40:33400:14:20.734                : :(03)00:14:20:73400:20:31.563                : :(04)00:20:31:56300:27:48.416                : :(05)00:27:48:41600:34:54.801                : :(06)00:34:54:80100:41:02.626                : :(07)00:41:02:62600:46:28.786                : :(08)00:46:28:78600:53:05.515                : :(09)00:53:05:51501:01:00.239                : :(10)01:01:00:23901:08:22.555                : :(11)01:08:22:55501:14:43.812                : :(12)01:14:43:81201:21:31.261                : :(13)01:21:31:26101:31:01.706                : :(14)01:31:01:70601:38:42.750                : :(15)01:38:42:75001:45:41.084                : :(16)01:45:41:08401:52:48.970                : :(17)01:52:48:97001:58:00.114                : :(18)01:58:00:114

    piratbit.ru

    Генезис через торрент в хорошем качестве бесплатно BDRip от Twi7ter

    piratbit.ru

    Размер: 2.18 GB | Добавлен: 1 год 11 мес. назад | Торрент скачан:590 раз
    Реклама Дарим 3000 рублей за регистрацию, не упусти свой шанс получить шикарный бонус!!!

    18-11-2015 11:00 Терминатор: Генезис Скачать торрент  

    Терминатор: Генезис / Terminator: Genisys

    «Судьба переписана»

    Год выпуска: 2015Страна: СШАЖанр: фантастика, боевик, триллерПродолжительность: 02:05:43Перевод: Профессиональный (полное дублирование) [Лицензия]Режиссер: Алан Тейлор / Alan TaylorВ ролях: Арнольд Шварценеггер (Guardian), Джейсон Кларк (John Connor), Эмилия Кларк (Sarah Connor), Джай Кортни (Kyle Reese), Дж.К. Симмонс (O'Brien), Дайо Окенийи (Danny Dyson), Мэтт Смит (Alex), Кортни Б. Вэнс (Miles Dyson), Ли Бён Хон (Cop / T-1000), Майкл Глэдис (Lt. Matias), Сандрин Холт (Detective Cheung), Уэйн Баструп (Young O'Brien)Описание: Когда Джон Коннор, лидер сопротивления, посылает сержанта Кайла Риза назад в 1984 год, чтобы защитить Сару Коннор и спасти будущее, неожиданный поворот событий создает разлом во времени. Сержант Риз оказывается в новой, незнакомой версии прошлого, где он встречает неожиданных союзников, в том числе Терминатора, новых опасных врагов, и новую миссию: изменить будущее...

    MPAA: PG-13 - Детям до 13 лет просмотр не желателен

    Качество: BDRip | исх. Terminator.Genisys.2015.1080p.BluRay.AVC.TrueHD.7.1.Atmos |Формат: AVIВидео кодек: XviDАудио кодек: AC3Видео: 720x304 (2.37:1), 23.976 fps, XviD build 73 ~2031 kbps avg, 0.39 bit/pixelАудио: 48 kHz, AC3 Dolby Digital, 3/2 (L,C,R,l,r) + LFE ch, ~448 kbps

    Релиз: & MegaPeer

    Скачать Терминатор: Генезис через торрент http://s017.radikal.ru/i428/1511/4a/f5c1181d6048.jpg Скачать фильм Терминатор: Генезис через торрент бесплантно в хорошем качестве Описание: Когда Джон Коннор, лидер сопротивления, посылает сержанта Кайла Риза назад в 1984 год, чтобы защитить Сару Коннор и спасти ... 2015-11-18 11:00 9.9 10 8

    Loading...

    Loading...

    % Раздел Тема Автор DL S | L
    Фильмы 2015 [DVDrip, WEB-DLRip, HDrip] [ 1.46 GB ] Терминатор: Генезис / Terminator Genisys [2015 BDRip-AVC] DUB potroks Скачать
    Фильмы 2015 [DVDrip, WEB-DLRip, HDrip] [ 1.46 GB ] Терминатор: Генезис / Terminator: Genisys [2015 BDRip] DUB Twi7ter Скачать
    Фильмы 2015 [DVDrip, WEB-DLRip, HDrip] [ 2.18 GB ] Терминатор: Генезис / Terminator Genisys [2015 BDRip-AVC от sokol_ok] DUB sokol_ok Скачать
    Фильмы [HD 720p, 1080p] (Хороший звук DUB, MVO) [ 4.37 GB ] Терминатор: Генезис / Terminator Genisys [2015 BDRip 720p] DUB potroks Скачать
    Фильмы 2015 [DVDrip, WEB-DLRip, HDrip] [ 1.45 GB ] Терминатор: Генезис / Terminator Genisys [2015 BDRip-AVC от sokol_ok] DUB sokol_ok Скачать
    Фильмы 2015 [DVDrip, WEB-DLRip, HDrip] [ 2.91 GB ] Терминатор: Генезис / Terminator Genisys [2015 BDRip-AVC] DUB potroks Скачать

    Рекламный пират

    Дорогой пользователь! Огромная просьба, поблагодарите релизера, оцените раздачу и оставьте свои комментарий, если Вы скачали Терминатор: Генезис через торрент бесплатно! Внесите свою лепту в развитие PiratBit!

    Комментировать посты могут только пользователи прошедшие не сложную регистрацию

    Терминатор: Генезис через торрент Скачать бесплатно Терминатор: Генезис Терминатор: Генезис скачать торрент Терминатор: Генезис смотреть онлайн Cкачать фильм Терминатор: Генезис бесплатно Терминатор: Генезис скачать торрент в хорошем качестве Терминатор: Генезис смотреть онлайн бесплатно в хорошем качестве

    Вы не можете начинать темыВы не можете отвечать на сообщенияВы не можете редактировать свои сообщенияВы не можете удалять свои сообщенияВы не можете голосовать в опросахВы не можете прикреплять файлы к сообщениямВы можете скачивать файлы

    Genisys [2015 HDRip] [AVO] скачать через торрент

    piratbit.ru

    Размер: 2.18 GB | Добавлен: 1 год 11 мес. назад | Торрент скачан:108 раз
    Реклама Дарим 3000 рублей за регистрацию, не упусти свой шанс получить шикарный бонус!!!

    22-11-2015 07:04 Терминатор: Генезис Скачать торрент  

    Терминатор: Генезис / Terminator: Genisys Год выпуска: 2015Страна: СШАЖанр: фантастика, боевик, триллерПродолжительность: 02:05:42Перевод: Авторский (одноголосый закадровый) Андрей ГавриловCубтитры: нет

    Режиссер: Алан Тейлор / Alan Taylor

    В ролях: Арнольд Шварценеггер, Джейсон Кларк, Эмилия Кларк, Джай Кортни, Дж.К. Симмонс, Дайо Окенийи, Мэтт Смит, Кортни Б. Вэнс, Ли Бён Хон, Майкл Глэдис

    Описание: Когда Джон Коннор, лидер сопротивления, посылает сержанта Кайла Риза назад в 1984 год, чтобы защитить Сару Коннор и спасти будущее, неожиданный поворот событий создает разлом во времени. Сержант Риз оказывается в новой, незнакомой версии прошлого, где он встречает неожиданных союзников, в том числе Терминатора, новых опасных врагов, и новую миссию: изменить будущее…

    Качество видео: HDRipФормат видео: AVIВидео кодек: XviDАудио кодек: AC3Видео: 720x304 (2.37:1), 23.976 fps, XviD build 73 ~2026 kbps avg, 0.39 bit/pixelАудио: 48 kHz, AC3 Dolby Digital, 3/2 (L,C,R,l,r) + LFE ch, ~448 kbps

    Раздача от -- JIuI3epIIyJIb

    Скачать Терминатор: Генезис через торрент http://i65.fastpic.ru/big/2015/1122/23/a020a0d989cd2e1e23438b9347cde423.jpg Скачать фильм Терминатор: Генезис через торрент бесплантно в хорошем качестве Описание: Когда Джон Коннор, лидер сопротивления, посылает сержанта Кайла Риза назад в 1984 год, чтобы защитить Сару Коннор и спасти ... 2015-11-22 07:04 10 10 3

    Loading...

    Loading...

    % Раздел Тема Автор DL S | L
    Ultra HD (UHD: 2K, 4K, 8K) — видео сверхвысокой чёткости [ 55.11 GB ] Терминатор: Генезис / Terminator Genisys [2015 UHD BDRemux 2160p] DUB + AVO sheker187 Скачать
    3D Видео (48-60 fps) [ 16.14 GB ] Терминатор: Генезис / Terminator Genisys [2015 BDRip 1080p / 60 fps / 3D-Video / HSBS / Dub ] от R.G. HD-Films Ressident Скачать
    Фильмы (HD 720p, 1080p) (48-60 fps) [ 4.6 GB ] Терминатор: Генезис / Terminator Genisys [2015 BDRip 720p 60fps от еnvy / NNNB] DUB еnvy Скачать
    Фильмы [HD 720p, 1080p] (Хороший звук DUB, MVO) [ 10.88 GB ] Терминатор: Генезис / Terminator Genisys [2015 BDRip 1080p] ЦККПСС Скачать
    Фильмы (Blu-ray, BD-Remux, HDDVD) [ 44.96 GB ] Терминатор: Генезис / Terminator: Genisys [2015 Blu-ray 1080p от HDCLUB [] / Custom Russian Mafia Скачать
    Фильмы 2015 [DVDrip, WEB-DLRip, HDrip] [ 1.46 GB ] Терминатор: Генезис / Terminator Genisys [2015 BDRip-AVC] DUB potroks Скачать
    Фильмы [HD 720p, 1080p] (Хороший звук DUB, MVO) [ 7.66 GB ] Терминатор: Генезис / Terminator Genisys [2015 BDRip 720p] DUB MVO 3xAVO _denis_100 Скачать

    Рекламный пират

    Дорогой пользователь! Огромная просьба, поблагодарите релизера, оцените раздачу и оставьте свои комментарий, если Вы скачали Терминатор: Генезис через торрент бесплатно! Внесите свою лепту в развитие PiratBit!

    Комментировать посты могут только пользователи прошедшие не сложную регистрацию

    Терминатор: Генезис через торрент Скачать бесплатно Терминатор: Генезис Терминатор: Генезис скачать торрент Терминатор: Генезис смотреть онлайн Cкачать фильм Терминатор: Генезис бесплатно Терминатор: Генезис скачать торрент в хорошем качестве Терминатор: Генезис смотреть онлайн бесплатно в хорошем качестве

    Вы не можете начинать темыВы не можете отвечать на сообщенияВы не можете редактировать свои сообщенияВы не можете удалять свои сообщенияВы не можете голосовать в опросахВы не можете прикреплять файлы к сообщениямВы можете скачивать файлы


    Смотрите также