Терминатор 4 скачать торрент в хорошем качестве hd качестве бесплатно


Да придёт спаситель (2009) HD 1080p скачать торрент в хорошем качестве

Информация о фильмеНазвание: Терминатор: Да придёт спасительОригинальное название: Terminator SalvationГод выхода: 2009Жанр: фантастика, боевик, триллер, драмаРежиссер: МакДжиВ ролях: Кристиан Бэйл, Сэм Уортингтон, Антон Ельчин, Мун Бладгуд, Брайс Даллас Ховард, Коммон, Джейн Александр, Майкл Айронсайд, Иван Г'Вера, Крис Браунинг

О фильме: 2018 год. В мире наступила война с машинами. Джон Коннор — человек, чья судьба — возглавить Сопротивление электронному мозгу Скайнет и армии Терминаторов. Но в будущее, с верой в которое он возвращен, вклинивается таинственный Маркус Райт: незнакомец, чьи последние воспоминания рисуют камеру смертников.Коннор должен понять, кто такой этот Маркус и с какой целью пожаловал к людям. И на фоне подготовки Скайнетом решающего удара, Коннор и Райт отправляются в путешествие, приводящее их в самую сердцевину взбунтовавшейся операционной системы, где открывается ужасная тайна, кроющаяся за потенциальным уничтожением человечества.

Страна: США, Германия, Великобритания, ИталияПродолжительность: 1:57:31Перевод: Дублированный

ФайлКодек: HEVC x265Качество: BDRip-HEVC 1080pВидео: 1920x800 (2,40:1), 5926 Кбит/сек, 0.161 бит/(Пиксели*Кадры), 23,976 кадр/сек (24000/1001), HEVC ([email protected]@High) 8 битЗвук: Русский, AAC, 445 Кбит/сек, 48,0 КГц, Front: L C R, Side: L R, LFEСубтитры: Русские (Форсированные на непереведённые участки)

ОбщееУникальный идентификатор : 240559551452985565497642797220609457328 (0xB4FA15984CDA2DBF85E6CC06C64CFCB0)Полное имя : I:HEVC 2Terminator4 Terminator Salvation_2009_Directors Cut_BDRip_1080p_[HEVC].mkvФормат : MatroskaВерсия формата : Version 4 / Version 2Размер файла : 5,23 ГбайтПродолжительность : 1 ч. 57 м.Общий поток : 6374 Кбит/секДата кодирования : UTC 2017-07-21 17:44:20Программа кодирования : mkvmerge v9.7.1 ('Pandemonium') 64bitБиблиотека кодирования : libebml v1.3.4 + libmatroska v1.4.5Обложка : YesAttachments : cover.png

ВидеоИдентификатор : 1Формат : HEVCФормат/Информация : High Efficiency Video CodingПрофиль формата : [email protected]@HighИдентификатор кодека : V_MPEGH/ISO/HEVCПродолжительность : 1 ч. 57 м.Битрейт : 5926 Кбит/секШирина : 1920 пикселейВысота : 800 пикселейСоотношение сторон : 2,40:1Режим частоты кадров : ПостоянныйЧастота кадров : 23,976 (24000/1001) кадра/секЦветовое пространство : YUVСубдискретизация насыщенности : 4:2:0Битовая глубина : 8 битБит/(Пиксели*Кадры) : 0.161Размер потока : 4,86 Гбайт (93%)Библиотека кодирования : x265 2.4+6-fd01abfc7898:[Windows][GCC 6.3.0][64 bit] 8bit+10bit+12bitНастройки программы : cpuid=1173503 / frame-threads=3 / numa-pools=8 / wpp / no-pmode / no-pme / no-psnr / no-ssim / log-level=2 / input-csp=1 / input-res=1920x800 / interlace=0 / total-frames=0 / level-idc=41 / high-tier=1 / uhd-bd=0 / ref=4 / no-allow-non-conformance / no-repeat-headers / annexb / no-aud / no-hrd / info / hash=0 / no-temporal-layers / open-gop / min-keyint=23 / keyint=240 / bframes=10 / b-adapt=2 / b-pyramid / bframe-bias=0 / rc-lookahead=25 / lookahead-slices=4 / scenecut=40 / no-intra-refresh / ctu=64 / min-cu-size=8 / rect / no-amp / max-tu-size=32 / tu-inter-depth=2 / tu-intra-depth=2 / limit-tu=0 / rdoq-level=2 / dynamic-rd=0.00 / no-ssim-rd / signhide / no-tskip / nr-intra=0 / nr-inter=0 / no-constrained-intra / strong-intra-smoothing / max-merge=3 / limit-refs=3 / limit-modes / me=3 / subme=3 / merange=32 / temporal-mvp / weightp / weightb / no-analyze-src-pics / deblock=-3:-3 / no-sao / no-sao-non-deblock / rd=4 / no-early-skip / rskip / no-fast-intra / no-tskip-fast / no-cu-lossless / no-b-intra / rdpenalty=0 / psy-rd=2.00 / psy-rdoq=2.00 / no-rd-refine / analysis-mode=0 / no-lossless / cbqpoffs=0 / crqpoffs=0 / rc=crf / crf=18.0 / qcomp=0.60 / qpstep=4 / stats-write=0 / stats-read=0 / vbv-maxrate=50000 / vbv-bufsize=50000 / vbv-init=0.9 / crf-max=0.0 / crf-min=0.0 / ipratio=1.40 / pbratio=1.30 / aq-mode=3 / aq-strength=0.90 / cutree / zone-count=1 / zones: / start-frame=157477 / end-frame=169056 / qp=35 / no-strict-cbr / qg-size=32 / no-rc-grain / qpmax=69 / qpmin=0 / sar=0 / overscan=0 / videoformat=5 / range=0 / colorprim=2 / transfer=2 / colormatrix=1 / chromaloc=0 / display-window=0 / max-cll=0,0 / min-luma=0 / max-luma=255 / log2-max-poc-lsb=8 / vui-timing-info / vui-hrd-info / slices=1 / opt-qp-pps / opt-ref-list-length-pps / no-multi-pass-opt-rps / scenecut-bias=0.05 / no-opt-cu-delta-qp / aq-motion / no-hdr / no-hdr-opt / no-dhdr10-opt / refine-level=5 / no-limit-saoDefault : ДаForced : ДаЦветовой диапазон : LimitedКоэффициенты матрицы : BT.709

АудиоИдентификатор : 2Формат : AACФормат/Информация : Advanced Audio CodecПрофиль формата : LCИдентификатор кодека : A_AACПродолжительность : 1 ч. 57 м.Битрейт : 445 Кбит/секКаналы : 6 каналовРасположение каналов : Front: L C R, Side: L R, LFEЧастота : 48,0 КГцЧастота кадров : 46,875 кадров/сек (1024 spf)Метод сжатия : С потерямиЗадержка видео : 20 мс.Размер потока : 374 Мбайт (7%)Заголовок : ДубляжЯзык : RussianDefault : ДаForced : Нет

ТекстИдентификатор : 3Формат : UTF-8Идентификатор кодека : S_TEXT/UTF8Идентификатор кодека/Информация : UTF-8 Plain TextПродолжительность : 1 ч. 11 м.Битрейт : 2 бит/секElementCount : 18Размер потока : 1,14 Кбайт (0%)Заголовок : ФорсированныеЯзык : RussianDefault : ДаForced : Да

rutorg2.ru

Терминатор: Да придёт спаситель 2009

www.kinovit.net

Название: Терминатор: Да придёт спаситель / Terminator Salvation (2009) BDRip-HEVC 1080p от ХиМиК | D | Режиссерская версия
Качество видео: BDRip-HEVC 1080p
Перевод: Дублированный
Видео: HEVC x265 1920x800 (2,40:1), 5926 Кбит/сек, 0.161 бит/(Пиксели*Кадры), 23,976 кадр/сек (24000/1001), HEVC ([email protected]@High) 8 бит
Аудио: Русский, AAC, 445 Кбит/сек, 48,0 КГц, Front: L C R, Side: L R, LFE
Скачать

Загрузка начнется в течение 5 сек.

5.23 GB

Название: Терминатор: Да придёт спаситель / Terminator Salvation (2009) HDRip от Portablius | P | Режиссерская версия
Качество видео: HDRip
Перевод: Профессиональный (многоголосый, закадровый) "Киномания&quot
Видео: XviD 656x272 (2.41:1), 23.976 fps, XviD build 73 ~691 kbps avg, 0.16 bit/pixel
Аудио: 48 kHz, MPEG Layer 3, 2 ch, ~128.00 kbps avg
Скачать

Загрузка начнется в течение 5 сек.

696.81 MB

Название: Терминатор: Да придёт спаситель / Terminator Salvation (2009) BDRip-AVC | D | Режиссерская версия
Качество видео: BDRip-AVC (исх BDRemux 1080p)
Перевод: Дублированное
Видео: x264 x264, 768x320 (2.40:1), 813 Kbps, 23.976 fps
Аудио: HE-AAC, 72 Kbps, 48 KHz, 2 channels
Скачать

Загрузка начнется в течение 5 сек.

745.48 MB

Название: Терминатор: Да придёт спаситель / Terminator Salvation (2009) HDRip от Scarabey | D | Режиссерская версия
Качество видео: HDRip
Перевод: Профессиональный (полное дублирование)
Видео: 640x272 (2.35:1), 23.976 fps, XviD build 73 ~755 kbps avg, 0.18 bit/pixel
Аудио: 48 kHz, MPEG Layer 3, 2 ch, ~128.00 kbps avg
Скачать

Загрузка начнется в течение 5 сек.

750.23 MB

Название: Терминатор: Да придёт спаситель / Terminator Salvation (2009) HDRip от Scarabey | D | Режиссерская версия
Качество видео: HDRip
Перевод: Профессиональный (полное дублирование)
Видео: 720x304 (2.37:1), 23.976 fps, XviD build 73 ~1308 kbps avg, 0.25 bit/pixel
Аудио: 48 kHz, AC3 Dolby Digital, 3/2 (L,C,R,l,r) + LFE ch, ~448.00 kbps avg
Скачать

Загрузка начнется в течение 5 сек.

1.45 GB

Название: Терминатор: Да придёт спаситель / Terminator Salvation (2009) BDRip 720р от SuperMin | Театральная версия | D | Лицензия
Качество видео: BDRip 720 от SuperMin
Перевод: Профессиональный (полное дублирование)
Видео: х264 1280х534 (2.40:1), 3300 Kbps, 23.976 fps
Аудио: Русский (AC-3, 6ch, 448 kbps)
Скачать

Загрузка начнется в течение 5 сек.

3.00 GB

Название: Терминатор: Да придёт спаситель / Terminator Salvation (2009) BDRip-AVC | D
Качество видео: BDRip-AVC (исх BDRemux 1080p)
Перевод: Дублированное
Видео: x264 x264, 800x336 (2.40:1), 806 Kbps, 23.976 fps
Аудио: HE-AAC, 72 Kbps, 48 KHz, 2 channels
Скачать

Загрузка начнется в течение 5 сек.

739.61 MB

Название: Терминатор: Да придёт спаситель / Terminator Salvation (2009) BDRip-AVC | Director's cut | D, P, A
Качество видео: BDRip-AVC
Перевод: Дубляж, многоголосный + 2х авторский, оригинал.
Видео: h.264 MPEG-4, 1152x480, 23.976 fps ~4040 kbps
Аудио: 1) HE-AAC 6 ch, 24|48 kHz ~256 kbps - Дубляж
Скачать

Загрузка начнется в течение 5 сек.

4.37 GB

Название: Терминатор: Да придёт спаситель / Terminator Salvation (2009) DVD9+DVD5 | D | Коллекционное издание
Качество видео: DVD9+DVD5
Перевод: полное дублирование
Видео: MPEG2 PAL 16:9 ([email protected]) VBR 5750 Kbps, 25.000 fps
Аудио: Dolby AC3, 6 ch, 48.0 KHz, 384 Kbps [русский]Dolby AC3, 6 ch, 48.0 KHz, 384 Kbps [английский]Dolby AC3, 6 ch, 48.0 KHz, 384 Kbps [хинди]Dolby AC3, 2 ch, 48.0 KHz, 192 Kbps [телугу]Dolby AC3, 2 ch, 48.0 KHz, 192 Kbps [тамильский]
Скачать

Загрузка начнется в течение 5 сек.

8.93 GB

Название: Терминатор: Да придёт спаситель / Terminator Salvation (2009) HDRip-AVC | Режиссерская версия
Качество видео: HDRip-AVC
Перевод: Дубляж + многоголосный + 2х авторский + оригинал
Видео: H.264 1152x480, 23.976 fps, H.264, 4040 kbps
Аудио: Аудио #1: AAC 6 ch, 48 kHz ~256 kbps - Дубляж
Скачать

Загрузка начнется в течение 5 сек.

4.37 GB

Название: Терминатор: Да придёт спаситель / Terminator Salvation (2009) BDRip от HQ-ViDEO | Театральная версия / Theatrical Cut
Качество видео: BDRip (Исходник: Blu-ray Disc)
Перевод: Русский дублированный перевод + Оригинальная дорожка (Английский)
Формат видео: AVI; XviD, MPEG-4 codec
Видео: 720 x 304; 1947 kbps; 23.976 fps; 0.37 bit/pixel
Аудио: Russian AC3; 384 kbps; 5.1 Ch; 48 kHzEnglish AC3; 384 kbps; 5.1 Ch; 48 kHz
Скачать

Загрузка начнется в течение 5 сек.

2.18 GB

Название: Терминатор: Да придёт спаситель / Terminator Salvation (2009) HDRip от Scarabey | D | Театральная версия
Качество видео: HDRip
Перевод: Профессиональный (полное дублирование)
Формат видео: AVI
Видео: 640x272 (2.35:1), 23.976 fps, XviD build 50 ~768 kbps avg, 0.18 bit/pixel
Аудио: 48 kHz, MPEG Layer 3, 2 ch, ~128.00 kbps avg
Скачать

Загрузка начнется в течение 5 сек.

743.81 MB

Название: Терминатор: Да придёт спаситель / Terminator Salvation (2009) HDRip от Scarabey | D | Театральная версия
Качество видео: HDRip
Перевод: Профессиональный (полное дублирование)
Формат видео: AVI
Видео: 720x304 (2.37:1), 23.976 fps, XviD build 50 ~1360 kbps avg, 0.26 bit/pixel
Аудио: 48 kHz, AC3 Dolby Digital, 3/2 (L,C,R,l,r) + LFE ch, ~384.00 kbps avg
Скачать

Загрузка начнется в течение 5 сек.

1.41 GB

Название: Терминатор: Да придёт спаситель / Terminator Salvation (2009) BDRip | Режиссерская версия
Качество видео: BDRip - рип с BDRemux 1080p
Перевод: Профессиональный (полное дублирование)
Видео: XviD 688x288 (2.39:1), 23.976 fps, XviD build 50 ~752 kbps avg, 0.16 bit/pixel
Аудио: 48 kHz, MPEG Layer 3, 2 ch, ~128.00 kbps avg
Скачать

Загрузка начнется в течение 5 сек.

748.08 MB

Название: Терминатор: Да придёт спаситель / Terminator Salvation [Director's Cut] (2009) BDRip от HQ-ViDEO
Качество видео: BDRip (Исходник: Blu-ray)
Формат видео: AVI
Видео: XviD, build 65 , 720 x 304 (2.37:1), 23.976 fps; ~2196 kbps; 0.42 bit/pixel
Аудио: 48 kHz, AC3 Dolby Digital, 3/2 (L,C,R,l,r) + LFE ch, 448 kbps avg |Dub|48 kHz, AC3 Dolby Digital, 3/2 (L,C,R,l,r) + LFE ch, 448 kbps avg |MVO Киномания| Отдельно на narod.ru48 kHz, AC3 Dolby Digital, 3/2 (L,C,R,l,r) + LFE ch, 448 kbps avg |AVO Сербин| Отдельно на narod.ru48 kHz, AC3 Dolby Digital, 3/2 (L,C,R,l,r) + LFE ch, 448 kbps avg |AVO Гаврилов| Отдельно на narod.ru48 kHz, AC3 Dolby Digital, 3/2 (L,C,R,l,r) + LFE ch, 448 kbps avg |AVO Горчаков| Отдельно на narod.ru48 kHz, AC3 Dolby Digital, 3/2 (L,C,R,l,r) + LFE ch, 448 kbps avg |Original| Отдельно на narod.ru48 kHz, AC3 Dolby Digital, 3/2 (L,C,R,l,r) + LFE ch, 384 kbps avg |Dub UKR|
Скачать

Загрузка начнется в течение 5 сек.

2.18 GB

Название: Терминатор: Да придёт спаситель / Terminator Salvation (2009) BDRip 720p | Director's Cut от DHT-Movies
Качество видео: BDRip 720p (Исходник 1080p US BD-Remux от m0j0)
Перевод: Дубляж (Профессиональный) + Оригинал (Английский)
Формат видео: MKV
Видео: H.264 1280x536 23.976 fps 4 474 Kbps 0.266 Bits/(Pixel*Frame)
Аудио: 48 kHz, AC3 Dolby Digital, 3/2 (L,C,R,l,r) + LFE ch, ~ 384 kbps avg | (Дубляж)48 kHz, AC3 Dolby Digital, 3/2 (L,C,R,l,r) + LFE ch, ~ 384 kbps avg | (Оригинал)
Скачать

Загрузка начнется в течение 5 сек.

4.30 GB

Название: Терминатор: Да придёт спаситель / Terminator Salvation (2009) BDRip 1080p | Director's Cut
Качество видео: BDRip (источник: Blu-ray Disc)
Перевод: Дублированный + многоголосый на режиссёрские вставки
Видео: x264 1920x800 (2,40:1), 23.976 fps, 4688 kbps
Аудио: 48 kHz, AC-3, 6 ch, 640 kbps
Скачать

Загрузка начнется в течение 5 сек.

4.37 GB

Да придёт спаситель через торрент в хорошем качестве бесплатно 720p)

Уникальный идентификатор : 204255667672940906363863698335806794237 (0x99AA35EE5A1AE967AF8DF18A9BE829FD) Полное имя : C:\Documents and Settings\Admin\Рабочий стол\торы\Terminator.Da.pridet.spasitel.2009.x264.BDRip.720p.mkv Формат : Matroska Размер файла : 5,84 Гбайт Продолжительность : 1 ч. 57 м. Общий поток : 7118 Кбит/сек Название фильма : Terminator 3 Rise of the Machines Дата кодирования : UTC 2012-07-09 00:42:44 Программа кодирования : mkvmerge v5.6.0 ('Kenya Kane') built on May 27 2012 16:44:04 Библиотека кодирования : libebml v1.2.3 + libmatroska v1.3.0

Видео Идентификатор : 1 Формат : AVC Формат/Информация : Advanced Video Codec Профиль формата : [email protected] Параметр CABAC формата : Да Параметр ReFrames формата : 12 кадров Идентификатор кодека : V_MPEG4/ISO/AVC Продолжительность : 1 ч. 57 м. Битрейт : 4288 Кбит/сек Ширина : 1280 пикс. Высота : 534 пикс. Соотношение сторон : 2,35:1 Частота кадров : 23,976 кадр/сек Цветовое пространство : YUV Подвыборка цветности : 4:2:0 Битовая глубина : 8 бит Тип развёртки : Прогрессивная Бит/(Пиксели*Кадры) : 0.262 Размер потока : 3,52 Гбайт (60%) Заголовок : Terminator Salvation[Director's Cut] Библиотека кодирования : x264 core 92 r1510 33d382a Настройки программы : cabac=1 / ref=12 / deblock=1:-2:-2 / analyse=0x3:0x133 / me=umh / subme=9 / psy=1 / psy_rd=1.20:0.00 / mixed_ref=1 / me_range=64 / chroma_me=1 / trellis=2 / 8x8dct=1 / cqm=0 / deadzone=21,11 / fast_pskip=0 / chroma_qp_offset=-2 / threads=9 / sliced_threads=0 / nr=0 / decimate=1 / interlaced=0 / constrained_intra=0 / bframes=16 / b_pyramid=2 / b_adapt=2 / b_bias=0 / direct=3 / wpredb=1 / wpredp=2 / keyint=250 / keyint_min=25 / scenecut=40 / intra_refresh=0 / rc_lookahead=60 / rc=crf / mbtree=0 / crf=19.1 / qcomp=0.60 / qpmin=10 / qpmax=51 / qpstep=4 / vbv_maxrate=50000 / vbv_bufsize=50000 / crf-max=0.000000 / ip_ratio=1.40 / pb_ratio=1.30 / aq=1:1.20 / nal_hrd=none Язык : English

Аудио #1 Идентификатор : 2 Формат : AC-3 Формат/Информация : Audio Coding 3 Расширение режима : CM (complete main) Идентификатор кодека : A_AC3 Продолжительность : 1 ч. 57 м. Вид битрейта : Постоянный Битрейт : 448 Кбит/сек Каналы : 6 каналов Расположение каналов : Front: L C R, Side: L R, LFE Частота : 48,0 КГц Битовая глубина : 16 бит Метод сжатия : С потерями Размер потока : 377 Мбайт (6%) Заголовок : DD 5.1 48 KHz 448 kbps[Dub] Язык : Russian

Аудио #2 Идентификатор : 3 Формат : AC-3 Формат/Информация : Audio Coding 3 Расширение режима : CM (complete main) Идентификатор кодека : A_AC3 Продолжительность : 1 ч. 57 м. Вид битрейта : Постоянный Битрейт : 448 Кбит/сек Каналы : 6 каналов Расположение каналов : Front: L C R, Side: L R, LFE Частота : 48,0 КГц Битовая глубина : 16 бит Метод сжатия : С потерями Размер потока : 377 Мбайт (6%) Заголовок : DD 5.1 48 KHz 448 kbps[MVO] Язык : Russian

Аудио #3 Идентификатор : 4 Формат : AC-3 Формат/Информация : Audio Coding 3 Расширение режима : CM (complete main) Идентификатор кодека : A_AC3 Продолжительность : 1 ч. 57 м. Вид битрейта : Постоянный Битрейт : 448 Кбит/сек Каналы : 6 каналов Расположение каналов : Front: L C R, Side: L R, LFE Частота : 48,0 КГц Битовая глубина : 16 бит Метод сжатия : С потерями Размер потока : 377 Мбайт (6%) Заголовок : DD 5.1 48 KHz 448 kbps[AVO]-Gavrilov Язык : Russian

Аудио #4 Идентификатор : 5 Формат : AC-3 Формат/Информация : Audio Coding 3 Расширение режима : CM (complete main) Идентификатор кодека : A_AC3 Продолжительность : 1 ч. 57 м. Вид битрейта : Постоянный Битрейт : 448 Кбит/сек Каналы : 6 каналов Расположение каналов : Front: L C R, Side: L R, LFE Частота : 48,0 КГц Битовая глубина : 16 бит Метод сжатия : С потерями Размер потока : 377 Мбайт (6%) Заголовок : DD 5.1 48 KHz 448 kbps[AVO]-Gorchakov Язык : Russian

Аудио #5 Идентификатор : 6 Формат : AC-3 Формат/Информация : Audio Coding 3 Расширение режима : CM (complete main) Идентификатор кодека : A_AC3 Продолжительность : 1 ч. 57 м. Вид битрейта : Постоянный Битрейт : 448 Кбит/сек Каналы : 6 каналов Расположение каналов : Front: L C R, Side: L R, LFE Частота : 48,0 КГц Битовая глубина : 16 бит Метод сжатия : С потерями Размер потока : 377 Мбайт (6%) Заголовок : DD 5.1 48 KHz 448 kbps[AVO]-Serbin Язык : Russian

Аудио #6 Идентификатор : 7 Формат : AC-3 Формат/Информация : Audio Coding 3 Расширение режима : CM (complete main) Идентификатор кодека : A_AC3 Продолжительность : 1 ч. 57 м. Вид битрейта : Постоянный Битрейт : 448 Кбит/сек Каналы : 6 каналов Расположение каналов : Front: L C R, Side: L R, LFE Частота : 48,0 КГц Битовая глубина : 16 бит Метод сжатия : С потерями Размер потока : 377 Мбайт (6%) Заголовок : DD 5.1 48 KHz 448 kbps[Original] Язык : English

Текст #1 Идентификатор : 8 Формат : UTF-8 Идентификатор кодека : S_TEXT/UTF8 Идентификатор кодека/Информация : UTF-8 Plain Text Заголовок : Forced Язык : Russian

Текст #2 Идентификатор : 9 Формат : UTF-8 Идентификатор кодека : S_TEXT/UTF8 Идентификатор кодека/Информация : UTF-8 Plain Text Заголовок : Full Язык : Russian

Текст #3 Идентификатор : 10 Формат : UTF-8 Идентификатор кодека : S_TEXT/UTF8 Идентификатор кодека/Информация : UTF-8 Plain Text Заголовок : Original Язык : English

Текст #4 Идентификатор : 11 Формат : UTF-8 Идентификатор кодека : S_TEXT/UTF8 Идентификатор кодека/Информация : UTF-8 Plain Text Заголовок : Original SDH Язык : English

piratbit.ru

Скачать Терминатор: Да придёт спаситель через торрент

Категория: Фильмы 1602 0 Торрент добавлен: 15-04-2015 Рейтинг:

Жанр: фантастика, боевик Производство: Германия, США, Великобритания Продолжительность: 01:57:42 Режиссер: МакДжи В ролях: Кристиан Бэйл, Сэм Уортингтон, Мун Бладгуд, Хелена Бонем Картер, Антон Ельчин, Джадагрейс, Брайс Даллас Ховард, Коммон, Джейн Александр, Майкл Айронсайд

От Джона Коннора, как и в предыдущих частях, зависит судьба человечества. Война с машинами уже в полном разгаре и вот однажды в лагерь приходит человек по имени Маркус. Джон узнает, что Маркус на самом деле не человек, но и на врага робота он не похож. После беседы Джон узнает о пугающих событиях и, решив довериться, отправляется вместе с ним на битву со Скайнетом. В этом путешествии им откроется причина истребление человечества.

Трейлер к фильму Терминатор: Да придёт спаситель

Терминатор: Да придёт спаситель скачать торрент

Кодек: H.264Качество: Blu-RayВидео: 1920x1080p (2.40:1), 23.976 fpsЗвук: Аудиопоток №5 (RUS): DD 5.1, 48 kHz, 640 kbps профессиональный (полное дублирование) 42,49 Gb

скачать

Кодек: x264Качество: BDRip 1080pВидео: 1920x800, 8400 Kbps, 23.976 fpsАудио #1: AC-3, 6 ch, 640 kbps (Rus)Проф. (полное дублирование)

7,76 Gb

скачать

Качество: BDRip (720p) Видео: 1280x534, 2255 Кбит/сек, 23,976 кадр/сек, AVC, x264, 2,35:1, 0.134 Бит/(Пиксели*Кадры) Звук: AC-3, 448 Кбит/сек, 6 канала(ов), 48,0 КГц Проф. (полное дублирование)

скачать

Вы находитесь на странице, где можете совершенно бесплатно скачать фильм Терминатор: Да придёт спаситель в хорошем качестве через торрент, в любом формате, который больше всего вам на данный момент подходит. Скачивание осуществляется через торрент, что означает максимально высокую скорость загрузки. Желаем Вам приятного просмотра!. Не забудь поделиться своими впечатлениями после того как посмотришь фильм Терминатор: Да придёт спаситель.

Информация Посетители, находящиеся в группе Гости, не могут оставлять комментарии к данной публикации.

psp-gu.ru

Терминатор / Terminator [1984-2009 BD-Remux 1080p Многоголосый ] скачать через торрент

piratbit.ru

Размер: 123.57 GB | Добавлен: 4 года 6 мес. назад | Торрент скачан:4 раза
Реклама Дарим 3000 рублей за регистрацию, не упусти свой шанс получить шикарный бонус!!!

16-04-2013 13:25 Терминатор Скачать торрент  

Terminator (Quadrology)

Терминатор / Terminator

Год выпуска: 1984Страна: Великобритания, СШАЖанр: Боевик, ФантастикаПродолжительность: 01:47:13Перевод: Профессиональный многоголосый (закадровый)Тип релиза: ПираткаСубтитры: Есть

Режиссер: Джеймс КэмеронПродюссер: Гэйл Энн Хёрд, Джон Дэйли, Дерек ГибсонСценарий: Джеймс Кэмерон, Гэйл Энн Хёрд, Уильям Уишер мл.

Бюджет: $6 400 000Премьера в мире: 26 октября 1984

В ролях: Арнольд Шварценеггер, Майкл Бьен, Линда Хэмилтон, Пол Уинфилд, Лэнс Хенриксен, Эрл Боэн, Рик Россович, Дик Миллер, Франко Коламбу, Билл Пэкстон, Энтони Трухильо, Джеймс Ролстон

Описание: После ужасной атомной войны, власть на Земле захватили роботы-убийцы. Они несут смерть и полное уничтожение всему живому. Остатки сумевших выжить людей прячутся в подземельях и ведут отчаянную борьбу за выживание. Благодаря своему талантливому лидеру Джону Коннору они приближаются к победе, но чтобы разрушить планы сопротивления, роботы отправляют в прошлое чудовищного киборга-убийцу. Его задание - предотвратить рождение лидера сопротивления. Чтобы помешать этим опасным планам, одновременно с киборгом в наше время проникает и человек из оппозиции.

Качество: BD-Remux 1080pФормат: MKVВидео кодек: MPEG-2Аудио кодек: DTS,AC3Видео: 1920x1080 at 23.976 fps, MPEG-2, ~23.3 Mbps avgАудио#1: Russian: 48 kHz/16-bit, DTS-HD MA 5.1, ~2248.00 kbps avg (DTS Core: 5.1 / 48 kHz / 1509 kbps / 16-bit) |Многоголосый закадровый, Киномания, новый перевод|Аудио#2: Russian: 48 kHz/16-bit, DTS-HD MA 5.1, ~2253.00 kbps avg (DTS Core: 5.1 / 48 kHz / 1509 kbps / 16-bit) |Многоголосый закадровый, Карусель|Аудио#3: Russian: 48 kHz/16-bit, DTS-HD MA 5.1, ~2253.00 kbps avg (DTS Core: 5.1 / 48 kHz / 1509 kbps / 16-bit) |Многоголосый закадровый, Позитив Мультимедиа|Аудио#4: Russian: 48 kHz/16-bit, DTS-HD MA 5.1, ~2246.00 kbps avg (DTS Core: 5.1 / 48 kHz / 1509 kbps / 16-bit) |Одноголосый закадровый, Д. Пучков (Goblin)|Аудио#5: Russian: 48 kHz/16-bit, DTS-HD MA 5.1, ~2258.00 kbps avg (DTS Core: 5.1 / 48 kHz / 1509 kbps / 16-bit) |Одноголосый закадровый, Ю.Сербин|Аудио#6: Russian: 48 kHz/16-bit, DTS-HD MA 5.1, ~2247.00 kbps avg (DTS Core: 5.1 / 48 kHz / 1509 kbps / 16-bit) |Одноголосый закадровый, А.Гаврилов, новый перевод|Аудио#7: Russian: 48 kHz/16-bit, DTS-HD MA 5.1, ~2246.00 kbps avg (DTS Core: 5.1 / 48 kHz / 1509 kbps / 16-bit) |Одноголосый закадровый, В.Горчаков|Аудио#8: English: 48 kHz/16-bit, DTS-HD MA 5.1, ~2243.00 kbps avg (DTS Core: 5.1 / 48 kHz / 1509 kbps / 16-bit)Аудио#9: Russian: 48 kHz, DTS, 3/2 (L,C,R,l,r) + LFE ch, ~1536.00 kbps avg |Многоголосый закадровый, ОРТ Селена Интернешнл|Аудио#10: Russian: 48 kHz, DTS, 3/2 (L,C,R,l,r) + LFE ch, ~1536.00 kbps avg |Многоголосый закадровый, Первый Канал|Аудио#11: Russian: 48 kHz, AC3, 3/2 (L,C,R,l,r) + LFE ch, ~448.00 kbps avg |Многоголосый закадровый, Гемини Фильм|Аудио#12:Russian: 48 kHz, AC3, 3/2 (L,C,R,l,r) + LFE ch, ~448.00 kbps avg |Одноголосый закадровый, Держиморда|Аудио#13: Russian: 48 kHz, AC3, 2/0 (L,R) ch, ~192.00 kbps avg |Одноголосый закадровый, Л.Володарский|Аудио#14: Ukrainian: 48 kHz, AC3, 2/0 (L,R) ch, ~192.00 kbps avg |Многоголосый закадровый, 1+1|

GeneralComplete name : E:Blu-rayTerminatorTerminator.1984.BDRemux.1080p.mpeg2.12xRus.Ukr.Eng.mkvFormat : MatroskaFile size : 30.6 GiBDuration : 1h 47mnOverall bit rate : 40.9 MbpsEncoded date : UTC 2011-05-04 18:16:02Writing application : mkvmerge v4.7.0 ('Just Like You Imagined') сборка от Apr 21 2011 01:13:14Writing library : libebml v1.2.0 + libmatroska v1.1.0

VideoID : 1Format : MPEG VideoFormat version : Version 2Format profile : [email protected] settings, BVOP : NoFormat settings, Matrix : DefaultCodec ID : V_MPEG2Codec ID/Info : MPEG 1 or 2 VideoDuration : 1h 47mnBit rate mode : VariableBit rate : 23.3 MbpsNominal bit rate : 30.0 MbpsWidth : 1 920 pixelsHeight : 1 080 pixelsDisplay aspect ratio : 16:9Frame rate : 23.976 fpsColor space : YUVChroma subsampling : 4:2:0Bit depth : 8 bitsScan type : ProgressiveCompression mode : LossyBits/(Pixel*Frame) : 0.468Stream size : 17.4 GiB (57%)Title : TerminatorLanguage : English

Audio #1ID : 2Format : DTSFormat/Info : Digital Theater SystemsFormat profile : MA / CoreCodec ID : A_DTSDuration : 1h 47mnBit rate mode : VariableBit rate : 1 561 Kbps / 1 510 KbpsChannel(s) : 6 channelsChannel positions : Front: L C R, Side: L R, LFESampling rate : 48.0 KHzBit depth : 16 bitsCompression mode : Lossless / LossyTitle : DTS-HD MA 5.1 @ ~2248 kbps - MVO Киномания (новый перевод)Language : Russian

Audio #2ID : 3Format : DTSFormat/Info : Digital Theater SystemsFormat profile : MA / CoreCodec ID : A_DTSDuration : 1h 47mnBit rate mode : VariableBit rate : 1 561 Kbps / 1 510 KbpsChannel(s) : 6 channelsChannel positions : Front: L C R, Side: L R, LFESampling rate : 48.0 KHzBit depth : 16 bitsCompression mode : Lossless / LossyTitle : DTS-HD MA 5.1 @ ~2253 kbps - MVO КарусельLanguage : Russian

Audio #3ID : 4Format : DTSFormat/Info : Digital Theater SystemsFormat profile : MA / CoreCodec ID : A_DTSDuration : 1h 47mnBit rate mode : VariableBit rate : 1 561 Kbps / 1 510 KbpsChannel(s) : 6 channelsChannel positions : Front: L C R, Side: L R, LFESampling rate : 48.0 KHzBit depth : 16 bitsCompression mode : Lossless / LossyTitle : DTS-HD MA 5.1 @ ~2253 kbps - MVO Позитив МультимедиаLanguage : Russian

Audio #4ID : 5Format : DTSFormat/Info : Digital Theater SystemsFormat profile : MA / CoreCodec ID : A_DTSDuration : 1h 47mnBit rate mode : VariableBit rate : 1 561 Kbps / 1 510 KbpsChannel(s) : 6 channelsChannel positions : Front: L C R, Side: L R, LFESampling rate : 48.0 KHzBit depth : 16 bitsCompression mode : Lossless / LossyTitle : DTS-HD MA 5.1 @ ~2246 kbps - AVO Д.Пучков (Goblin)Language : Russian

Audio #5ID : 6Format : DTSFormat/Info : Digital Theater SystemsFormat profile : MA / CoreCodec ID : A_DTSDuration : 1h 47mnBit rate mode : VariableBit rate : 1 561 Kbps / 1 510 KbpsChannel(s) : 6 channelsChannel positions : Front: L C R, Side: L R, LFESampling rate : 48.0 KHzBit depth : 16 bitsCompression mode : Lossless / LossyTitle : DTS-HD MA 5.1 @ ~2258 kbps - AVO Ю.СербинLanguage : Russian

Audio #6ID : 7Format : DTSFormat/Info : Digital Theater SystemsFormat profile : MA / CoreCodec ID : A_DTSDuration : 1h 47mnBit rate mode : VariableBit rate : 1 561 Kbps / 1 510 KbpsChannel(s) : 6 channelsChannel positions : Front: L C R, Side: L R, LFESampling rate : 48.0 KHzBit depth : 16 bitsCompression mode : Lossless / LossyTitle : DTS-HD MA 5.1 @ ~2247 kbps - AVO А.Гаврилов (новый перевод)Language : Russian

Audio #7ID : 8Format : DTSFormat/Info : Digital Theater SystemsFormat profile : MA / CoreCodec ID : A_DTSDuration : 1h 47mnBit rate mode : VariableBit rate : 1 561 Kbps / 1 510 KbpsChannel(s) : 6 channelsChannel positions : Front: L C R, Side: L R, LFESampling rate : 48.0 KHzBit depth : 16 bitsCompression mode : Lossless / LossyTitle : DTS-HD MA 5.1 @ ~2246 kbps - AVO В.ГорчаковLanguage : Russian

Audio #8ID : 9Format : DTSFormat/Info : Digital Theater SystemsFormat profile : MA / CoreCodec ID : A_DTSDuration : 1h 47mnBit rate mode : VariableBit rate : 1 561 Kbps / 1 510 KbpsChannel(s) : 6 channelsChannel positions : Front: L C R, Side: L R, LFESampling rate : 48.0 KHzBit depth : 16 bitsCompression mode : Lossless / LossyTitle : DTS-HD MA 5.1 @ ~2246 kbps - ОригиналLanguage : English

Audio #9ID : 10Format : DTSFormat/Info : Digital Theater SystemsCodec ID : A_DTSDuration : 1h 47mnBit rate mode : ConstantBit rate : 1 510 KbpsChannel(s) : 6 channelsChannel positions : Front: L C R, Side: L R, LFESampling rate : 48.0 KHzBit depth : 24 bitsCompression mode : LossyDelay relative to video : 11msStream size : 1.13 GiB (4%)Title : DTS, 6ch @ 1536 kbps - MVO ОРТ Селена ИнтернешнлLanguage : Russian

Audio #10ID : 11Format : DTSFormat/Info : Digital Theater SystemsCodec ID : A_DTSDuration : 1h 47mnBit rate mode : ConstantBit rate : 1 510 KbpsChannel(s) : 6 channelsChannel positions : Front: L C R, Side: L R, LFESampling rate : 48.0 KHzBit depth : 24 bitsCompression mode : LossyDelay relative to video : 11msStream size : 1.13 GiB (4%)Title : DTS, 6ch @ 1536 kbps - MVO Первый канал ОстанкиноLanguage : Russian

Audio #11ID : 12Format : AC-3Format/Info : Audio Coding 3Mode extension : CM (complete main)Codec ID : A_AC3Duration : 1h 47mnBit rate mode : ConstantBit rate : 448 KbpsChannel(s) : 6 channelsChannel positions : Front: L C R, Side: L R, LFESampling rate : 48.0 KHzBit depth : 16 bitsCompression mode : LossyStream size : 344 MiB (1%)Title : AC3, 6ch @ 448 kbps - MVO Гемини ФильмLanguage : Russian

Audio #12ID : 13Format : AC-3Format/Info : Audio Coding 3Mode extension : CM (complete main)Codec ID : A_AC3Duration : 1h 47mnBit rate mode : ConstantBit rate : 448 KbpsChannel(s) : 6 channelsChannel positions : Front: L C R, Side: L R, LFESampling rate : 48.0 KHzBit depth : 16 bitsCompression mode : LossyStream size : 344 MiB (1%)Title : AC3, 6ch @ 448 kbps - AVO Держиморда (Hobbit)Language : Russian

Audio #13ID : 14Format : AC-3Format/Info : Audio Coding 3Mode extension : CM (complete main)Codec ID : A_AC3Duration : 1h 47mnBit rate mode : ConstantBit rate : 192 KbpsChannel(s) : 2 channelsChannel positions : Front: L RSampling rate : 48.0 KHzBit depth : 16 bitsCompression mode : LossyStream size : 147 MiB (0%)Title : AC3, 2ch @ 192 kbps - AVO Л.ВолодарскийLanguage : Russian

Audio #14ID : 15Format : AC-3Format/Info : Audio Coding 3Mode extension : CM (complete main)Codec ID : A_AC3Duration : 1h 47mnBit rate mode : ConstantBit rate : 192 KbpsChannel(s) : 2 channelsChannel positions : Front: L RSampling rate : 48.0 KHzBit depth : 16 bitsCompression mode : LossyStream size : 147 MiB (0%)Title : AC3, 2ch @ 192 kbps - MVO 1+1Language : Ukrainian

Text #1ID : 16Format : UTF-8Codec ID : S_TEXT/UTF8Codec ID/Info : UTF-8 Plain TextLanguage : Russian

Text #2ID : 17Format : UTF-8Codec ID : S_TEXT/UTF8Codec ID/Info : UTF-8 Plain TextTitle : А.ГавриловLanguage : Russian

Text #3ID : 18Format : UTF-8Codec ID : S_TEXT/UTF8Codec ID/Info : UTF-8 Plain TextLanguage : English

Text #4ID : 19Format : UTF-8Codec ID : S_TEXT/UTF8Codec ID/Info : UTF-8 Plain TextTitle : SDHLanguage : English

Menu00:00:00.000 : :00:00:00.00000:06:23.925 : :00:06:23.92500:13:38.234 : :00:13:38.23400:15:04.737 : :00:15:04.73700:22:42.528 : :00:22:42.52800:29:42.698 : :00:29:42.69800:38:40.026 : :00:38:40.02600:41:18.101 : :00:41:18.10100:47:39.398 : :00:47:39.39800:54:34.480 : :00:54:34.48001:03:46.614 : :01:03:46.61401:09:29.123 : :01:09:29.12301:17:11.710 : :01:17:11.71001:26:17.631 : :01:26:17.63101:32:12.277 : :01:32:12.27701:36:07.762 : :01:36:07.762

Терминатор 2: Судный день / Terminator 2: Judgment Day

Год выпуска: 1991Страна: США, ФранцияЖанр: Боевик, ФантастикаПродолжительность: 02:33:25Перевод: Профессиональный многоголосый (закадровый)Тип релиза: ПираткаСубтитры: Есть

Режиссер: Джеймс КэмеронПродюссер: Джеймс Кэмерон, Стефани Остин, Гэйл Энн ХёрдСценарий: Джеймс Кэмерон, Уильям Уишер мл.

Бюджет: $102 000 000Премьера в мире: 1 июля 1991

В ролях: Арнольд Шварценеггер, Роберт Патрик, Линда Хэмилтон, Эдвард Ферлонг, Джо Мортон, Эрл Боэн, С. Эпата Меркерсон, Кастуло Герра, Дэнни Кукси, Дженетт Голдстин

Описание: Война роботов и людей продолжается. Казалось, что человечество обречено на полное уничтожение. Но благодаря своему лидеру Джону Коннору у сопротивления появляется шанс победить. Не имея возможности убить Джона в реальном времени, роботы отправляют в прошлое свою самую совершенную разработку - терминатора-убийцу из жидкого металла, способного принимать любое обличье.Теперь, чтобы победить в будущем, юному Джону Коннору надо выжить в настоящем. Его шансы существенно повышаются, когда на помощь приходит перепрограммированный сопротивлением терминатор предыдущего поколения. Оба робота вступают в смертельный бой, от исхода которого зависит судьба человечества.

Качество: BD-Remux 1080pФормат: MKVВидео кодек: VC-1Аудио кодек: DTS, AC3Видео: 1920x1080 at 23.976 fps, VC-1, ~20.4 Mbps avgАудио#1: Russian: 48 kHz, DTS, 3/2 (L,C,R,l,r) + LFE ch, ~1536.00 kbps avg |Многоголосый закадровый, Киномания|Аудио#2: Russian: 48 kHz, DTS, 3/2 (L,C,R,l,r) + LFE ch, ~1536.00 kbps avg |Многоголосый закадровый, Позитив Мультимедиа|Аудио#3: Russian: 48 kHz, DTS, 3/2 (L,C,R,l,r) + LFE ch, ~1536.00 kbps avg |Многоголосый закадровый, ОРТ Селена Интернешнл|Аудио#4: Russian: 48 kHz, DTS, 3/2 (L,C,R,l,r) + LFE ch, ~1536.00 kbps avg |Многоголосый закадровый, ТВ-6 Москва|Аудио#5: Russian: 48 kHz, DTS, 3/2 (L,C,R,l,r) + LFE ch, ~1536.00 kbps avg |Одноголосый закадровый, Д.Пучков (Goblin)|Аудио#6: Russian: 48 kHz/16-bit, DTS-HD MA 5.1, ~2115.00 kbps avg (DTS Core: 5.1 / 48 kHz / 1509 kbps / 16-bit) |Одноголосый закадровый, А.Гаврилов|Аудио#7: Russian: 48 kHz/16-bit, DTS-HD MA 5.1, ~2117.00 kbps avg (DTS Core: 5.1 / 48 kHz / 1509 kbps / 16-bit) |Одноголосый закадровый, Ю.Живов|Аудио#8: Russian: 48 kHz/16-bit, DTS-HD MA 5.1, ~2114.00 kbps avg (DTS Core: 5.1 / 48 kHz / 1509 kbps / 16-bit) |Одноголосый закадровый, В.Горчаков|Аудио#9: English: 48 kHz/16-bit, DTS-HD MA 5.1, ~2110.00 kbps avg (DTS Core: 5.1 / 48 kHz / 1509 kbps / 16-bit)Аудио#10: Russian: 48 kHz, AC3, 3/2 (L,C,R,l,r) + LFE ch, ~448.00 kbps avg |Многоголосый закадровый, CP Digital|Аудио#11: Ukrainian: 48 kHz, AC3, 2/0 (L,R) ch, ~320.00 kbps avg |Многоголосый закадровый, 1+1|Аудио#12: Ukrainian: 48 kHz, AC3, 2/0 (L,R) ch, ~320.00 kbps avg |Двухгоголосый закадровый, 1+1|Аудио#13: English: 48 kHz, AC3, 2/0 (L,R) ch, ~224.00 kbps avg |Commentary №1Аудио#14: English: 48 kHz, AC3, 2/0 (L,R) ch, ~224.00 kbps avg |Commentary №2

GeneralComplete name : E:Blu-rayTerminatorTerminator.2.Judgment.Day.1991.SE.BDRemux.1080p.VC-1.9xRus.2xUkr.Eng.mkvFormat : MatroskaFile size : 39.1 GiBDuration : 2h 33mnOverall bit rate : 36.5 MbpsEncoded date : UTC 2011-05-10 11:55:28Writing application : mkvmerge v4.7.0 ('Just Like You Imagined') сборка от Apr 21 2011 01:13:14Writing library : libebml v1.2.0 + libmatroska v1.1.0

VideoID : 1Format : VC-1Format profile : [email protected] ID : WVC1Codec ID/Hint : MicrosoftDuration : 2h 33mnBit rate : 20.4 MbpsWidth : 1 920 pixelsHeight : 1 080 pixelsDisplay aspect ratio : 16:9Frame rate : 23.976 fpsChroma subsampling : 4:2:0Bit depth : 8 bitsScan type : ProgressiveCompression mode : LossyBits/(Pixel*Frame) : 0.410Stream size : 21.9 GiB (56%)Title : Terminator 2: Judgment DayLanguage : English

Audio #1ID : 2Format : DTSFormat/Info : Digital Theater SystemsCodec ID : A_DTSDuration : 2h 33mnBit rate mode : ConstantBit rate : 1 510 KbpsChannel(s) : 6 channelsChannel positions : Front: L C R, Side: L R, LFESampling rate : 48.0 KHzBit depth : 24 bitsCompression mode : LossyDelay relative to video : 22msStream size : 1.62 GiB (4%)Title : DTS, 6ch @ 1536 kbps - MVO КиноманияLanguage : Russian

Audio #2ID : 3Format : DTSFormat/Info : Digital Theater SystemsCodec ID : A_DTSDuration : 2h 33mnBit rate mode : ConstantBit rate : 1 510 KbpsChannel(s) : 6 channelsChannel positions : Front: L C R, Side: L R, LFESampling rate : 48.0 KHzBit depth : 24 bitsCompression mode : LossyDelay relative to video : 22msStream size : 1.62 GiB (4%)Title : DTS, 6ch @ 1536 kbps - MVO Позитив МультимедиаLanguage : Russian

Audio #3ID : 4Format : DTSFormat/Info : Digital Theater SystemsCodec ID : A_DTSDuration : 2h 33mnBit rate mode : ConstantBit rate : 1 510 KbpsChannel(s) : 6 channelsChannel positions : Front: L C R, Side: L R, LFESampling rate : 48.0 KHzBit depth : 24 bitsCompression mode : LossyDelay relative to video : 22msStream size : 1.62 GiB (4%)Title : DTS, 6ch @ 1536 kbps - MVO ОРТ Селена ИнтернешнлLanguage : Russian

Audio #4ID : 5Format : DTSFormat/Info : Digital Theater SystemsCodec ID : A_DTSDuration : 2h 33mnBit rate mode : ConstantBit rate : 1 510 KbpsChannel(s) : 6 channelsChannel positions : Front: L C R, Side: L R, LFESampling rate : 48.0 KHzBit depth : 24 bitsCompression mode : LossyDelay relative to video : 22msStream size : 1.62 GiB (4%)Title : DTS, 6ch @ 1536 kbps - MVO TV-6 МоскваLanguage : Russian

Audio #5ID : 6Format : DTSFormat/Info : Digital Theater SystemsCodec ID : A_DTSDuration : 2h 33mnBit rate mode : ConstantBit rate : 1 510 KbpsChannel(s) : 6 channelsChannel positions : Front: L C R, Side: L R, LFESampling rate : 48.0 KHzBit depth : 24 bitsCompression mode : LossyDelay relative to video : 11msStream size : 1.62 GiB (4%)Title : DTS, 6ch @ 1536 kbps - AVO Д.Пучков (Goblin)Language : Russian

Audio #6ID : 7Format : DTSFormat/Info : Digital Theater SystemsFormat profile : MA / CoreCodec ID : A_DTSDuration : 2h 33mnBit rate mode : VariableBit rate : 1 561 Kbps / 1 510 KbpsChannel(s) : 6 channelsChannel positions : Front: L C R, Side: L R, LFESampling rate : 48.0 KHzBit depth : 16 bitsCompression mode : Lossless / LossyTitle : DTS-HD MA 5.1 @ ~2115 kbps - AVO А.ГавриловLanguage : Russian

Audio #7ID : 8Format : DTSFormat/Info : Digital Theater SystemsFormat profile : MA / CoreCodec ID : A_DTSDuration : 2h 33mnBit rate mode : VariableBit rate : 1 561 Kbps / 1 510 KbpsChannel(s) : 6 channelsChannel positions : Front: L C R, Side: L R, LFESampling rate : 48.0 KHzBit depth : 16 bitsCompression mode : Lossless / LossyTitle : DTS-HD MA 5.1 @ ~2117 kbps - AVO Ю.ЖивовLanguage : Russian

Audio #8ID : 9Format : DTSFormat/Info : Digital Theater SystemsFormat profile : MA / CoreCodec ID : A_DTSDuration : 2h 33mnBit rate mode : VariableBit rate : 1 561 Kbps / 1 510 KbpsChannel(s) : 6 channelsChannel positions : Front: L C R, Side: L R, LFESampling rate : 48.0 KHzBit depth : 16 bitsCompression mode : Lossless / LossyTitle : DTS-HD MA 5.1 @ ~2114 kbps - AVO В.ГорчаковLanguage : Russian

Audio #9ID : 10Format : DTSFormat/Info : Digital Theater SystemsFormat profile : MA / CoreCodec ID : A_DTSDuration : 2h 33mnBit rate mode : VariableBit rate : 1 576 Kbps / 1 510 KbpsChannel(s) : 6 channelsChannel positions : Front: L C R, Side: L R, LFESampling rate : 48.0 KHzBit depth : 16 bitsCompression mode : Lossless / LossyTitle : DTS-HD MA 5.1 @ ~2110 kbps - ОригиналLanguage : English

Audio #10ID : 11Format : AC-3Format/Info : Audio Coding 3Mode extension : CM (complete main)Codec ID : A_AC3Duration : 2h 33mnBit rate mode : ConstantBit rate : 448 KbpsChannel(s) : 6 channelsChannel positions : Front: L C R, Side: L R, LFESampling rate : 48.0 KHzBit depth : 16 bitsCompression mode : LossyStream size : 492 MiB (1%)Title : AC3, 6ch @ 448 kbps - MVO CP DigitalLanguage : Russian

Audio #11ID : 12Format : AC-3Format/Info : Audio Coding 3Mode extension : CM (complete main)Codec ID : A_AC3Duration : 2h 33mnBit rate mode : ConstantBit rate : 320 KbpsChannel(s) : 2 channelsChannel positions : Front: L RSampling rate : 48.0 KHzBit depth : 16 bitsCompression mode : LossyStream size : 351 MiB (1%)Title : AC3, 2ch @ 320 kbps - MVO 1+1Language : Ukrainian

Audio #12ID : 13Format : AC-3Format/Info : Audio Coding 3Mode extension : CM (complete main)Codec ID : A_AC3Duration : 2h 33mnBit rate mode : ConstantBit rate : 320 KbpsChannel(s) : 2 channelsChannel positions : Front: L RSampling rate : 48.0 KHzBit depth : 16 bitsCompression mode : LossyStream size : 351 MiB (1%)Title : AC3, 2ch @ 320 kbps - DVO 1+1Language : Ukrainian

Audio #13ID : 14Format : AC-3Format/Info : Audio Coding 3Format profile : Dolby DigitalMode extension : CM (complete main)Codec ID : A_AC3Duration : 2h 33mnBit rate mode : ConstantBit rate : 224 KbpsChannel(s) : 2 channelsChannel positions : Front: L RSampling rate : 48.0 KHzBit depth : 16 bitsCompression mode : LossyStream size : 246 MiB (1%)Title : AC3, 2ch @ 224 kbps - Комментарии №1Language : English

Audio #14ID : 15Format : AC-3Format/Info : Audio Coding 3Mode extension : CM (complete main)Codec ID : A_AC3Duration : 2h 33mnBit rate mode : ConstantBit rate : 224 KbpsChannel(s) : 2 channelsChannel positions : Front: L RSampling rate : 48.0 KHzBit depth : 16 bitsCompression mode : LossyStream size : 246 MiB (1%)Title : AC3, 2ch @ 224 kbps - Комментарии №2Language : English

Text #1ID : 16Format : UTF-8Codec ID : S_TEXT/UTF8Codec ID/Info : UTF-8 Plain TextTitle : Позитив МультимедиаLanguage : Russian

Text #2ID : 17Format : UTF-8Codec ID : S_TEXT/UTF8Codec ID/Info : UTF-8 Plain TextTitle : Д.Пучков (Goblin)Language : Russian

Text #3ID : 18Format : UTF-8Codec ID : S_TEXT/UTF8Codec ID/Info : UTF-8 Plain TextLanguage : English

Text #4ID : 19Format : UTF-8Codec ID : S_TEXT/UTF8Codec ID/Info : UTF-8 Plain TextTitle : SDHLanguage : English

Text #5ID : 20Format : UTF-8Codec ID : S_TEXT/UTF8Codec ID/Info : UTF-8 Plain TextTitle : Комментарии №1Language : English

Menu00:00:00.000 : :00:00:00.00000:05:35.210 : :00:05:35.21000:16:31.407 : :00:16:31.40700:31:19.878 : :00:31:19.87800:38:52.664 : :00:38:52.66400:49:48.110 : :00:49:48.11001:06:24.314 : :01:06:24.31401:28:59.751 : :01:28:59.75101:35:16.753 : :01:35:16.75301:44:23.799 : :01:44:23.79901:59:43.593 : :01:59:43.59302:08:43.716 : :02:08:43.716

Терминатор 3: Восстание машин / Terminator 3: Rise of the Machines

Год выпуска: 2003Страна: США, Германия, ВеликобританияЖанр: Боевик, ФантастикаПродолжительность: 01:49:06Перевод: ДубляжТип релиза: ПираткаСубтитры: Есть

Режиссер: Джонатан МостоуПродюссер: Марио Кассар, Хэл Либерман, Джоэль Б. МайклсСценарий: Джон Д. Бранкато, Майкл Феррис, Джеймс Кэмерон

Бюджет: $200 000 000Премьера в мире: 30 июня 2003

В ролях: Арнольд Шварценеггер, Ник Стал, Клер Дэйнс, Кристанна Локен, Дэвид Эндрюс, Эрл Боэн, Марк Фамиглетти, Мойра Харрис, Чоппер Бернет, Кристофер Лоуфорд

Описание: Прошло десять лет с тех пор, как Джон Коннор помог предотвратить Судный День и спасти человечество от массового уничтожения. Теперь ему 25, Коннор не живет «как все» — у него нет дома, нет кредитных карт, нет сотового телефона и никакой работы. Его существование нигде не зарегистрировано. Он не может быть прослежен системой Skynet — высокоразвитой сетью машин, которые когда-то попробовали убить его и развязать войну против человечества. Пока из теней будущего не появляется T-X — Терминатрикс, самый сложный киборг-убийца Skynet. Посланная назад сквозь время, чтобы завершить работу, начатую её предшественником, T-1000, эта машина так же упорна, как прекрасен её человеческий облик. Теперь единственная надежда Коннору выжить — Терминатор, его таинственный прежний убийца. Вместе они должны одержать победу над новыми технологиями T-X и снова предотвратить Судный День…

Качество: BD-Remux 1080pФормат: MKVВидео кодек: AVCАудио кодек: DTS, AC3Видео: 1920x1080 at 23.976 fps, MPEG-4 AVC, ~28.6 Mbps avgАудио#1: Russian: 48 kHz, AC3, 3/2 (L,C,R,l,r) + LFE ch, ~448.00 kbps avg |Дубляж, Blu-ray CEE|Аудио#2: Russian: 48 kHz/16-bit, DTS-HD MA 5.1, ~2442.00 kbps avg (DTS Core: 5.1 / 48 kHz / 1509 kbps / 16-bit) |Многоголосый закадровый, Карусель|Аудио#3: Russian: 48 kHz/16-bit, DTS-HD MA 5.1, ~2439.00 kbps avg (DTS Core: 5.1 / 48 kHz / 1509 kbps / 16-bit) |Одноголосый закадровый, А.Гаврилов|Аудио#4: English: 48 kHz/16-bit, DTS-HD MA 5.1, ~2434.00 kbps avg (DTS Core: 5.1 / 48 kHz / 1509 kbps / 16-bit)Аудио#5: Russian: 48 kHz, AC3, 3/2 (L,C,R,l,r) + LFE ch, ~384.00 kbps avg |Многоголосый закадровый|Аудио#6: Russian: 48 kHz, AC3, 3/2 (L,C,R,l,r) + LFE ch, ~384.00 kbps avg |Одноголосый закадровый, М.Чадов|Аудио#7: Russian: 48 kHz, AC3, 3/2 (L,C,R,l,r) + LFE ch, ~448.00 kbps avg |Одноголосый закадровый, Держиморда|Аудио#8: Russian: 48 kHz, AC3, 3/2 (L,C,R,l,r) + LFE ch, ~448.00 kbps avg |Одноголосый закадровый, Держиморда, наличие оригинального саундтрека|Аудио#9: Ukrainian: 48 kHz, AC3, 2/0 (L,R) ch, ~320.00 kbps avg |Многоголосый закадровый, ТРК Украина|Аудио#10: English: 48 kHz, AC3, 2/0 (L,R) ch, ~192.00 kbps avg |Commentary by Jonathan Mostow, Arnold Schwarzenegger, Nick Stahl, Claire Danes and Kristanna Loken|Аудио#11: English: 48 kHz, AC3, 2/0 (L,R) ch, ~192.00 kbps avg |Commentary by Director Jonathan Mostow|

GeneralComplete name : E:Blu-rayTerminatorTerminator.3.Rise.of.the.Machines.2003.BDRemux.1080p.AVC.7xRus.Ukr.Eng.mkvFormat : MatroskaFile size : 28.0 GiBDuration : 1h 49mnOverall bit rate : 36.8 MbpsEncoded date : UTC 2011-05-04 17:04:26Writing application : mkvmerge v4.7.0 ('Just Like You Imagined') сборка от Apr 21 2011 01:13:14Writing library : libebml v1.2.0 + libmatroska v1.1.0

VideoID : 1Format : AVCFormat/Info : Advanced Video CodecFormat profile : [email protected] settings, CABAC : YesFormat settings, ReFrames : 4 framesCodec ID : V_MPEG4/ISO/AVCDuration : 1h 49mnBit rate mode : VariableBit rate : 28.6 MbpsMaximum bit rate : 28.5 MbpsWidth : 1 920 pixelsHeight : 1 080 pixelsDisplay aspect ratio : 16:9Frame rate : 23.976 fpsColor space : YUVChroma subsampling : 4:2:0Bit depth : 8 bitsScan type : ProgressiveBits/(Pixel*Frame) : 0.575Stream size : 21.8 GiB (78%)Title : Terminator 3: Rise of the MachinesLanguage : EnglishColor primaries : BT.709-5, BT.1361, IEC 61966-2-4, SMPTE RP177Transfer characteristics : BT.709-5, BT.1361Matrix coefficients : BT.709-5, BT.1361, IEC 61966-2-4 709, SMPTE RP177

Audio #1ID : 2Format : AC-3Format/Info : Audio Coding 3Mode extension : CM (complete main)Codec ID : A_AC3Duration : 1h 49mnBit rate mode : ConstantBit rate : 448 KbpsChannel(s) : 6 channelsChannel positions : Front: L C R, Side: L R, LFESampling rate : 48.0 KHzBit depth : 16 bitsCompression mode : LossyStream size : 350 MiB (1%)Title : AC3, 6ch @ 448 kbps - Дубляж (Blu-ray CEE)Language : Russian

Audio #2ID : 3Format : DTSFormat/Info : Digital Theater SystemsFormat profile : MA / CoreCodec ID : A_DTSDuration : 1h 49mnBit rate mode : VariableBit rate : 1 561 Kbps / 1 510 KbpsChannel(s) : 6 channelsChannel positions : Front: L C R, Side: L R, LFESampling rate : 48.0 KHzBit depth : 16 bitsCompression mode : Lossless / LossyTitle : DTS-HD MA 5.1 @ ~2442 kbps - MVO КарусельLanguage : Russian

Audio #3ID : 4Format : DTSFormat/Info : Digital Theater SystemsFormat profile : MA / CoreCodec ID : A_DTSDuration : 1h 49mnBit rate mode : VariableBit rate : 1 561 Kbps / 1 510 KbpsChannel(s) : 6 channelsChannel positions : Front: L C R, Side: L R, LFESampling rate : 48.0 KHzBit depth : 16 bitsCompression mode : Lossless / LossyTitle : DTS-HD MA 5.1 @ ~2439 kbps - AVO А.ГавриловLanguage : Russian

Audio #4ID : 5Format : DTSFormat/Info : Digital Theater SystemsFormat profile : MA / CoreCodec ID : A_DTSDuration : 1h 49mnBit rate mode : VariableBit rate : 1 561 Kbps / 1 510 KbpsChannel(s) : 6 channelsChannel positions : Front: L C R, Side: L R, LFESampling rate : 48.0 KHzBit depth : 16 bitsCompression mode : Lossless / LossyTitle : DTS-HD MA 5.1 @ ~2434 kbps - ОригиналLanguage : English

Audio #5ID : 6Format : AC-3Format/Info : Audio Coding 3Mode extension : CM (complete main)Codec ID : A_AC3Duration : 1h 49mnBit rate mode : ConstantBit rate : 384 KbpsChannel(s) : 6 channelsChannel positions : Front: L C R, Side: L R, LFESampling rate : 48.0 KHzBit depth : 16 bitsCompression mode : LossyStream size : 300 MiB (1%)Title : AC3, 6ch @ 384 kbps - MVOLanguage : Russian

Audio #6ID : 7Format : AC-3Format/Info : Audio Coding 3Mode extension : CM (complete main)Codec ID : A_AC3Duration : 1h 49mnBit rate mode : ConstantBit rate : 384 KbpsChannel(s) : 6 channelsChannel positions : Front: L C R, Side: L R, LFESampling rate : 48.0 KHzBit depth : 16 bitsCompression mode : LossyStream size : 300 MiB (1%)Title : AC3, 6ch @ 384 kbps - AVO М.ЧадовLanguage : Russian

Audio #7ID : 8Format : AC-3Format/Info : Audio Coding 3Mode extension : CM (complete main)Codec ID : A_AC3Duration : 1h 49mnBit rate mode : ConstantBit rate : 448 KbpsChannel(s) : 6 channelsChannel positions : Front: L C R, Side: L R, LFESampling rate : 48.0 KHzBit depth : 16 bitsCompression mode : LossyStream size : 350 MiB (1%)Title : AC3, 6ch @ 448 kbps - AVO Держиморда (Hobbit)Language : Russian

Audio #8ID : 9Format : AC-3Format/Info : Audio Coding 3Mode extension : CM (complete main)Codec ID : A_AC3Duration : 1h 49mnBit rate mode : ConstantBit rate : 448 KbpsChannel(s) : 6 channelsChannel positions : Front: L C R, Side: L R, LFESampling rate : 48.0 KHzBit depth : 16 bitsCompression mode : LossyStream size : 350 MiB (1%)Title : AC3, 6ch @ 448 kbps - AVO Держиморда (Hobbit) [оригинальный саундтрек]Language : Russian

Audio #9ID : 10Format : AC-3Format/Info : Audio Coding 3Mode extension : CM (complete main)Codec ID : A_AC3Duration : 1h 49mnBit rate mode : ConstantBit rate : 320 KbpsChannel(s) : 2 channelsChannel positions : Front: L RSampling rate : 48.0 KHzBit depth : 16 bitsCompression mode : LossyStream size : 250 MiB (1%)Title : AC3, 2ch @ 320 kbps - MVO ТРК УкраинаLanguage : Ukrainian

Audio #10ID : 11Format : AC-3Format/Info : Audio Coding 3Format profile : Dolby DigitalMode extension : CM (complete main)Codec ID : A_AC3Duration : 1h 49mnBit rate mode : ConstantBit rate : 192 KbpsChannel(s) : 2 channelsChannel positions : Front: L RSampling rate : 48.0 KHzBit depth : 16 bitsCompression mode : LossyStream size : 150 MiB (1%)Title : AC3, 2ch @ 192 kbps - Комментарии №1Language : English

Audio #11ID : 12Format : AC-3Format/Info : Audio Coding 3Format profile : Dolby DigitalMode extension : CM (complete main)Codec ID : A_AC3Duration : 1h 49mnBit rate mode : ConstantBit rate : 192 KbpsChannel(s) : 2 channelsChannel positions : Front: L RSampling rate : 48.0 KHzBit depth : 16 bitsCompression mode : LossyStream size : 150 MiB (1%)Title : AC3, 2ch @ 192 kbps - Комментарии №2Language : English

Text #1ID : 13Format : UTF-8Codec ID : S_TEXT/UTF8Codec ID/Info : UTF-8 Plain TextTitle : ФорсированныеLanguage : Russian

Text #2ID : 14Format : UTF-8Codec ID : S_TEXT/UTF8Codec ID/Info : UTF-8 Plain TextTitle : ПолныеLanguage : Russian

Text #3ID : 15Format : UTF-8Codec ID : S_TEXT/UTF8Codec ID/Info : UTF-8 Plain TextLanguage : English

Text #4ID : 16Format : UTF-8Codec ID : S_TEXT/UTF8Codec ID/Info : UTF-8 Plain TextTitle : Комментарии №1Language : English

Text #5ID : 17Format : UTF-8Codec ID : S_TEXT/UTF8Codec ID/Info : UTF-8 Plain TextTitle : Комментарии №2Language : English

Menu00:00:00.000 : :00:00:00.00000:00:52.552 : :00:00:52.55200:02:09.671 : :00:02:09.67100:02:54.341 : :00:02:54.34100:03:50.730 : :00:03:50.73000:05:09.809 : :00:05:09.80900:06:21.214 : :00:06:21.21400:07:28.823 : :00:07:28.82300:08:30.135 : :00:08:30.13500:09:22.437 : :00:09:22.43700:11:30.940 : :00:11:30.94000:15:05.488 : :00:15:05.48800:16:23.858 : :00:16:23.85800:18:06.294 : :00:18:06.29400:18:55.968 : :00:18:55.96800:20:26.308 : :00:20:26.30800:22:28.514 : :00:22:28.51400:23:59.605 : :00:23:59.60500:24:59.164 : :00:24:59.16400:26:25.042 : :00:26:25.04200:27:19.137 : :00:27:19.13700:29:11.249 : :00:29:11.24900:29:54.376 : :00:29:54.37600:32:14.266 : :00:32:14.26600:34:24.646 : :00:34:24.64600:35:13.111 : :00:35:13.11100:36:04.245 : :00:36:04.24500:38:19.506 : :00:38:19.50600:40:30.511 : :00:40:30.51100:42:29.255 : :00:42:29.25500:45:51.082 : :00:45:51.08200:48:47.007 : :00:48:47.00700:51:03.686 : :00:51:03.68600:52:21.638 : :00:52:21.63800:55:05.802 : :00:55:05.80200:56:33.348 : :00:56:33.34800:58:11.822 : :00:58:11.82200:59:40.035 : :00:59:40.03501:00:11.775 : :01:00:11.77501:02:22.447 : :01:02:22.44701:03:47.657 : :01:03:47.65701:06:02.125 : :01:06:02.12501:07:45.520 : :01:07:45.52001:09:04.349 : :01:09:04.34901:12:16.624 : :01:12:16.62401:14:27.421 : :01:14:27.42101:15:43.456 : :01:15:43.45601:19:07.534 : :01:19:07.53401:20:18.981 : :01:20:18.98101:21:27.216 : :01:21:27.21601:22:41.206 : :01:22:41.20601:23:57.199 : :01:23:57.19901:25:03.265 : :01:25:03.26501:25:46.391 : :01:25:46.39101:26:30.560 : :01:26:30.56001:27:29.035 : :01:27:29.03501:29:07.050 : :01:29:07.05001:31:58.388 : :01:31:58.38801:33:37.070 : :01:33:37.07001:34:32.333 : :01:34:32.33301:35:54.040 : :01:35:54.04001:37:31.304 : :01:37:31.30401:39:22.915 : :01:39:22.91501:41:00.096 : :01:41:00.096

[img=right]http://pb.wtf/goo.php?url=http://pb.wtf/goo.php?url=http://imageban.ru/out/2009/11/03/a64bdb7daa65e373ef0a0c45ad8ce374.jpg[/img]

Терминатор: Да придёт спаситель / Terminator Salvation

Год выпуска: 2009Страна: США, Германия, Великобритания, ИталияЖанр: Боевик, ФантастикаПродолжительность: 01:57:31Перевод: ДубляжТип релиза: ПираткаСубтитры: Есть

Режиссер: МакДжиПродюссер: Дерек Андерсон, Мориц Борман, Виктор КубичекСценарий: Джон Д. Бранкато, Майкл Феррис

Бюджет: $200 000 000Премьера в мире: 14 мая 2009

В ролях: Кристиан Бэйл, Сэм Уортингтон, Мун Бладгуд, Хелена Бонем Картер, Антон Ельчин, Брайс Даллас Ховард, Джейн Александр, Майкл Айронсайд, Джадагрейс, Коммон

Описание: 2018 год от рождества Христова. Джон Коннор — человек, чья судьба — возглавить Сопротивление электронному мозгу Скайнет и армии Терминаторов. Но в будущее, с верой в которое он возвращен, вклинивается таинственный Маркус Райт: незнакомец, чьи последние воспоминания рисуют камеру смертников.

Коннор должен понять, кто такой Маркус — посланник будущего или спасшийся из прошлого. И на фоне подготовки Скайнетом решающего удара, Коннор и Райт отправляются в путешествие, приводящее их в самую сердцевину взбунтовавшейся операционной системы, где открывается ужасная тайна, кроющаяся за потенциальным уничтожением человечества.

Качество: BD-Remux 1080pФормат: MKVВидео кодек: VC-1Аудио кодек: AC 3,DTSВидео: 1920x1080 (2.40:1), 25604 kbps, 23.976 fpsАудио#1: AC3 5.1, 48 kHz, 640 kbps /Русский, Дубляж/Аудио#2: AC3 5.1, 48 kHz, 640 kbps /Русский, Одноголосный (Ю. Сербин)/Аудио#3: AC3 5.1, 48 kHz, 448 kbps /Русский, Одноголосный (В. Горчаков)/Аудио#4: DTS-HD MA, 48 kHz, 24 bit, 4148 kbps (Core: DTS 5.1, 48 kHz, 24 bit, 1536 kbps) /Английский/

ОбщееПолное имя : F:КиноTerminator (Quadrology)Terminator-4.Salvation (2009).mkvФормат : MatroskaВерсия формата : Version 2Размер файла : 25,8 ГбайтПродолжительность : 1 ч. 57 м.Режим общего битрейта : ПеременныйОбщий поток : 31,5 Мбит/секНазвание фильма : Terminator SalvationДата кодирования : UTC 2009-12-29 14:37:11Программа кодирования : mkvmerge v3.0.0 ('Hang up your Hang-Ups') built on Dec 12 2009 15:20:35Библиотека кодирования : libebml v0.7.9 + libmatroska v0.8.1

ВидеоИдентификатор : 1Формат : VC-1Профиль формата : [email protected]Идентификатор кодека : V_MS/VFW/FOURCC / WVC1Идентификатор кодека/Подсказка : MicrosoftПродолжительность : 1 ч. 57 м.Ширина : 1920 пикселейВысота : 1080 пикселейСоотношение сторон : 16:9Режим частоты кадров : ПостоянныйЧастота кадров : 23,976 кадра/секСубдискретизация насыщенности : 4:2:0Битовая глубина : 8 битТип развёртки : ПрогрессивнаяМетод сжатия : С потерямиЗаголовок : VC-1 25604 kbpsЯзык : EnglishDefault : ДаForced : Нет

Аудио #1Идентификатор : 2Формат : AC-3Формат/Информация : Audio Coding 3Расширение режима : CM (complete main)Параметр Endianness формата : BigИдентификатор кодека : A_AC3Продолжительность : 1 ч. 57 м.Вид битрейта : ПостоянныйБитрейт : 640 Кбит/секКаналы : 6 каналовРасположение каналов : Front: L C R, Side: L R, LFEЧастота : 48,0 КГцБитовая глубина : 16 битМетод сжатия : С потерямиРазмер потока : 538 Мбайт (2%)Заголовок : AC3 5.1 640 kbps (Дубляж)Язык : RussianDefault : ДаForced : Нет

Аудио #2Идентификатор : 3Формат : AC-3Формат/Информация : Audio Coding 3Расширение режима : CM (complete main)Параметр Endianness формата : BigИдентификатор кодека : A_AC3Продолжительность : 1 ч. 57 м.Вид битрейта : ПостоянныйБитрейт : 640 Кбит/секКаналы : 6 каналовРасположение каналов : Front: L C R, Side: L R, LFEЧастота : 48,0 КГцБитовая глубина : 16 битМетод сжатия : С потерямиРазмер потока : 538 Мбайт (2%)Заголовок : AC3 5.1 640 kbps (Сербин)Язык : RussianDefault : НетForced : Нет

Аудио #3Идентификатор : 4Формат : AC-3Формат/Информация : Audio Coding 3Расширение режима : CM (complete main)Параметр Endianness формата : BigИдентификатор кодека : A_AC3Продолжительность : 1 ч. 57 м.Вид битрейта : ПостоянныйБитрейт : 448 Кбит/секКаналы : 6 каналовРасположение каналов : Front: L C R, Side: L R, LFEЧастота : 48,0 КГцБитовая глубина : 16 битМетод сжатия : С потерямиРазмер потока : 377 Мбайт (1%)Заголовок : AC3 5.1 448 kbps (Горчаков)Язык : RussianDefault : НетForced : Нет

Аудио #4Идентификатор : 5Формат : DTSФормат/Информация : Digital Theater SystemsПрофиль формата : MA / CoreРежим : 16Параметр Endianness формата : BigИдентификатор кодека : A_DTSПродолжительность : 1 ч. 57 м.Вид битрейта : ПеременныйБитрейт : Неизвестно / 1509 Кбит/секКаналы : 6 каналовРасположение каналов : Front: L C R, Side: L R, LFEЧастота : 48,0 КГцБитовая глубина : 24 битМетод сжатия : Без потерь / LossyЗаголовок : DTS-HD MA 5.1 4148 kbpsЯзык : EnglishDefault : НетForced : Нет

Текст #1Идентификатор : 6Формат : UTF-8Идентификатор кодека : S_TEXT/UTF8Идентификатор кодека/Информация : UTF-8 Plain TextЗаголовок : ФорсированныеЯзык : RussianDefault : ДаForced : Да

Текст #2Идентификатор : 7Формат : UTF-8Идентификатор кодека : S_TEXT/UTF8Идентификатор кодека/Информация : UTF-8 Plain TextЗаголовок : ПолныеЯзык : RussianDefault : НетForced : Нет

Текст #3Идентификатор : 8Формат : UTF-8Идентификатор кодека : S_TEXT/UTF8Идентификатор кодека/Информация : UTF-8 Plain TextЗаголовок : SDHЯзык : English

Скачать Терминатор через торрент http://fotoforall.ru/uploads/posts/2012-01/1327929077_1f2ce40695015.jpeg Скачать фильм Терминатор через торрент бесплантно в хорошем качестве Описание: После ужасной атомной войны, власть на Земле захватили роботы-убийцы. Они несут смерть и полное уничтожение всему живому. Остатки ... 2013-04-16 13:25 10 10 17

Loading...

Loading...

Рекламный пират

16-04-2013 15:59 Терминатор Скачать торрент  

Опять недели 3 будет раздавать!!!

16-04-2013 17:02 Терминатор Скачать торрент  

Вау!!! Будет свободное место лбязательно качну!!!

17-04-2013 04:09 Терминатор Скачать торрент  

ЗАЧЕМ ВЫСТАВИЛСЯ????????????????????ДАЖЕ НЕ КОЛЫШЕТСЯ!!!!!!!

19-07-2013 17:04 Терминатор Скачать торрент  

Дубляжа для 2 части не предвидится?

Дорогой пользователь! Огромная просьба, поблагодарите релизера, оцените раздачу и оставьте свои комментарий, если Вы скачали Терминатор через торрент бесплатно! Внесите свою лепту в развитие PiratBit!

Комментировать посты могут только пользователи прошедшие не сложную регистрацию

Терминатор через торрент Скачать бесплатно Терминатор Терминатор скачать торрент Терминатор смотреть онлайн Cкачать фильм Терминатор бесплатно Терминатор скачать торрент в хорошем качестве Терминатор смотреть онлайн бесплатно в хорошем качестве

Вы не можете начинать темыВы не можете отвечать на сообщенияВы не можете редактировать свои сообщенияВы не можете удалять свои сообщенияВы не можете голосовать в опросахВы не можете прикреплять файлы к сообщениямВы можете скачивать файлы

Терминатор 3: Восстание машин 2003

www.kinovit.net

Название: Терминатор 3: Восстание машин / Terminator 3: Rise of the Machines (2003) BDRip-HEVC 1080p от ХиМиК | D
Качество видео: BDRip-HEVC 1080p
Перевод: Дублированный
Видео: HEVC x265 1920x792 (2,40:1), 5174 Кбит/сек, 0.142 бит/(Пиксели*Кадры), 23,976 кадр/сек (24000/1001), HEVC ([email protected]@High) 8 bit
Аудио: Русский, AAC, 445 Кбит/сек, 48,0 КГц, Front: L C R, Side: L R, LFE
Скачать

Загрузка начнется в течение 5 сек.

4.28 GB

Название: Терминатор 3: Восстание машин / Terminator 3: Rise of the Machines (2003) DVD9+DVD5 | Коллекционное издание
Качество видео: DVD9+DVD5
Перевод: полное дублирование
Видео: MPEG2 PAL 16:9 ([email protected]) VBR 5582 Kbps, 25.000 fps
Аудио: DTS 6 ch, 48.0 KHz, 768 Kbps [английский]Dolby AC3, 6 ch, 48.0 KHz, 384 Kbps [английский]Dolby AC3, 6 ch, 48.0 KHz, 384 Kbps [русский]Dolby AC3, 2 ch, 48.0 KHz, 192 Kbps [комментарии режиссера]Dolby AC3, 2 ch, 48.0 KHz, 192 Kbps [комментарии режиссера и актеров]
Скачать

Загрузка начнется в течение 5 сек.

10.84 GB

Название: Терминатор 3: Восстание машин / Terminator 3: Rise of the Machines (2003) BDRip-AVC | D, P, A
Качество видео: BDRip-AVC
Перевод: Дублированный + 2х многоголосный + авторский + оригинал
Видео: h.264 MPEG-4, 1152x474, 23.976 fps ~4450 kbps
Аудио: 1) HE-AAC 6 ch, 24|48 kHz ~256 kbps - Дубляж
Скачать

Загрузка начнется в течение 5 сек.

4.36 GB

Название: Терминатор 3: Восстание машин / Terminator 3: Rise of the machines (2003) DVD9 | Full Screen Edition
Качество видео: DVD9
Перевод: Профессиональный (дублированный) + Авторский (одноголосый закадровый) - Гаврилов + Оригинал
Видео: MPEG2 NTSC 4:3 (720x480) VBR
Аудио: Аудио: Russian (Dolby AC3, 6 ch, 448kbps) - дубляж
Скачать

Загрузка начнется в течение 5 сек.

6.69 GB

Название: Терминатор 3: Восстание машин / Terminator 3: Rise of the Machines (2003) BDRip 1080p
Качество видео: BDRip 1080p (источник: Blu-ray Remux / 1080p)
Перевод: Дублированный |Blu-ray CEE| + Профессиональный (многоголосый, закадровый) Карусель + Авторский (одноголосый, закадровый) Андрей Гаврилов + Оригинал
Видео: x264 1920х792 (2.40:1), 12733 Kbps, 23.976 fps, 0.349 bit/pixel
Аудио: 48.0 kHz, AC3 Dolby Digital, 3/2 (L,C,R,l,r) + LFE ch, 448 kbps [Дубляж, Blu-ray CEE]48.0 kHz, AC3 Dolby Digital, 3/2 (L,C,R,l,r) + LFE ch, 640 kbps [Многоголосый, Карусель]48.0 kHz, AC3 Dolby Digital, 3/2 (L,C,R,l,r) + LFE ch, 640 kbps [Авторский, А. Гаврилов]48.0 kHz, AC3 Dolby Digital, 3/2 (L,C,R,l,r) + LFE ch, 640 kbps [Английский]48.0 kHz, AC3 Dolby Digital, 3/2 (L,C,R,l,r) + LFE ch, 448 kbps [Многоголосый] Отдельно на disk.yandex.ru48.0 kHz, AC3 Dolby Digital, 3/2 (L,C,R,l,r) + LFE ch, 448 kbps [Авторский, М. Чадов] Отдельно на disk.yandex.ru48.0 kHz, AC3 Dolby Digital, 3/2 (L,C,R,l,r) + LFE ch, 448 kbps [Авторский, Ю. Медведев] Отдельно на disk.yandex.ru48.0 kHz, AC3 Dolby Digital, 3/2 (L,C,R,l,r) + LFE ch, 384 kbps [Украинский, двухголосый] Отдельно на disk.yandex.ru
Скачать

Загрузка начнется в течение 5 сек.

11.51 GB

Название: Терминатор 3: Восстание машин / Terminator 3: Rise of the Machines (2003) BDRip 1080p от Youtracker
Качество видео: BDRip 1080p | Sample
Перевод: Профессиональный (полное дублирование) + Оригинальный (английский)
Видео: AVC, 1916x790 (2.40:1), 12000 kbps, 23,976 fps, 0,331 bpp
Аудио: AC3 / 5.1 / 48 kHz / 448 kbps / 16 bitAC3 / 5.1 / 48 kHz / 640 kbps / 16 bit
Скачать

Загрузка начнется в течение 5 сек.

9.98 GB

Название: Терминатор 3: Восстание машин / Terminator 3: Rise of the Machines (2003) BD-Remux
Качество видео: BD-Remux
Перевод: Дубляж + Авторский (Чадов) + Авторский (Ю.Медведев) + Многоголосый (Карусель) + Авторский (Гаврилов) + Оригинал
Видео: MPEG-4 AVC 1920 x 1080, 23.976 fps, 27 700 kbps
Аудио: Аудио №1: AC3 , 5.1 , 48Khz , 448 kbps |Дубляж|
Скачать

Загрузка начнется в течение 5 сек.

25.99 GB

Название: Терминатор 3: Восстание машин / Terminator 3: Rise of the Machines (2003) HDRip от Scarabey
Качество видео: HDRip
Перевод: Профессиональный (дублированный)
Видео: 720x304 (2.37:1), 23.976 fps, XviD build 50 ~1448 kbps avg, 0.28 bit/pixel
Аудио: 48 kHz, AC3 Dolby Digital, 3/2 (L,C,R,l,r) + LFE ch, ~448 kbps
Скачать

Загрузка начнется в течение 5 сек.

1.45 GB

Название: Терминатор 3: Восстание машин / Terminator 3: Rise of the Machines (2003) HDRip от Scarabey
Качество видео: HDRip
Перевод: Профессиональный (дублированный)
Видео: 640x272 (2.35:1), 23.976 fps, XviD build 50 ~816 kbps avg, 0.20 bit/pixel
Аудио: 48 kHz, MPEG Layer 3, 2 ch, ~128.00 kbps avg
Скачать

Загрузка начнется в течение 5 сек.

744.37 MB

Название: Терминатор 3: Восстание машин / Terminator 3: Rise of the Machines (2003) HDRip
Качество видео: HDRip - рип с BDRip 720p
Перевод: Профессиональный (полное дублирование)
Видео: XviD 720x304 (2.37:1), 23.976 fps, XviD build 47, 843 kbps avg, 0.16 bit/pixel
Аудио: 48 kHz, MPEG Layer 3, 2 ch, 112.00 kbps avg
Скачать

Загрузка начнется в течение 5 сек.

750.30 MB

Название: Терминатор 3: Восстание машин / Terminator 3: Rise of the Machines (2003) HDTVRip
Качество видео: HDTVRip
Перевод: Профессиональный (дублированный)
Видео: XviD 624x352 (1.77:1), 23.976 fps, XviD build 47 ~888 kbps avg, 0.17 bit/pixel
Аудио: 48 kHz, MPEG Layer 3, 2 ch, ~128.00 kbps avg
Скачать

Загрузка начнется в течение 5 сек.

743.39 MB

Название: Терминатор 3: Восстание машин / Terminator 3: Rise of the Machines (2003) BDRip 1080p
Качество видео: BDRip 1080p
Перевод: Дублированный + Оригинал
Видео: x264 1920x792, 9288 Kbps, 23.976 fps
Аудио: AC-3, 6 ch, 448 kbps (Rus)AC-3, 6 ch, 448 kbps (Eng)
Скачать

Загрузка начнется в течение 5 сек.

7.76 GB


Смотрите также