Солнечный удар торрент скачать в хорошем качестве


Солнечный удар 2014 - скачать бесплатно через торрент в хорошем качестве. Без регистрации

Название: Солнечный удар (2014) WEB-DLRip от Scarabey | iTunes
Качество видео: WEB-DLRip
Видео: 720x304 (2.37:1), 24 fps, XviD build 50 ~951 kbps avg, 0.18 bit/pixel
Аудио: 48 kHz, AC3 Dolby Digital, 2/0 (L,R) ch, ~192 kbps
Скачать

Загрузка начнется в течение 5 сек.

1.45 GB

Название: Солнечный удар (2014) HDRip-AVC | Лицензия
Качество видео: HDRip-AVC
Перевод: Оригинал – Лицензия
Видео: MPEG-4 AVC (MKV) MPEG-4 AVC, 1024x424, 2047 Kbps
Аудио: AC-3, 6 ch, 512 Kbps
Скачать

Загрузка начнется в течение 5 сек.

3.16 GB

Название: Солнечный удар (2014) WEB-DL 720р
Качество видео: WEB-DL 720p
Перевод: Оригинал
Видео: MPEG-4 AVC MPEG-4 AVC, 3889 Кбит/с, 1280x536
Аудио: АС3, 6 ch, 384 Кбит/с
Скачать

Загрузка начнется в течение 5 сек.

5.49 GB

Название: Солнечный удар (2014) HDTVRip от Scarabey
Качество видео: HDTVRip
Видео: 720x304 (2.37:1), 25 fps, XviD build 50 ~1003 kbps avg, 0.18 bit/pixel
Аудио: 48 kHz, AC3 Dolby Digital, 2/0 (L,R) ch, ~192 kbps,
Скачать

Загрузка начнется в течение 5 сек.

1.45 GB

Название: Солнечный удар (2014) HDTVRip от Scarabey
Качество видео: HDTVRip
Видео: 720x304 (2.37:1), 25 fps, XviD build 50 ~1612 kbps avg, 0.29 bit/pixel
Аудио: 48 kHz, AC3 Dolby Digital, 2/0 (L,R) ch, ~192 kbps
Скачать

Загрузка начнется в течение 5 сек.

2.18 GB

Название: Солнечный удар (2014) HDTVRip 720p от MediaClub
Качество видео: HDTVRip 720p
Перевод: Не требуется
Видео: MPEG-4 AVC 1280х536 (16:9), 25 fps, AVC MPEG-4 (x264), [email protected] 3633 kbps avg, 0.201 bit/pixel
Аудио: 48 kHz, AC3, 2 ch, 192 kbps avg
Скачать

Загрузка начнется в течение 5 сек.

4.38 GB

Название: Солнечный удар (2014) HDTVRip-AVC
Качество видео: HDTVRip-AVC
Перевод: Не требуется
Видео: MPEG-4 AVC 1024х424, 25 fps, [email protected], 2113 kbps
Аудио: 48 kHz, AC3, 2 ch, 192 kbps
Скачать

Загрузка начнется в течение 5 сек.

2.83 GB

Название: Солнечный удар (2014) HDTVRip от Files-x
Качество видео: HDTVRip
Перевод: Не требуется
Видео: XviD, ~ 2000 Кбит/с, 720x304
Аудио: AC3, 2 ch, 192 Кбит/с
Скачать

Загрузка начнется в течение 5 сек.

2.65 GB

Название: Солнечный удар (2014) SATRip от bittracker
Качество видео: SATRip
Видео: XviD 720x304 (2.37:1), 25 fps, ~1006 kbps avg, 0.18 bit/pixel
Аудио: 48 kHz, AC3 Dolby Digital, 2/0 (L,R) ch, ~192 kbps
Скачать

Загрузка начнется в течение 5 сек.

1.46 GB

Название: Солнечный удар (2014) HDTV 1080i от MediaClub
Качество видео: HDTV 1080i
Перевод: Не требуется
Видео: MPEG-4 AVC 1920х1080 (16:9), 25 fps, AVC MPEG-4 (x264), [email protected] 8579 kbps avg, 0.152 bit/pixel
Аудио: 48 kHz, MP2, 2 ch, 256 kbps avg
Скачать

Загрузка начнется в течение 5 сек.

10.33 GB

Название: Солнечный удар (2014) SATRip
Качество видео: SATRip
Перевод: русский оригинал
Видео: XviD XviD, 720x304, 25 fps, ~1800Kbit/s
Аудио: AC3, 2 ch, 48.0 KHz, 192 Kbps
Скачать

Загрузка начнется в течение 5 сек.

2.42 GB

www.kinovit.net

Скачать фильм Солнечный удар (2014) через торрент

24 февраля 2016 12:16 Солнечный удар (2014) WEB-DLRip от Scarabey | iTunes .torrent   [Информация о файле (нажмите для просмотра)] Субтитры: нетКачество: WEB-DLRipКонтейнер: AVIВидео: 720x304 (2.37:1), 24 fps, XviD build 50 ~1911 kbps avg, 0.36 bit/pixelАудио: 48 kHz, AC3 Dolby Digital, 3/2 (L,C,R,l,r) + LFE ch, ~384 kbps 2,9 Gb 21 3 24 февраля 2016 12:16 Солнечный удар (2014) WEB-DLRip от Scarabey | iTunes .torrent   [Информация о файле (нажмите для просмотра)] Субтитры: нетКачество: WEB-DLRipКонтейнер: AVIВидео: 720x304 (2.37:1), 24 fps, XviD build 50 ~1343 kbps avg, 0.26 bit/pixelАудио: 48 kHz, AC3 Dolby Digital, 3/2 (L,C,R,l,r) + LFE ch, ~384 kbps 2,18 Gb 6 3 24 февраля 2016 12:16 Солнечный удар (2014) WEB-DLRip от Scarabey | iTunes .torrent   [Информация о файле (нажмите для просмотра)] Субтитры: нетКачество: WEB-DLRipКонтейнер: AVIВидео: 720x304 (2.37:1), 24 fps, XviD build 50 ~951 kbps avg, 0.18 bit/pixelАудио: 48 kHz, AC3 Dolby Digital, 2/0 (L,R) ch, ~192 kbps 1,45 Gb 35 2 24 февраля 2016 12:16 Солнечный удар (2014) WEBL-DLRip-AVC .torrent   [Информация о файле (нажмите для просмотра)] Перевод: Оригинал – ЛицензияКодек: MPEG-4 AVC (MKV)Качество: WEBL-DLRip-AVCВидео: MPEG-4 AVC, 1024x424, 2047 KbpsЗвук: AC-3, 6 ch, 512 KbpsСубтитры: нет 3,16 Gb 110 1 24 февраля 2016 12:16 Солнечный удар (2014) DVD9 от New-Team | Лицензия .torrent   [Информация о файле (нажмите для просмотра)] Перевод: Не требуетсяКодек: MPEG2Качество: DVD9Видео: PAL 16:9 (720x576) VBR ~ 5747.93 kbps avgЗвук: Русский DD 5.1 (448Kbps) 7,05 Gb 4 3 24 февраля 2016 12:16 Солнечный удар (2014) DVDRip от New-Team | лицензия .torrent   [Информация о файле (нажмите для просмотра)] Перевод: Не требуетсяКачество: DVDRip /DVD9 R5 от «CD Land»Формат: AVIВидео: 720x304 (2.37:1), 25.000 fps, XviD, ~1068 kbps avg, 0.195 bit/pixАудио: 48 kHz, Dolby МР3, 2 ch, 128 kbps,русский 1,46 Gb 90 2 24 февраля 2016 12:16 Солнечный удар (2014) DVDRip-AVC от New-Team | лицензия .torrent   [Информация о файле (нажмите для просмотра)] Перевод: Не требуетсяКачество: DVDRip-AVC /DVD9 R5 от «CD Land»Формат: MKVВидео: [email protected] (2.39:1), 25.000 fps, MPEG-4 AVC, ~1956 kbps avg, 0.254 bit/pixАудио: 48 kHz, Dolby AC3, 6 ch, 448 kbps,русский 2,91 Gb 13 6 24 февраля 2016 12:16 Солнечный удар (2014) DVDRip от New-Team | лицензия .torrent   [Информация о файле (нажмите для просмотра)] Перевод: Не требуетсяКачество: DVDRip /DVD9 R5 от «CD Land»Формат: AVIВидео: 720x304 (2.37:1), 25.000 fps, XviD, ~1353 kbps avg, 0.247 bit/pixАудио: 48 kHz, Dolby AC3, 6 ch, 448 kbps,русский 2,19 Gb 14 1 24 февраля 2016 12:16 Солнечный удар (2014) WEB-DL 720р .torrent   [Информация о файле (нажмите для просмотра)] Перевод: ОригиналКодек: MPEG-4 AVCКачество: WEB-DL 720pВидео: MPEG-4 AVC, 3889 Кбит/с, 1280x536Звук: АС3, 6 ch, 384 Кбит/сСубтитры: Отсутствуют 5,49 Gb 18 9 24 февраля 2016 12:16 Солнечный удар (2014) HDTVRip от New-Team .torrent   [Информация о файле (нажмите для просмотра)] Перевод: не требуетсяКонтейнер: AVIВидео: 720x304 (2,35:1), 25 fps, XviD ~ 1007 kbps avg, 0.184 bit/pixelАудио: 48 kHz, Dolby Digital AC3 2.0, 192 kbpsВидео: Идентификатор : 0 Формат : MPEG-4 Visual Профиль формата : Advanced [email protected] Параметр BVOP формата : 1 Параметр QPel формата : Нет Параметр GMC формата : Без точки перехода Параметр матрицы формата : Выборочная Идентификатор кодека : XVID Идентификатор кодека/Подсказка : XviD Продолжительность : 2 ч. 52 м. Битрейт : 1007 Кбит/сек Ширина : 720 пикселей Высота : 304 пикселя Соотношение сторон : 2,35:1 Частота кадров : 25,000 кадров/сек Цветовое пространство : YUV Субдискретизация насыщенности : 4:2:0 Битовая глубина : 8 бит Тип развёртки : Прогрессивная Метод сжатия : С потерями Бит/(Пиксели*Кадры) : 0.184 Размер потока : 1,21 Гбайт (83%) Библиотека кодирования : XviD 73Аудио: Идентификатор : 1 Формат : AC-3 Формат/Информация : Audio Coding 3 Расширение режима : CM (complete main) Параметр Endianness формата : Big Идентификатор кодека : 2000 Продолжительность : 2 ч. 52 м. Вид битрейта : Постоянный Битрейт : 192 Кбит/сек Каналы : 2 канала Расположение каналов : Front: L R Частота : 48,0 КГц Битовая глубина : 16 бит Метод сжатия : С потерями Размер потока : 237 Мбайт (16%) Выравнивание : Разделение по промежуткам Продолжительность промежутка : 40 мс. (1,00 видеокадр) Время предзагрузки промежутка : 500 мс 1,46 Gb 5 5 24 февраля 2016 12:16 Солнечный удар (2014) HDTVRip-AVC от New-Team .torrent   [Информация о файле (нажмите для просмотра)] Перевод: не требуетсяКонтейнер: MKVВидео: 1024x428 (2,40:1), 25 fps, h364 ~ 1620 kbps avg, 0.148 bit/pixelАудио: 48 kHz, Dolby Digital AC3 2.0, 192 kbpsВидео: Идентификатор : 1 Формат : AVC Формат/Информация : Advanced Video Codec Профиль формата : [email protected] Параметр CABAC формата : Да Параметр ReFrames формата : 8 кадров Идентификатор кодека : V_MPEG4/ISO/AVC Продолжительность : 2 ч. 52 м. Битрейт : 1620 Кбит/сек Ширина : 1024 пикселя Высота : 428 пикселей Соотношение сторон : 2,40:1 Режим частоты кадров : Постоянный Частота кадров : 25,000 кадров/сек Цветовое пространство : YUV Субдискретизация насыщенности : 4:2:0 Битовая глубина : 8 бит Тип развёртки : Прогрессивная Бит/(Пиксели*Кадры) : 0.148 Размер потока : 1,91 Гбайт (87%) Библиотека кодирования : x264 core 138 r2356 a1d3d17 Настройки программы : cabac=1 / ref=8 / deblock=1:-3:-2 / analyse=0x3:0x113 / me=umh / subme=10 / psy=1 / psy_rd=1.00:0.05 / mixed_ref=1 / me_range=32 / chroma_me=1 / trellis=2 / 8x8dct=1 / cqm=0 / deadzone=21,11 / fast_pskip=1 / chroma_qp_offset=-3 / threads=6 / lookahead_threads=1 / sliced_threads=0 / nr=0 / decimate=0 / interlaced=0 / bluray_compat=0 / constrained_intra=0 / bframes=8 / b_pyramid=2 / b_adapt=2 / b_bias=0 / direct=3 / weightb=1 / open_gop=0 / weightp=2 / keyint=250 / keyint_min=25 / scenecut=40 / intra_refresh=0 / rc_lookahead=40 / rc=2pass / mbtree=1 / bitrate=1620 / ratetol=1.0 / qcomp=0.60 / qpmin=0 / qpmax=69 / qpstep=4 / cplxblur=20.0 / qblur=0.5 / ip_ratio=1.40 / aq=1:1.00 Default : Да Forced : НетАудио: Идентификатор : 2 Формат : AC-3 Формат/Информация : Audio Coding 3 Расширение режима : CM (complete main) Параметр Endianness формата : Big Идентификатор кодека : A_AC3 Продолжительность : 2 ч. 52 м. Вид битрейта : Постоянный Битрейт : 192 Кбит/сек Каналы : 2 канала Расположение каналов : Front: L R Частота : 48,0 КГц Битовая глубина : 16 бит Метод сжатия : С потерями Размер потока : 237 Мбайт (11%) Default : Да Forced : Нет 2,18 Gb 4 1 24 февраля 2016 12:16 Солнечный удар (2014) HDTVRip 720p от MediaClub .torrent   [Информация о файле (нажмите для просмотра)] Перевод: Не требуетсяКодек: MPEG-4 AVCКачество: HDTVRip 720pВидео: 1280х536 (16:9), 25 fps, AVC MPEG-4 (x264), [email protected] 3633 kbps avg, 0.201 bit/pixelЗвук: 48 kHz, AC3, 2 ch, 192 kbps avg 4,38 Gb 36 4 24 февраля 2016 12:15 Солнечный удар (2014) HDTVRip-AVC .torrent   [Информация о файле (нажмите для просмотра)] Перевод: Не требуетсяКодек: MPEG-4 AVCКачество: HDTVRip-AVCВидео: 1024х424, 25 fps, [email protected], 2113 kbpsЗвук: 48 kHz, AC3, 2 ch, 192 kbps 2,83 Gb 23 1 24 февраля 2016 12:15 Солнечный удар (2014) HDTVRip от Files-x .torrent   [Информация о файле (нажмите для просмотра)] Перевод: Не требуетсяКачество: HDTVRipВидео: XviD, ~ 2000 Кбит/с, 720x304Аудио: AC3, 2 ch, 192 Кбит/с 2,65 Gb 304 6 24 февраля 2016 12:15 Солнечный удар (2014) HDTV 1080i от MediaClub .torrent   [Информация о файле (нажмите для просмотра)] Перевод: Не требуетсяКодек: MPEG-4 AVCКачество: HDTV 1080iВидео: 1920х1080 (16:9), 25 fps, AVC MPEG-4 (x264), [email protected] 8579 kbps avg, 0.152 bit/pixelЗвук: 48 kHz, MP2, 2 ch, 256 kbps avg 10,33 Gb 53 5

gig-torrent.net

Скачать фильм Солнечный удар через торрент в хорошем качестве бесплатно 2014

Размер: 2.42 GB | Добавлен: 2 года 11 мес. назад | Торрент скачан:1660 раз
Реклама Дарим 3000 рублей за регистрацию, не упусти свой шанс получить шикарный бонус!!!

04-11-2014 15:58 Солнечный удар Скачать торрент  

Солнечный удар «Как всё это случилось?» ✦ Год выпуска: 2014✦ Страна: Россия✦ Жанр:драма✦ Продолжительность:02:52:59✦ Перевод:Не требуется✦ Режиссер:Никита Михалков
  • В ролях: Мартиньш Калита, Виктория Соловьева, Сергей Серов (батюшка), Алёна Спивак-Бычкова (дама на корабле), Наталья Суркова, Денис Васильев (студент), Ксения Попович (Оля), Олег Граф (офицер), Вадим Головко, Андрей Попович (Петя), Сергей Анашкин (белогвардеец), Родион Толоконников
  • Описание:Всего одна ночь с незнакомкой становится для главного героя настоящим наваждением. Этот «солнечный удар» не отпускает его даже в самые «окаянные дни» гибели Российской Империи... ✦ Качество: SATRip✦ Формат:AVI✦ Видео кодек: XviD✦ Аудио кодек:AC3✦ Видео: XviD, 720x304 (2.35:1), 1799 kbps, 25 fps, 0,329 bpp✦ Аудио: AC3 / 2.0 / 48 kHz / 192 kbps / 16 bit

    Код:

    GeneralComplete name                            : D:\Торенты\Солнечный удар.SATRip.aviFormat                                   : AVIFormat/Info                              : Audio Video InterleaveFormat profile                           : OpenDMLFile size                                : 2.42 GiBDuration                                 : 2h 52mnOverall bit rate                         : 2 004 KbpsWriting application                      : VirtualDubMod 1.5.10.3 | www.virtualdub-fr.org || (build 2550/release)Writing library                          : VirtualDubMod build 2550/release

    VideoID                                       : 0Format                                   : MPEG-4 VisualFormat profile                           : Advanced [email protected] settings, BVOP                    : 2Format settings, QPel                    : NoFormat settings, GMC                     : No warppointsFormat settings, Matrix                  : Default (H.263)Codec ID                                 : XVIDCodec ID/Hint                            : XviDDuration                                 : 2h 52mnBit rate                                 : 1 800 KbpsWidth                                    : 720 pixelsHeight                                   : 304 pixelsDisplay aspect ratio                     : 2.35:1Frame rate                               : 25.000 fpsColor space                              : YUVChroma subsampling                       : 4:2:0Bit depth                                : 8 bitsScan type                                : ProgressiveCompression mode                         : LossyBits/(Pixel*Frame)                       : 0.329Stream size                              : 2.17 GiB (90%)Writing library                          : XviD 1.2.1 (UTC 2008-12-04)

    AudioID                                       : 1Format                                   : AC-3Format/Info                              : Audio Coding 3Mode extension                           : CM (complete main)Codec ID                                 : 2000Duration                                 : 2h 52mnBit rate mode                            : ConstantBit rate                                 : 192 KbpsChannel(s)                               : 2 channelsChannel positions                        : Front: L RSampling rate                            : 48.0 KHzBit depth                                : 16 bitsCompression mode                         : LossyStream size                              : 238 MiB (10%)Alignment                                : Split accross interleavesInterleave, duration                     : 40 ms (1.00 video frame)Interleave, preload duration             : 500 ms

    Скриншоты: Срочно! Нужна помощь! © Оформление by Raven
  • Скачать Солнечный удар через торрент http://i66.fastpic.ru/big/2014/1104/c2/6b400559c023f33ba290e753be3973c2.jpg Скачать фильм Солнечный удар через торрент бесплантно в хорошем качестве Описание:Всего одна ночь с незнакомкой становится для главного героя настоящим наваждением. Этот «солнечный удар» не отпускает его даже в ... 2014-11-04 15:58 9.3 10 44

    Loading...

    Loading...

    Рекламный пират

    04-11-2014 16:19 Солнечный удар Скачать торрент  

    Оперативно,спс,заберём.

    04-11-2014 17:26 Солнечный удар Скачать торрент  

    Редчайшая гадость, михалков как всегда намудрил идиотский фильм едва половину осилил.

    04-11-2014 19:10 Солнечный удар Скачать торрент  

    Ужас, как можно такую фигню снимать! Еле 50 минут осилил...

    04-11-2014 20:48 Солнечный удар Скачать торрент  

    Качал не здесь, но хочу поблагодарить релизёра. Спасибо.Сильный фильм. Отличная работа.Не для средних умов. Либерастам понятное дело не понравится, ну и всем другим, кто изначально запрограммирован заплевать фильм Михалкова.

    05-11-2014 03:15 Солнечный удар Скачать торрент  

    Столько отзывов ...) посмотрю обязательно, спасибо !

    05-11-2014 16:27 Солнечный удар Скачать торрент  

    Для понимания конечно тяжеловат, ни то что голливудский блокбастер.

    06-11-2014 13:06 Солнечный удар Скачать торрент  

    Чудный фильм! Не все поймут.

    06-11-2014 17:37 Солнечный удар Скачать торрент  

    если честно фильм в жанре последних высеров михалкова, ностальгия по тому чего он сам не видел и не переживал, дань какой то извращенной моде царской России. Хотя этот человек родился и вырос в СССР, он всей своей душой презирает и не на видит Советскую власть, которая вскормила его и его родню, извините вообщето его папа написал гимн Советского Союза, и был удостоен Сталинской премии за это, и был героем социалистического труда, очень печально, когда человек снимает талантливые фильмы про Чекистов, а через 20 лет обсирает эту структуру, которая не мало сделала для нашей Родины, у меня всё.

    Pекламный агент PB

    09-11-2014 13:45 Солнечный удар Скачать торрент  

    да в жопу политику,достала уже всех,конечно пепсикольщикам труден для восприятия

    11-11-2014 15:23 Солнечный удар Скачать торрент  

    тупой и еще тупее.....полное ...

    15-11-2014 14:13 Солнечный удар Скачать торрент  

    уважаю все фильмы михалкова,качаю! спс раздающий.

    15-11-2014 18:03 Солнечный удар Скачать торрент  

    согласен с ашотиком.уж лучше снимал как сейчас украинцы украинцев убивают. там нет царя у народа.сколько можно про белых и красных...

    27-11-2014 11:35 Солнечный удар Скачать торрент  

    Дорогой пользователь! Огромная просьба, поблагодарите релизера, оцените раздачу и оставьте свои комментарий, если Вы скачали Солнечный удар через торрент бесплатно! Внесите свою лепту в развитие PiratBit!

    Комментировать посты могут только пользователи прошедшие не сложную регистрацию

    Солнечный удар через торрент Скачать бесплатно Солнечный удар Солнечный удар скачать торрент Солнечный удар смотреть онлайн Cкачать фильм Солнечный удар бесплатно Солнечный удар скачать торрент в хорошем качестве Солнечный удар смотреть онлайн бесплатно в хорошем качестве

    Вы не можете начинать темыВы не можете отвечать на сообщенияВы не можете редактировать свои сообщенияВы не можете удалять свои сообщенияВы не можете голосовать в опросахВы не можете прикреплять файлы к сообщениямВы можете скачивать файлы

    piratbit.ru

    Скачать фильм Солнечный удар через торрент в хорошем качестве бесплатно DVDRip

    Размер: 1.37 GB | Добавлен: 4 года 1 мес. назад | Торрент скачан:147 раз
    Реклама Дарим 3000 рублей за регистрацию, не упусти свой шанс получить шикарный бонус!!!

    Солнечный удар / Solar Attack

    Год выпуска: 2006Страна: КанадаЖанр: фантастика, боевик, триллер,Продолжительность: 01:27:40Перевод: Профессиональный многоголосый, ЛицензияТип релиза: ЛицензияСубтитры: Отсутствуют

    Режиссер: Пол Зиллер

    Премьера в мире: 25 мая 2006

    Рекомендуется присутствие родителей http://www.kinopoisk.ru/film/259881/

    В ролях: Марк Дакаскос, Луи Госсетт, Лейк Билл, Кевин Джабинвилл, Тим Пост,

    Описание: На солнце произошла невероятной силы вспышка. В результате этого космического ЧП от раскаленного светила отделилась верхняя оболочка и с угрожающей скоростью начала двигаться в сторону Земли, угрожая планете глобальной катастрофой. Кто спасет людей от апокалипсиса?

    Качество: DVDRipФормат: AVIВидео кодек: XviDАудио кодек: MP3 Видео: 624x464, 25 fps, DivX 5.0 or 6.0 ~1842 kbps avg, 0.15 bit/pixelАудио#1: 48 kHz, Dolby AC3, 2 ch, 384 kbps avg

    Скачать Солнечный удар через торрент http://rudb.org/img/2011_06/18/fb488996-e1d1-49b6-b4c8-e22247dbae04.jpg Скачать фильм Солнечный удар через торрент бесплантно в хорошем качестве Описание: На солнце произошла невероятной силы вспышка. В результате этого космического ЧП от раскаленного светила отделилась верхняя ... 2013-09-13 09:17 9.2 10 12

    Loading...

    Loading...

    Рекламный пират

    На солнце произошла невероятной силы вспышка. В результате этого космического ЧП от раскаленного светила отделилась верхняя оболочка и с угрожающей скоростью начала двигаться в сторону Земли, угрожая планете глобальной катастрофой. Кто спасет людей от апокалипсиса? ДА НИКТО

    VADDDIM писал(а):

    На солнце произошла невероятной силы вспышка. В результате этого космического ЧП от раскаленного светила отделилась верхняя оболочка и с угрожающей скоростью начала двигаться в сторону Земли, угрожая планете глобальной катастрофой. Кто спасет людей от апокалипсиса? ДА НИКТО

    зачёт!!!!!!!!!!!!!!

    Дорогой пользователь! Огромная просьба, поблагодарите релизера, оцените раздачу и оставьте свои комментарий, если Вы скачали Солнечный удар через торрент бесплатно! Внесите свою лепту в развитие PiratBit!

    Комментировать посты могут только пользователи прошедшие не сложную регистрацию

    Солнечный удар через торрент Скачать бесплатно Солнечный удар Солнечный удар скачать торрент Солнечный удар смотреть онлайн Cкачать фильм Солнечный удар бесплатно Солнечный удар скачать торрент в хорошем качестве Солнечный удар смотреть онлайн бесплатно в хорошем качестве

    Вы не можете начинать темыВы не можете отвечать на сообщенияВы не можете редактировать свои сообщенияВы не можете удалять свои сообщенияВы не можете голосовать в опросахВы не можете прикреплять файлы к сообщениямВы можете скачивать файлы

    piratbit.ru


    Смотрите также