Снайпер идеальное убийство 2017 скачать торрент в хорошем качестве


Идеальное убийство через торрент в хорошем качестве бесплатно BDRip-AVC

ОбщееУникальный идентификатор : 191479787657200181170677806209129481970 (0x900DAA69F6EE8389B88EDF19713F86F2)Полное имя : E:OlLanDGroupSniper.Ultimate.Kill.2017.BDRip(AVC).OlLanDGroup.mkvФормат : MatroskaВерсия формата : Version 2Размер файла : 2,42 ГбайтПродолжительность : 1 ч. 33 м.Общий поток : 3714 Кбит/секНазвание фильма : Sniper.Ultimate.Kill.2017 #TorpedoUK#Дата кодирования : UTC 2017-10-07 12:22:48Программа кодирования : mkvmerge v7.8.0 ('River Man') 32bit built on Apr 3 2015 12:11:22Библиотека кодирования : libebml v1.3.1 + libmatroska v1.4.2

ВидеоИдентификатор : 1Формат : AVCФормат/Информация : Advanced Video CodecПрофиль формата : [email protected]Параметр CABAC формата : ДаПараметр ReFrames формата : 10 кадровИдентификатор кодека : V_MPEG4/ISO/AVCПродолжительность : 1 ч. 33 м.Битрейт : 2814 Кбит/секШирина : 1024 пикселяВысота : 426 пикселейСоотношение сторон : 2,40:1Режим частоты кадров : ПостоянныйЧастота кадров : 23,976 (24000/1001) кадра/секЦветовое пространство : YUVСубдискретизация насыщенности : 4:2:0Битовая глубина : 8 битТип развёртки : ПрогрессивнаяБит/(Пиксели*Кадры) : 0.269Размер потока : 1,79 Гбайт (74%)Библиотека кодирования : x264 core 146 r2538 121396cНастройки программы : cabac=1 / ref=10 / deblock=1:-3:-3 / analyse=0x3:0x133 / me=umh / subme=11 / psy=1 / psy_rd=1.00:0.07 / mixed_ref=1 / me_range=48 / chroma_me=1 / trellis=2 / 8x8dct=1 / cqm=0 / deadzone=21,11 / fast_pskip=0 / chroma_qp_offset=-3 / threads=6 / lookahead_threads=1 / sliced_threads=0 / nr=0 / decimate=0 / interlaced=0 / bluray_compat=0 / constrained_intra=0 / bframes=10 / b_pyramid=2 / b_adapt=2 / b_bias=0 / direct=3 / weightb=1 / open_gop=0 / weightp=2 / keyint=240 / keyint_min=23 / scenecut=40 / intra_refresh=0 / rc_lookahead=40 / rc=2pass / mbtree=0 / bitrate=2814 / ratetol=1.0 / qcomp=0.60 / qpmin=0 / qpmax=69 / qpstep=4 / cplxblur=20.0 / qblur=0.5 / vbv_maxrate=50000 / vbv_bufsize=62500 / nal_hrd=none / filler=0 / ip_ratio=1.40 / pb_ratio=1.30 / aq=1:1.00Язык : EnglishDefault : ДаForced : Нет

Аудио #1Идентификатор : 2Формат : AC-3Формат/Информация : Audio Coding 3Расширение режима : CM (complete main)Параметр Endianness формата : BigИдентификатор кодека : A_AC3Продолжительность : 1 ч. 33 м.Вид битрейта : ПостоянныйБитрейт : 448 Кбит/секКаналы : 6 каналовРасположение каналов : Front: L C R, Side: L R, LFEЧастота : 48,0 КГцЧастота кадров : 31,250 кадров/сек (1536 spf)Битовая глубина : 16 битМетод сжатия : С потерямиРазмер потока : 299 Мбайт (12%)Заголовок : LicenseЯзык : RussianDefault : ДаForced : Нет

Аудио #2Идентификатор : 3Формат : AC-3Формат/Информация : Audio Coding 3Расширение режима : CM (complete main)Параметр Endianness формата : BigИдентификатор кодека : A_AC3Продолжительность : 1 ч. 33 м.Вид битрейта : ПостоянныйБитрейт : 448 Кбит/секКаналы : 6 каналовРасположение каналов : Front: L C R, Side: L R, LFEЧастота : 48,0 КГцЧастота кадров : 31,250 кадров/сек (1536 spf)Битовая глубина : 16 битМетод сжатия : С потерямиРазмер потока : 299 Мбайт (12%)Заголовок : OriginalЯзык : EnglishDefault : НетForced : Нет

Текст #1Идентификатор : 4Формат : UTF-8Идентификатор кодека : S_TEXT/UTF8Идентификатор кодека/Информация : UTF-8 Plain TextЯзык : RussianDefault : НетForced : Нет

Текст #2Идентификатор : 5Формат : UTF-8Идентификатор кодека : S_TEXT/UTF8Идентификатор кодека/Информация : UTF-8 Plain TextЯзык : EnglishDefault : НетForced : Нет

Текст #3Идентификатор : 6Формат : UTF-8Идентификатор кодека : S_TEXT/UTF8Идентификатор кодека/Информация : UTF-8 Plain TextЗаголовок : SDHЯзык : EnglishDefault : НетForced : Нет

Меню00:00:00.000 : en:00:00:00.00000:04:19.634 : en:00:04:19.63400:09:10.258 : en:00:09:10.25800:16:38.956 : en:00:16:38.95600:26:19.828 : en:00:26:19.82800:31:34.559 : en:00:31:34.55900:37:23.241 : en:00:37:23.24100:44:08.771 : en:00:44:08.77100:48:09.929 : en:00:48:09.92900:51:42.308 : en:00:51:42.30800:56:47.321 : en:00:56:47.32101:04:21.232 : en:01:04:21.23201:11:19.400 : en:01:11:19.40001:15:25.396 : en:01:15:25.39601:19:42.778 : en:01:19:42.77801:25:53.899 : en:01:25:53.899

piratbit.ru

Идеальное убийство через торрент в хорошем качестве бесплатно BDRip

piratbit.ru

Раздают: 389 [ 3 MB/s ] Качают: 34 [ 3 MB/s ]
Размер: 1.46 GB | Добавлен: 20 д. назад | Торрент скачан:618 раз
Реклама Дарим 3000 рублей за регистрацию, не упусти свой шанс получить шикарный бонус!!!

06-10-2017 20:45 Снайпер: Идеальное убийство Скачать торрент  

Снайпер: Идеальное убийство / Sniper: Ultimate Kill

Год выпуска: 2017Страна: СШАЖанр: Боевик, триллер, драмаПродолжительность: 01:33:18Перевод: Профессиональный многоголосый | Лицензия Blu-ray EURСубтитры: отсутствуют

Режиссер: Клаудио Фах

В ролях:

Билли Зейн, Том Беренджер, Денай Гарсиа, Джо Ландо, Хуан Себастьян Калеро, Чад Коллинз, Хуан Пабло Гамбоа, Фелипе Калеро, Лучо Веласко

Описание:

Глава колумбийского наркокартеля объединят в своих руках все каналы доставки наркотиков в США. Его врагов уничтожает суперснайпер по кличке «Дьявол». Агентство по борьбе с наркотиками отправляет на борьбу с ними спецагента под прикрытием, опытного снайпера из морской разведки.

Качество: BDRip | Blu-ray EUR |Формат: AVIВидео кодек: XviDАудио кодек: AC3

Видео: XviD, 720x304, 23.976 fps, 1783 kbpsАудио#1: AC3, 6 ch, 448 kbps

Скачать Снайпер: Идеальное убийство через торрент http://i93.fastpic.ru/big/2017/1006/bf/2131f252df2271c32513143e41ddacbf.jpg Скачать фильм Снайпер: Идеальное убийство через торрент бесплантно в хорошем качестве Описание: Глава колумбийского наркокартеля объединят в своих руках все каналы доставки наркотиков в США. Его врагов уничтожает суперснайпер ... 2017-10-06 20:45 9.1 10 24

Loading...

Loading...

% Раздел Тема Автор DL S | L
Фильмы 2017 [DVDrip, WEB-DLRip, HDrip] (DUB, MVO) [ 2.91 GB ] Снайпер: Идеальное убийство / Sniper: Ultimate Kill [2017 BDRip-AVC] MVO [] sokol_ok Скачать
Фильмы 2017 [DVDrip, WEB-DLRip, HDrip] (DUB, MVO) [ 746 MB ] Снайпер: Идеальное убийство / Sniper: Ultimate Kill [2017 BDRip-AVC] MVO [] sokol_ok Скачать
Фильмы 2017 [DVDrip, WEB-DLRip, HDrip] (DUB, MVO) [ 1.47 GB ] Снайпер: Идеальное убийство / Sniper: Ultimate Kill [2017 BDRip-AVC] MVO [] sokol_ok Скачать
Фильмы 2017 [DVDrip, WEB-DLRip, HDrip] (DUB, MVO) [ 710 MB ] Снайпер: Идеальное убийство / Sniper: Ultimate Kill [2017 HDRip многоголосый "BD EUR"] coc900 Скачать
Фильмы [HD 720p, 1080p] (Хороший звук DUB, MVO) [ 11.57 GB ] Снайпер: Идеальное убийство / Sniper: Ultimate Kill [2017 BDRip 1080p] MVO [ Blu-ray EUR] bober100 Скачать
Фильмы 2017 [DVDrip, WEB-DLRip, HDrip] (DUB, MVO) [ 2.42 GB ] Снайпер: Идеальное убийство / Sniper: Ultimate Kill [2017 BDRip-AVC] MVO [ Blu-ray EUR] bober100 Скачать
Фильмы (Blu-ray, BD-Remux, HDDVD) [ 24.81 GB ] Снайпер: Идеальное убийство / Sniper: Ultimate Kill [2017 Blu-ray EUR 1080p] MVO [] bober100 Скачать

Рекламный пират

Дорогой пользователь! Огромная просьба, поблагодарите релизера, оцените раздачу и оставьте свои комментарий, если Вы скачали Снайпер: Идеальное убийство через торрент бесплатно! Внесите свою лепту в развитие PiratBit!

Комментировать посты могут только пользователи прошедшие не сложную регистрацию

Снайпер: Идеальное убийство через торрент Скачать бесплатно Снайпер: Идеальное убийство Снайпер: Идеальное убийство скачать торрент Снайпер: Идеальное убийство смотреть онлайн Cкачать фильм Снайпер: Идеальное убийство бесплатно Снайпер: Идеальное убийство скачать торрент в хорошем качестве Снайпер: Идеальное убийство смотреть онлайн бесплатно в хорошем качестве

Вы не можете начинать темыВы не можете отвечать на сообщенияВы не можете редактировать свои сообщенияВы не можете удалять свои сообщенияВы не можете голосовать в опросахВы не можете прикреплять файлы к сообщениямВы можете скачивать файлы

Идеальное убийство через торрент в хорошем качестве бесплатно BDRip-AVC

x264 [info]: frame I:1104 Avg QP:18.00 size: 78165x264 [info]: frame P:26991 Avg QP:20.04 size: 36517x264 [info]: frame B:106135 Avg QP:21.57 size: 13395

ОбщееУникальный идентификатор : 224798927603435095297604617175480217576 (0xA91EB2D859F129E6B6C23CA1BCFD2FE8)Полное имя : M:\!Rips2017\Sniper Ultimate Kill\Sniper.Ultimate.Kill.2017.BDRip-AVC.RUS.ENG.stalkerok.new-team.mkvФормат : MatroskaВерсия формата : Version 4 / Version 2Размер файла : 2,91 ГбайтПродолжительность : 1 ч. 33 м.Общий поток : 4462 Кбит/секНазвание фильма : Sniper: Ultimate Kill (2017) (Rip by stalkerok)Дата кодирования : UTC 2017-10-11 20:54:45Программа кодирования : mkvmerge v8.6.1 ('Flying') 64bitБиблиотека кодирования : libebml v1.3.3 + libmatroska v1.4.4

ВидеоИдентификатор : 1Формат : AVCФормат/Информация : Advanced Video CodecПрофиль формата : [email protected]Параметр CABAC формата : ДаПараметр ReFrames формата : 13 кадровИдентификатор кодека : V_MPEG4/ISO/AVCПродолжительность : 1 ч. 33 м.Битрейт : 3563 Кбит/секШирина : 1152 пикселяВысота : 480 пикселейСоотношение сторон : 2,40:1Режим частоты кадров : ПостоянныйЧастота кадров : 23,976 (24000/1001) кадра/секЦветовое пространство : YUVСубдискретизация насыщенности : 4:2:0Битовая глубина : 8 битТип развёртки : ПрогрессивнаяБит/(Пиксели*Кадры) : 0.269Размер потока : 2,32 Гбайт (80%)Заголовок : Sniper: Ultimate Kill (2017) (Rip by stalkerok)Библиотека кодирования : x264 core 150 r2833kMod df79067Настройки программы : cabac=1 / ref=13 / deblock=1:-3:-2 / analyse=0x3:0x133 / me=umh / subme=11 / psy=1 / fade_compensate=0.00 / psy_rd=1.00:0.00 / mixed_ref=1 / me_range=32 / chroma_me=1 / trellis=2 / 8x8dct=1 / cqm=0 / deadzone=21,11 / fast_pskip=0 / chroma_qp_offset=-2 / threads=12 / lookahead_threads=3 / sliced_threads=0 / nr=0 / decimate=1 / interlaced=0 / bluray_compat=0 / constrained_intra=0 / bframes=13 / b_pyramid=2 / b_adapt=2 / b_bias=0 / direct=3 / weightb=1 / open_gop=0 / weightp=2 / keyint=240 / keyint_min=23 / scenecut=40 / intra_refresh=0 / rc_lookahead=60 / rc=crf / mbtree=0 / crf=18.8000 / qcomp=0.65 / qpmin=0 / qpmax=69 / qpstep=4 / vbv_maxrate=50000 / vbv_bufsize=62500 / crf_max=0.0 / nal_hrd=none / filler=0 / ip_ratio=1.40 / pb_ratio=1.30 / aq=3:0.80 / zones=129824,134229,q=33Default : ДаForced : Нет

Аудио #1Идентификатор : 2Формат : AC-3Формат/Информация : Audio Coding 3Расширение режима : CM (complete main)Параметр Endianness формата : BigИдентификатор кодека : A_AC3Продолжительность : 1 ч. 33 м.Вид битрейта : ПостоянныйБитрейт : 448 Кбит/секКаналы : 6 каналовРасположение каналов : Front: L C R, Side: L R, LFEЧастота : 48,0 КГцЧастота кадров : 31,250 кадров/сек (1536 spf)Метод сжатия : С потерямиРазмер потока : 299 Мбайт (10%)Язык : RussianDefault : ДаForced : Нет

Аудио #2Идентификатор : 3Формат : AC-3Формат/Информация : Audio Coding 3Расширение режима : CM (complete main)Параметр Endianness формата : BigИдентификатор кодека : A_AC3Продолжительность : 1 ч. 33 м.Вид битрейта : ПостоянныйБитрейт : 448 Кбит/секКаналы : 6 каналовРасположение каналов : Front: L C R, Side: L R, LFEЧастота : 48,0 КГцЧастота кадров : 31,250 кадров/сек (1536 spf)Метод сжатия : С потерямиРазмер потока : 299 Мбайт (10%)Язык : EnglishDefault : НетForced : Нет

Текст #1Идентификатор : 4Формат : UTF-8Идентификатор кодека : S_TEXT/UTF8Идентификатор кодека/Информация : UTF-8 Plain TextПродолжительность : 1 ч. 25 м.Битрейт : 75 бит/секCount of elements : 927Размер потока : 47,1 Кбайт (0%)Язык : RussianDefault : НетForced : Нет

Текст #2Идентификатор : 5Формат : UTF-8Идентификатор кодека : S_TEXT/UTF8Идентификатор кодека/Информация : UTF-8 Plain TextПродолжительность : 1 ч. 24 м.Битрейт : 51 бит/секCount of elements : 896Размер потока : 31,7 Кбайт (0%)Язык : EnglishDefault : НетForced : Нет

Текст #3Идентификатор : 6Формат : UTF-8Идентификатор кодека : S_TEXT/UTF8Идентификатор кодека/Информация : UTF-8 Plain TextПродолжительность : 1 ч. 29 м.Битрейт : 52 бит/секCount of elements : 1020Размер потока : 34,7 Кбайт (0%)Заголовок : SDHЯзык : EnglishDefault : НетForced : Нет

Текст #4Идентификатор : 7Формат : UTF-8Идентификатор кодека : S_TEXT/UTF8Идентификатор кодека/Информация : UTF-8 Plain TextПродолжительность : 1 ч. 29 м.Битрейт : 76 бит/секCount of elements : 1020Размер потока : 50,2 Кбайт (0%)Заголовок : SDH ColoredЯзык : EnglishDefault : НетForced : Нет

Меню00:00:00.000 : en:Chapter 100:04:19.634 : en:Chapter 200:09:10.258 : en:Chapter 300:16:38.956 : en:Chapter 400:26:19.828 : en:Chapter 500:31:34.559 : en:Chapter 600:37:23.241 : en:Chapter 700:44:08.771 : en:Chapter 800:48:09.928 : en:Chapter 900:51:42.307 : en:Chapter 1000:56:47.320 : en:Chapter 1101:04:21.232 : en:Chapter 1201:11:19.400 : en:Chapter 1301:15:25.395 : en:Chapter 1401:19:42.778 : en:Chapter 1501:25:53.898 : en:Chapter 16

piratbit.ru

Идеальное убийство через торрент в хорошем качестве бесплатно BDRip-AVC

x264 [info]: frame I:1171 Avg QP:17.84 size: 49184x264 [info]: frame P:27502 Avg QP:19.99 size: 19968x264 [info]: frame B:105557 Avg QP:21.49 size: 6212

GeneralUnique ID : 238482172510966482151352725588642981463 (0xB369FEE7C6F612A1ACCDF9AD717D6657)Complete name : M:\!Rips2017\Sniper Ultimate Kill\Sniper.Ultimate.Kill.2017.BDRip-AVC.RUS.stalkerok.new-team.mkvFormat : MatroskaFormat version : Version 4 / Version 2File size : 1.47 GiBDuration : 1 h 33 minOverall bit rate : 2 254 kb/sMovie name : Sniper: Ultimate Kill (2017) (Rip by stalkerok)Encoded date : UTC 2017-10-11 20:41:11Writing application : mkvmerge v8.6.1 ('Flying') 64bitWriting library : libebml v1.3.3 + libmatroska v1.4.4

VideoID : 1Format : AVCFormat/Info : Advanced Video CodecFormat profile : [email protected] settings, CABAC : YesFormat settings, ReFrames : 14 framesCodec ID : V_MPEG4/ISO/AVCDuration : 1 h 33 minBit rate : 1 804 kb/sWidth : 912 pixelsHeight : 380 pixelsDisplay aspect ratio : 2.40:1Frame rate mode : ConstantFrame rate : 23.976 (24000/1001) FPSColor space : YUVChroma subsampling : 4:2:0Bit depth : 8 bitsScan type : ProgressiveBits/(Pixel*Frame) : 0.217Stream size : 1.18 GiB (80%)Title : Sniper: Ultimate Kill (2017) (Rip by stalkerok)Writing library : x264 core 150 r2833kMod df79067Encoding settings : cabac=1 / ref=14 / deblock=1:-3:-2 / analyse=0x3:0x133 / me=umh / subme=11 / psy=1 / fade_compensate=0.00 / psy_rd=1.00:0.00 / mixed_ref=1 / me_range=32 / chroma_me=1 / trellis=2 / 8x8dct=1 / cqm=0 / deadzone=21,11 / fast_pskip=0 / chroma_qp_offset=-2 / threads=12 / lookahead_threads=2 / sliced_threads=0 / nr=0 / decimate=1 / interlaced=0 / bluray_compat=0 / constrained_intra=0 / bframes=14 / b_pyramid=2 / b_adapt=2 / b_bias=0 / direct=3 / weightb=1 / open_gop=0 / weightp=2 / keyint=240 / keyint_min=23 / scenecut=40 / intra_refresh=0 / rc_lookahead=60 / rc=crf / mbtree=0 / crf=18.7000 / qcomp=0.65 / qpmin=0 / qpmax=69 / qpstep=4 / vbv_maxrate=50000 / vbv_bufsize=62500 / crf_max=0.0 / nal_hrd=none / filler=0 / ip_ratio=1.40 / pb_ratio=1.30 / aq=3:0.80 / zones=129824,134229,q=33Default : YesForced : No

AudioID : 2Format : AC-3Format/Info : Audio Coding 3Mode extension : CM (complete main)Format settings, Endianness : BigCodec ID : A_AC3Duration : 1 h 33 minBit rate mode : ConstantBit rate : 448 kb/sChannel(s) : 6 channelsChannel positions : Front: L C R, Side: L R, LFESampling rate : 48.0 kHzFrame rate : 31.250 FPS (1536 spf)Compression mode : LossyStream size : 299 MiB (20%)Language : RussianDefault : YesForced : No

TextID : 3Format : UTF-8Codec ID : S_TEXT/UTF8Codec ID/Info : UTF-8 Plain TextDuration : 1 h 25 minBit rate : 75 b/sCount of elements : 927Stream size : 47.1 KiB (0%)Language : RussianDefault : NoForced : No

Menu00:00:00.000 : en:Chapter 100:04:19.634 : en:Chapter 200:09:10.258 : en:Chapter 300:16:38.956 : en:Chapter 400:26:19.828 : en:Chapter 500:31:34.559 : en:Chapter 600:37:23.241 : en:Chapter 700:44:08.771 : en:Chapter 800:48:09.928 : en:Chapter 900:51:42.307 : en:Chapter 1000:56:47.320 : en:Chapter 1101:04:21.232 : en:Chapter 1201:11:19.400 : en:Chapter 1301:15:25.395 : en:Chapter 1401:19:42.778 : en:Chapter 1501:25:53.898 : en:Chapter 16

piratbit.ru

Идеальное убийство (2017) скачать фильм через торрент бесплатно в хорошем HD качестве

kinonax.com

29 165

Физрук 4 сезон (2017)

736

Мой сын (2017)

171

Три сестры (2017)

341

Единственный живой парень в Нью-Йорке (2017)

10 456

Иностранец (2017)

414

Будь мужиком (2017)

1 690

Коматозники (2017)

1 462

Реальный Рокки (2017)

3 615

Геошторм (2017)

1 279

Двуличный любовник (2017)

946

Как Витька Чеснок вез Леху Штыря в дом инвалидов (2017)

14 170

Сделано в Америке (2017)

6 835

Напарник (2017)

1 271

Борг / Макинрой (2017)

1 161

Яма. Наши дни (2017)

3 937

Бегущий по лезвию 2049 (2017)

15 072

Сериал Беглец (2017)

6 495

Безбашенные (2017)

3 511

Послание от Кинга (2017)

2 446

Между нами горы (2017)

13 142

Жизнь впереди (2017)

120 237

Сериал Ольга 2 сезон 18 19 20 серия (2017)

3 160

Любовь в городе ангелов (2017)

1 896

Уотергейт. Крушение Белого дома (2017)

7 328

Наемник (2017)

14 805

Сериал Отличница (2017)

2 785

Техасская резня бензопилой: Кожаное лицо (2017)

2 733

Убить Гюнтера (2017)

1 581

Заложники (2017)

24 776

Сериал Отчий берег (2017)

885

ЛЕГО Ниндзяго Фильм (2017)

3 505

Kingsman: Золотое кольцо (2017)

1 640

Мадам (2017)

4 666

Сериал Стальная звезда (2017)


Смотрите также