Смерть в сети скачать торрент в хорошем качестве


Скачать фильм Смерть в сети (2013) через торрент

10 февраля 2016 17:40 Смерть в сети / The Den (2013) DVDRip от MediaClub | КПК .torrent   [Информация о файле (нажмите для просмотра)] Качество: DVDRipВидео: MPEG-4 AVC, 500 Кбит/с, 480x258, 25.000 кадр/сАудио: Русский (AAC, 2 ch, 128 Кбит/с) / Дублированный 330,85 Mb 13 4 10 февраля 2016 17:40 Смерть в сети / The Den (2013) WEB-DLRip От Deadmauvlad | D | Лицензия .torrent   [Информация о файле (нажмите для просмотра)] Перевод: Профессиональный Дублированный [Лицензия]Качество: WEB-DLRipФормат: AVIВидео: XviD, 704x400 (16:9), 23.976 fps, 1 869 Kbps Аудио: Аудио #1: AC-3, 48.0 KHz, 6 ch, 448 Kbps, CBRАудио#2: AC-3, 48.0 KHz, 6 ch, 384 Kbps, CBRВидео: Идентификатор : 0 Формат : MPEG-4 Visual Профиль формата : Advanced [email protected] Параметр BVOP формата : 2 Параметр QPel формата : Да Параметр GMC формата : 3 точки перехода Параметр матрицы формата : Выборочная Идентификатор кодека : XVID Идентификатор кодека/Подсказка : XviD Продолжительность : 1 ч. 16 м. Битрейт : 1869 Кбит/сек Ширина : 704 пикселя Высота : 400 пикселей Соотношение сторон : 16:9 Частота кадров : 23,976 кадра/сек Цветовое пространство : YUV Субдискретизация насыщенности : 4:2:0 Битовая глубина : 8 бит Тип развёртки : Чересстрочная Порядок развёртки : Нижнее поле первое Метод сжатия : С потерями Бит/(Пиксели*Кадры) : 0.277 Размер потока : 1,00 Гбайт (69%) Библиотека кодирования : XviD 1.2.1 (UTC 2008-12-04)Аудио #1: Идентификатор : 1 Формат : AC-3 Формат/Информация : Audio Coding 3 Расширение режима : CM (complete main) Параметр Endianness формата : Big Идентификатор кодека : 2000 Продолжительность : 1 ч. 16 м. Вид битрейта : Постоянный Битрейт : 448 Кбит/сек Каналы : 6 каналов Расположение каналов : Front: L C R, Side: L R, LFE Частота : 48,0 КГц Битовая глубина : 16 бит Метод сжатия : С потерями Размер потока : 246 Мбайт (16%) Выравнивание : Разделение по промежуткам Продолжительность промежутка : 42 мс. (1,00 видеокадр) Время предзагрузки промежутка : 500 мс.Аудио #2: Идентификатор : 2 Формат : AC-3 Формат/Информация : Audio Coding 3 Расширение режима : CM (complete main) Параметр Endianness формата : Big Идентификатор кодека : 2000 Продолжительность : 1 ч. 16 м. Вид битрейта : Постоянный Битрейт : 384 Кбит/сек Каналы : 6 каналов Расположение каналов : Front: L C R, Side: L R, LFE Частота : 48,0 КГц Битовая глубина : 16 бит Метод сжатия : С потерями Размер потока : 211 Мбайт (14%) Выравнивание : Разделение по промежуткам Продолжительность промежутка : 42 мс. (1,00 видеокадр) Время предзагрузки промежутка : 500 мс.Видео: Идентификатор : 0 Формат : MPEG-4 Visual Профиль формата : Advanced [email protected] Параметр BVOP формата : 1 Параметр QPel формата : Нет Параметр GMC формата : Без точки перехода Параметр матрицы формата : Default (MPEG) Идентификатор кодека : XVID Идентификатор кодека/Подсказка : XviD Продолжительность : 1 ч. 13 м. Битрейт : 2200 Кбит/сек Ширина : 720 пикселей Высота : 384 пикселя Соотношение сторон : 1,85:1 Частота кадров : 25,000 кадров/сек Цветовое пространство : YUV Субдискретизация насыщенности : 4:2:0 Битовая глубина : 8 бит Тип развёртки : Прогрессивная Метод сжатия : С потерями Бит/(Пиксели*Кадры) : 0.318 Размер потока : 1,13 Гбайт (83%) Библиотека кодирования : XviD 1.2.1 (UTC 2008-12-04)Аудио: Идентификатор : 1 Формат : AC-3 Формат/Информация : Audio Coding 3 Расширение режима : CM (complete main) Параметр Endianness формата : Big Идентификатор кодека : 2000 Продолжительность : 1 ч. 13 м. Вид битрейта : Постоянный Битрейт : 448 Кбит/сек Каналы : 6 каналов Расположение каналов : Front: L C R, Side: L R, LFE Частота : 48,0 КГц Битовая глубина : 16 бит Метод сжатия : С потерями Размер потока : 236 Мбайт (17%) Выравнивание : Разделение по промежуткам Продолжительность промежутка : 40 мс. (1,00 видеокадр) Время предзагрузки промежутка : 500 мс. 1,46 Gb 109 12 10 февраля 2016 17:40 Смерть в сети / The Den (2013) WEB-DLRip-AVC от ExKinoRay | D .torrent   [Информация о файле (нажмите для просмотра)] Качество: WEB-DLRip (AVC)Видео: MPEG-4 AVC, 1420 Кбит/с, 1024x576Аудио: Русский (AC3, 6 ch, 448 Кбит/с), английский (AC3, 6 ch, 384 Кбит/с)Перевод: Дублированный [лицензия]Субтитры: Английские Дополнительно: Сохранены оригинальные чаптеры как на Blu-Ray 1,21 Gb 10 2 10 февраля 2016 17:40 Смерть в сети / The Den (2013) WEB-DLRip-AVC | iPhone | D .torrent   [Информация о файле (нажмите для просмотра)] Перевод: Русский дублированныйКодек: H.264Качество: WEB-DLRip [480p]Видео: [email protected] (16:9) at 23.976 fps, AVC at 1200 kbpsЗвук: 1: АAС 2.0 121 kbps - Русский дублированный 2: АAС 2.0 121 kbps - АнглийскийСубтитры: отсутствуют 793,02 Mb 5 2 10 февраля 2016 17:40 Смерть в сети / The Den (2013) WEB-DLRip От Deadmauvlad | D .torrent   [Информация о файле (нажмите для просмотра)] Перевод: Профессиональный Дублированное [лицензия]Качество: WEB-DLRipФормат: AVIВидео: 624x336 (1.86:1), 23.976 fps, XviD build 73 ~1200 kbps avg, 0.24 bit/pixelАудио: 48 kHz, MPEG Layer 3, 2 ch, ~128.00 kbps avgВидео: Идентификатор : 0 Формат : MPEG-4 Visual Профиль формата : Advanced [email protected] Параметр BVOP формата : 1 Параметр QPel формата : Нет Параметр GMC формата : Без точки перехода Параметр матрицы формата : Выборочная Идентификатор кодека : XVID Идентификатор кодека/Подсказка : XviD Продолжительность : 1 ч. 16 м. Битрейт : 1208 Кбит/сек Ширина : 624 пикселя Высота : 336 пикселей Соотношение сторон : 1,85:1 Частота кадров : 23,976 кадра/сек Цветовое пространство : YUV Субдискретизация насыщенности : 4:2:0 Битовая глубина : 8 бит Тип развёртки : Прогрессивная Метод сжатия : С потерями Бит/(Пиксели*Кадры) : 0.240 Размер потока : 664 Мбайт (90%) Библиотека кодирования : XviD 73Аудио: Идентификатор : 1 Формат : MPEG Audio Версия формата : Version 1 Профиль формата : Layer 3 Идентификатор кодека : 55 Идентификатор кодека/Подсказка : MP3 Продолжительность : 1 ч. 16 м. Вид битрейта : Постоянный Битрейт : 128 Кбит/сек Каналы : 2 канала Частота : 48,0 КГц Метод сжатия : С потерями Размер потока : 70,3 Мбайт (10%) Выравнивание : Соединение по промежуткам Продолжительность промежутка : 42 мс. (1,00 видеокадр) Время предзагрузки промежутка : 504 мс. Библиотека кодирования : LAME3.99r Настройки программы : -m s -V 4 -q 2 -lowpass 17 -b 128 738,94 Mb 30 1 10 февраля 2016 17:40 Смерть в сети / The Den (2013) DVD5 | Лицензия .torrent   [Информация о файле (нажмите для просмотра)] Формат: VOBКачество: DVD5Видео: MPEG 2, 720x576 (16:9), 25.000 fps, 8 000 Kbps (0.572 bit/pixel)Аудио: AC-3, 48.0 KHz, 6 ch, 448 Kbps, CBR 3,5 Gb 6 1 10 февраля 2016 17:40 Смерть в сети / The Den (2013) WEB-DL 1080p от CINEMANIA | D .torrent   [Информация о файле (нажмите для просмотра)] Формат: MKVКачество: WEB-DL 1080p[Abjex]Видео: 5001 kb/s, 1920x1080Аудио: Russian: AC3, 448 kb/s (6 ch) / English: AC3, 384 kb/s (6 ch)Субтитры: EnglishВидео: Идентификатор : 1 Формат : AVC Формат/Информация : Advanced Video Codec Профиль формата : [email protected] Параметр CABAC формата : Да Параметр ReFrames формата : 4 кадра Идентификатор кодека : V_MPEG4/ISO/AVC Продолжительность : 1 ч. 16 м. Битрейт : 5004 Кбит/сек Ширина : 1920 пикселей Высота : 1080 пикселей Соотношение сторон : 16:9 Режим частоты кадров : Постоянный Частота кадров : 23,976 кадра/сек Цветовое пространство : YUV Субдискретизация насыщенности : 4:2:0 Битовая глубина : 8 бит Тип развёртки : Прогрессивная Бит/(Пиксели*Кадры) : 0.101 Размер потока : 2,68 Гбайт (84%) Заголовок : Release Group CINEMANIA Язык : English Default : Да Forced : Нет Основные цвета : BT.709 Характеристики трансфера : BT.709 Коэффициенты матрицы : BT.709 Аудио #1: Идентификатор : 2 Формат : AC-3 Формат/Информация : Audio Coding 3 Расширение режима : CM (complete main) Параметр Endianness формата : Big Идентификатор кодека : A_AC3 Продолжительность : 1 ч. 16 м. Вид битрейта : Постоянный Битрейт : 448 Кбит/сек Каналы : 6 каналов Расположение каналов : Front: L C R, Side: L R, LFE Частота : 48,0 КГц Битовая глубина : 16 бит Метод сжатия : С потерями Размер потока : 246 Мбайт (8%) Заголовок : Дубляж (Лицензия) Язык : Russian Default : Да Forced : Да Аудио #2: Идентификатор : 3 Формат : AC-3 Формат/Информация : Audio Coding 3 Расширение режима : CM (complete main) Параметр Endianness формата : Big Идентификатор кодека : A_AC3 Продолжительность : 1 ч. 16 м. Вид битрейта : Постоянный Битрейт : 384 Кбит/сек Каналы : 6 каналов Расположение каналов : Front: L C R, Side: L R, LFE Частота : 48,0 КГц Битовая глубина : 16 бит Метод сжатия : С потерями Размер потока : 211 Мбайт (6%) Язык : English Default : Нет Forced : Нет 3,19 Gb 60 3 10 февраля 2016 17:40 Смерть в сети / The Den (2013) WEB-DL 720p от CINEMANIA | D .torrent   [Информация о файле (нажмите для просмотра)] Формат: MKVКачество: WEB-DL 720p[FooKaS]Видео: 3532 kb/s, 1280x720Аудио: Russian: AC3, 448 kb/s (6 ch) / English: AC3, 384 kb/s (6 ch)Субтитры: EnglishВидео: Идентификатор : 1 Формат : AVC Формат/Информация : Advanced Video Codec Профиль формата : [email protected] Параметр CABAC формата : Да Параметр ReFrames формата : 3 кадра Идентификатор кодека : V_MPEG4/ISO/AVC Продолжительность : 1 ч. 16 м. Битрейт : 3532 Кбит/сек Ширина : 1280 пикселей Высота : 720 пикселей Соотношение сторон : 16:9 Режим частоты кадров : Постоянный Частота кадров : 23,976 кадра/сек Цветовое пространство : YUV Субдискретизация насыщенности : 4:2:0 Битовая глубина : 8 бит Тип развёртки : Прогрессивная Бит/(Пиксели*Кадры) : 0.160 Размер потока : 1,85 Гбайт (79%) Заголовок : Release Group CINEMANIA Библиотека кодирования : x264 core 142 r2409 d6b4e63 Настройки программы : cabac=1 / ref=2 / deblock=1:-1:-1 / analyse=0x3:0x113 / me=hex / subme=4 / psy=1 / psy_rd=1.00:0.15 / mixed_ref=0 / me_range=16 / chroma_me=1 / trellis=1 / 8x8dct=1 / cqm=0 / deadzone=21,11 / fast_pskip=1 / chroma_qp_offset=-3 / threads=12 / lookahead_threads=3 / sliced_threads=0 / nr=0 / decimate=1 / interlaced=0 / bluray_compat=0 / constrained_intra=0 / bframes=3 / b_pyramid=1 / b_adapt=1 / b_bias=0 / direct=1 / weightb=1 / open_gop=0 / weightp=1 / keyint=240 / keyint_min=23 / scenecut=40 / intra_refresh=0 / rc_lookahead=20 / rc=2pass / mbtree=1 / bitrate=3532 / ratetol=1.0 / qcomp=0.60 / qpmin=0 / qpmax=69 / qpstep=4 / cplxblur=20.0 / qblur=0.5 / vbv_maxrate=30000 / vbv_bufsize=30000 / nal_hrd=none / filler=0 / ip_ratio=1.40 / aq=1:1.00 Default : Да Forced : Нет Основные цвета : Generic film Аудио #1: Идентификатор : 2 Формат : AC-3 Формат/Информация : Audio Coding 3 Расширение режима : CM (complete main) Параметр Endianness формата : Big Идентификатор кодека : A_AC3 Продолжительность : 1 ч. 16 м. Вид битрейта : Постоянный Битрейт : 448 Кбит/сек Каналы : 6 каналов Расположение каналов : Front: L C R, Side: L R, LFE Частота : 48,0 КГц Битовая глубина : 16 бит Метод сжатия : С потерями Размер потока : 246 Мбайт (10%) Заголовок : Дубляж (Лицензия) Язык : Russian Default : Да Forced : Да Аудио #2: Идентификатор : 3 Формат : AC-3 Формат/Информация : Audio Coding 3 Расширение режима : CM (complete main) Параметр Endianness формата : Big Идентификатор кодека : A_AC3 Продолжительность : 1 ч. 16 м. Вид битрейта : Постоянный Битрейт : 384 Кбит/сек Каналы : 6 каналов Расположение каналов : Front: L C R, Side: L R, LFE Частота : 48,0 КГц Битовая глубина : 16 бит Метод сжатия : С потерями Размер потока : 211 Мбайт (9%) Язык : English Default : Нет Forced : Нет 2,34 Gb 45 4 10 февраля 2016 17:40 Смерть в сети / The Den (2013) DVDRip | Лицензия .torrent   [Информация о файле (нажмите для просмотра)] Формат: AVIКачество: DVDRipВидео: XviD, 2200 Кбит/с, 720x384Аудио: AC3, 6 ch, 448 Кбит/с 1,36 Gb 246 10

gig-torrent.net

Смерть в сети скачать через торрент » Торрент Кино

Современные маньяки------------------------------------------Так получилось, что совсем недавно прочёл одну небольшую хоррор-новеллу (Мик Гаррис, «Третий акт Тайлера»), где как раз поднималась тема популярности снафф-видео и возможности делать из этого деньги. Основная идея мокьюментари-ленты Смерть в сети в целом развивает данную мысль, только слегка по-другому расставляя акценты.

Элизабет - молодая девушка, которая проводит социальные исследования в области современных средств связи, взяв за основу некий видео-чат, сильно напоминающий кальку со всем известного Skype. Совет из влиятельных и обеспеченных людей выделяет грант с целью финансирования проекта (хотя что именно нужно финансировать, так и остаётся загадкой). Свершилась мечта, работа тотчас закипела. До поры до времени всё идёт своим чередом, пока героиня не натыкается на профиль одной подозрительной девушки. С этого момента всё идёт наперекосяк, поскольку к компьютеру девушки получают доступ некие неизвестные и очень опасные лица, для которых наивысшим наслаждениям является лицезреть страдания несчастной/ого.

Сюжет не то чтобы поражает изобретательностью, и всё же даже качественное обыгрывание штампов не даёт расслабиться до последних кадров. Концовка же и вовсе в хорошем смысле удивляет: казалось, что за всем стоит определённый человек, быть может дуэт психопатов, однако расклад выпадает несколько иной.

Мелани Папалиа здорово справляется с ролью невинной жертвы, чьи муки становятся лишь более тяжёлыми по мере развития истории. Никакой фальши зритель здесь не увидит, что вдвойне важно для жанра псевдодокументалистики.

Не совсем понимаю довольно низкую оценку фильма на Кинопоиска. Смерть в сети - не шедевр, даже не отличное кино, но любителям триллеров и ужасов вполне подойдёт для вечернего досуга.------------------------------------------Боишься зайти в интернет?------------------------------------------Две минуты назад закончила смотреть этот фильм, поэтому впечатления - свежак.

О сюжете. Можно на пальцах одной руки пересчитать те триллеры, которые в течение всего фильма сохраняют динамизм сюжета, достойный уровень драматизма, которые дают зрителю возможность строить догадки. Например, мой любимый фильм «Звонок» Гора Вербински. В данном же случае, сюжет построен так, что ты (как и главная героиня) «ничего не можешь сделать» (недаром эта фраза много раз повторяется в фильме). Ты сидишь перед монитором и смотришь. Даже когда смерть приходит к тебе, ты ничего не можешь сделать, по крайней мере таков взгляд создателей фильма.

Назвать финал фильма неожиданным трудно. Скорее необычна сама идея о таком способе выбора жертвы - какой-то недоумок извращенец платит ничтожную сумму с кредитки и вуа-ля! жертва намечена.

Выше уже задавались вопросом, в чем же все-таки центральная идея фильма? Боюсь, что ее просто нет. Фильм не имеет достаточно глубокого содержания. А мораль вроде той, что «не сидите, детки, долго в интернете», не катит на центральную идею.

Об операторской работе. О ней можно сказать разве что то, что ее нет! После выхода «Паранормального явления», на которое было потрачено несколько тысяч, а заработаны миллионы, всё чаще стали появляться подобного рода халявные ленты. Дешево и сердито. Хотя плохое качество изображения, трясущаяся камера и помехи играют на то, чтобы создать атмосферу страха (а может быть, и нет!).

Однозначно, фильм одноразовый. Волнующий, но не слишком пугающий. По крайней мере, после этого в интернете сидеть страшно не стало.------------------------------------------«Ты вообще из дома выходишь?»------------------------------------------Решив посмотреть фильм «Смерть в сети» я ожидал очередного скучного сюжета, как это обыденно в обычных американских триллерах. Но я ошибался! Вместо тупой погони за главной жертвой, я получил великолепную картину, снятую ранее неизвестным мне Захари Донохью. У этого парня огромный талант снимать фильмы в таком жанре.

Кратко о сюжете: Молодая девушка выбила грант на исследование поведения людей в интернете. Для этого она использует некую программу «The Dan». После общения с некоторыми людьми, большинство из которых подростки с тупыми шутками либо люди со слабым умом, она невольно становится свидетелем жестокого убийства.

Кратко о актерах : Здесь скажу поменьше. Своей актерской игрой разве что может порадовать главная героиня. Ну и как во всех обыденных фильмах американского производства, она имеет невероятную силу. О других актерах можно сказать, что сыграли свою роль неплохо. Ничего плохого, ну и ничего хорошего про них я сказать не могу.

P.S Ну и конечно не обошлось про плевка в Россию. Смотря фильм сами все увидите.

Фильм порадовал. Я думаю, режиссер хотел сказать, что люди должны больше времени проводить в реальности, а не просиживать в интернете. Впервые, смотря фильм в таком жанре, мне не хотелось побыстрее выключить его. Сюжет затягивающий, и до самого конца держит зрителя в интриге: кто же убийца и что случится с главной героиней? Рекомендую всем! Приятного просмотра!

torrent-kino.org

Скачать Смерть в сети через торрент

Категория: Фильмы 1702 0 Торрент добавлен: 21-04-2015 Рейтинг:

2013 / ужасы, триллер / 81 мин.Оригинальное название: The DenСтрана: СШААктеры: Мелани Папалиа, Дэвид Шлачтенхауфен, Адам Шапиро, Мэтт Риди, Билл Оберст мл., Катя Певек, Кимберли Эйблс Джиндра, Энтони Дженнингс, Анна Маргарет Холлиман, Рон БоттиттаРежиссер: Захари Донохью

В интернете существует много полезных ресурсов, которые значительно упрощают нашу жизнь, однако есть и сайты, способные нанести вред психики людей. Хоть власти упорно борются с такими сайтами, их с каждым днем появляется все больше. Одним из таких ресурсов оказывается и тот, про который пойдет речь в фильме. Именно на нем люди совершенно бесплатно смогут увидеть смерть человека. Сначала многие не верили в реалистичности этих роликов, но после тщательных проверок удалось доказать, что действительно люди на тех видео умерли. Причем видео роликов с самоубийством или обычным убийством с каждым днем становится все больше, а ресурс посещают активнее. Найти создателя сайта совсем оказалось непросто. Героиня фильма, посетившая этот ресурс, своими глазами увидела смерть, которая происходила в прямом эфире.

Трейлер к фильму Смерть в сети

Смерть в сети скачать торрент

Формат: MKVКачество: WEB-DL 1080p [Abjex]Видео: 5001 kb/s, 1920x1080Аудио: Russian: AC3, 448 kb/s (6 ch) / English: AC3, 384 kb/s (6 ch)Дублированное [Лицензия]

3,19 Gb

торрент удален

Формат: VOBКачество: DVD5Видео: MPEG 2, 720x576 (16:9), 25.000 fps, 8 000 Kbps (0.572 bit/pixel)Аудио: AC-3, 48.0 KHz, 6 ch, 448 Kbps, CBRДублированное [Лицензия]

3,50 Gb

торрент удален

Формат: AVI Качество: DVDRipВидео: XviD, 2200 Кбит/с, 720x384Аудио: AC3, 6 ch, 448 Кбит/сДублированное [лицензия]

торрент удален

Вы находитесь на странице, где можете совершенно бесплатно скачать фильм Смерть в сети в хорошем качестве через торрент, в любом формате, который больше всего вам на данный момент подходит. Скачивание осуществляется через торрент, что означает максимально высокую скорость загрузки. Желаем Вам приятного просмотра!. Не забудь поделиться своими впечатлениями после того как посмотришь фильм Смерть в сети.

Информация Посетители, находящиеся в группе Гости, не могут оставлять комментарии к данной публикации.

psp-gu.ru

Скачать фильм Смерть в сети через торрент в хорошем качестве бесплатно DVDRip

Размер: 1.36 GB | Добавлен: 3 года 5 мес. назад | Торрент скачан:43 раза
Реклама Дарим 3000 рублей за регистрацию, не упусти свой шанс получить шикарный бонус!!!

13-05-2014 16:10 Смерть в сети Скачать торрент  

Смерть в сети / The Den

Год выпуска: 2013Страна: СШАЖанр: ужасы, триллерПродолжительность: 01:13:32Перевод: Профессиональный многоголосый, ЛицензияСубтитры: отсутствуют

Режиссер: Захари Донохью / Zachary DonohueПродюссер: Дэвид Брукс / David Brooks, Дэн Клифтон / Dan Clifton, Бернард Хант / Bernard HuntСценарий: Захари Донохью / Zachary Donohue, Лорен Томпсон / Lauren Thompson

Премьера в мире: 14 марта 2014

http://www.kinopoisk.ru/mpaa/film/715898/rn/R/http://www.kinopoisk.ru/film/715898

В ролях: Мелани Папалиа (Elizabeth Benton), Дэвид Шлачтенхауфен (Damien), Мэтт Риди (Sgt. Tisbert), Адам Шапиро (Max), Брайан Белл (Masked Killer), Рон Боттитта (Brianne's Dad), Кирк Бовилл (Dale), Тристиан Чейз (Video Chat Boy), Сайда Аррика Экулона (Sally), Гарретт Форнандер (Chat Boy), Джон Грэйди (Head Academic), Лили Хоуллман (Jenny)

Описание: Молодая женщина изучает привычки пользователей чата с использованием веб-камеры и невольно становится свидетелем жестокого убийства...

Качество: DVDRipФормат: AVIВидео кодек: XviDАудио кодек: AC3Видео: 720x384 (1.88:1), 25 fps, XviD build 50 ~2199 kbps avg, 0.32 bit/pixelАудио#1: 48 kHz, AC3 Dolby Digital, 3/2 (L,C,R,l,r) + LFE ch, ~448 kbps

D:\Смерть в сети.aviComplete name D:\Смерть в сети.aviFormat : AVIFormat/Info : Audio Video InterleaveFile size : 1.36 GiBDuration : 1h 13mnOverall bit rate : 2 657 KbpsWriting application : VirtualDubMod 1.5.10.2 (build 2540/release)Writing library : VirtualDubMod build 2540/releaseVideo #0ID : 0Format : MPEG-4 VisualFormat profile : Advanced [email protected] settings, BVOP : 1Format settings, QPel : NoFormat settings, GMC : No warppointsFormat settings, Matrix : Default (MPEG)Codec ID : XVIDCodec ID/Hint : XviDDuration : 1h 13mnBit rate : 2 200 KbpsWidth : 720 pixelsHeight : 384 pixelsDisplay aspect ratio : 1.875Frame rate : 25.000 fpsColor space : YUVChroma subsampling : 4:2:0Bit depth : 8 bitsScan type : ProgressiveCompression mode : LossyBits/(Pixel*Frame) : 0.318Stream size : 1.13 GiB (83%)Writing library : XviD 1.2.1 (UTC 2008-12-04)Audio #1ID : 1Format : AC-3Format/Info : Audio Coding 3Mode extension : CM (complete main)Codec ID : 2000Duration : 1h 13mnBit rate mode : ConstantBit rate : 448 KbpsChannel(s) : 6 channelsChannel positions : Front: L C R, Side: L R, LFESampling rate : 48.0 KHzBit depth : 16 bitsCompression mode : LossyStream size : 236 MiB (17%)Alignment : Split accross interleavesInterleave, duration : 40 ms (1.00 video frame)Interleave, preload duration : 500 ms

Смерть в сети скачать торрент

Скачать Смерть в сети через торрент http://pic.pb.wtf/images/6/yz6s8.jpg Скачать фильм Смерть в сети через торрент бесплантно в хорошем качестве Описание: Молодая женщина изучает привычки пользователей чата с использованием веб-камеры и невольно становится свидетелем жестокого ... 2014-05-13 16:10 10 10 3

Loading...

Loading...

Рекламный пират

13-05-2014 16:14 Смерть в сети Скачать торрент  

Приятного просмотра)

13-05-2014 16:36 Смерть в сети Скачать торрент  

ниче так фильм. рейтинг кинопоиска 5.3 занижен, адекватная оценка где то 6.7-7.3 из 10. ибо у фильма в основном положительные отзывы. "веселый парень" норм отмочил вначале))

13-05-2014 17:00 Смерть в сети Скачать торрент  

У вас повтор, пользуйтесь пожалуйста перед заливкой темы Поискомhttp://pb.wtf/topic/1344/+ неверно указан перевод.Двд качество в разы уступает WEB-DLRip

Дорогой пользователь! Огромная просьба, поблагодарите релизера, оцените раздачу и оставьте свои комментарий, если Вы скачали Смерть в сети через торрент бесплатно! Внесите свою лепту в развитие PiratBit!

Комментировать посты могут только пользователи прошедшие не сложную регистрацию

Смерть в сети через торрент Скачать бесплатно Смерть в сети Смерть в сети скачать торрент Смерть в сети смотреть онлайн Cкачать фильм Смерть в сети бесплатно Смерть в сети скачать торрент в хорошем качестве Смерть в сети смотреть онлайн бесплатно в хорошем качестве

Вы можете начинать темыВы можете отвечать на сообщенияВы не можете редактировать свои сообщенияВы не можете удалять свои сообщенияВы не можете голосовать в опросахВы не можете прикреплять файлы к сообщениямВы можете скачивать файлы

piratbit.ru


Смотрите также