Скачать зловещие мертвецы 3 через торрент бесплатно в хорошем качестве


Зловещие мертвецы 3: Армия тьмы 1992

www.kinovit.net

Название: Зловещие мертвецы 3: Армия тьмы / Army of Darkness (1992) HDRip от ImperiaFilm | КПК | P
Качество видео: HDRip| КПК
Перевод: Профессиональный (многоголосый, закадровый)- Киномания
Видео: h364 MPEG4 Video (h364), 480x272, 23.976fps, 499kbps, 0.160 Bits/Pixel
Аудио: AAC lc, 44100Hz, 2ch, 126kbps
Скачать

Загрузка начнется в течение 5 сек.

433.49 MB

Название: Зловещие мертвецы 3: Армия тьмы / Army of Darkness (1992) BDRip 720p | Director's Cut | P, P2, A
Качество видео: BDRip
Перевод: Профессиональный (многоголосый, закадровый), Профессиональный (двухголосый, закадровый), 4 x Авторский
Видео: AVC, 1280x720 (16:9), 6200 kbps, 23,976 fps, 0,281 bpp
Аудио: русский / AC3 / 5.1 / 48 kHz / 448 kbps / MVO ( Киномания )русский / AC3 / 5.1 / 48 kHz / 448 kbps / DVO ( П. Гланц и И. Королева )русский / AC3 / 5.1 / 48 kHz / 448 kbps / AVO ( Михалев )русский / AC3 / 5.1 / 48 kHz / 448 kbps / AVO ( Визгунов )русский / AC3 / 2.0 / 48 kHz / 192 kbps / AVO ( Прямостанов )русский / AC3 / 5.1 / 48 kHz / 448 kbps / AVO ( Гранкин )английский / AC3 / 5.1 / 48 kHz / 448 kbps
Скачать

Загрузка начнется в течение 5 сек.

6.11 GB

Название: Зловещие мертвецы 3: Армия тьмы / Army of Darkness (1992) HDRip от Scarabey | P | Киномания
Качество видео: HDRip
Перевод: Профессиональный (многоголосый, закадровый) [Киномания]
Видео: 688x368 (1.87:1), 23.976 fps, XviD build 73 ~1147 kbps avg, 0.19 bit/pixel
Аудио: 48 kHz, MPEG Layer 3, 2 ch, ~128.00 kbps avg
Скачать

Загрузка начнется в течение 5 сек.

743.63 MB

Название: Зловещие мертвецы 3: Армия тьмы / Army of Darkness (1992) DVDRip от Chesterfield
Качество видео: DVDRip
Перевод: Авторский (одноголосый закадровый) С.Белов (Зереницин)
Видео: XviD 720x432 (1.66:1), 29.970 fps, 2 382 kbps avg, 0.256 bit/pixel
Аудио: 44.1 kHz, AC3 Dolby Digital, 2/0 (L,R) ch, 224.00 kbps
Скачать

Загрузка начнется в течение 5 сек.

1.48 GB

Название: Зловещие мертвецы 3: Армия тьмы / Army of Darkness (1992) BDRip от HQCLUB | Director's Cut
Качество видео: BDRip (источник: Reanimator1911 / BDRemux / 1080p)
Перевод: профессиональный (многоголосый, закадровый) Киномания
Формат видео: AVI
Видео: 704x400 (1.76:1), 23.976 fps, XviD build 65 ~1707 kbps avg, 0.25 bit/pixel
Аудио: + Профессиональный (двухголосый, закадровый) П. Гланц и И. Королева48 kHz, AC3 Dolby Digital, 3/2 (L,C,R,l,r) + LFE ch, ~448 kbps avg (MVO.KINOMANIA)48 kHz, AC3 Dolby Digital, 3/2 (L,C,R,l,r) + LFE ch, ~448 kbps avg (DVO.GLANC) (отдельно)48 kHz, AC3 Dolby Digital, 3/2 (L,C,R,l,r) + LFE ch, ~448 kbps avg (AVO.MIHALEV) (отдельно)48 kHz, AC3 Dolby Digital, 3/2 (L,C,R,l,r) + LFE ch, ~448 kbps avg (AVO.VIZGUNOV) (отдельно)48 kHz, AC3 Dolby Digital, 3/2 (L,C,R,l,r) + LFE ch, ~448 kbps avg (AVO.GRANKIN) (отдельно)48 kHz, AC3 Dolby Digital, 2/0 (L,R), ~192 kbps avg (AVO.PRYAMOSTANOV) (отдельно)48 kHz, AC3 Dolby Digital, 3/2 (L,C,R,l,r) + LFE ch, ~448 kbps avg (ENG) (отдельно)
Скачать

Загрузка начнется в течение 5 сек.

1.46 GB

Название: Зловещие мертвецы 3: Армия тьмы / Army of Darkness (1992) BDRip-AVC от Youtracker | Режиссёрская версия | P2
Качество видео: BDRip-AVC // BDRemux 1080p
Перевод: Профессиональный (двухголосый закадровый) Петр Гланц и Инна Королева
Видео: h364 912x512 (16:9), 23.976 fps, h364, 1 963 Kbps, 0.175 bit/pixel
Аудио: AC3 48 kHz, AC3 Dolby Digital, 2/0 (L,R) ch, ~192.00 kbps avg
Скачать

Загрузка начнется в течение 5 сек.

1.45 GB

Название: Зловещие мертвецы 3: Армия тьмы / Army of Darkness (1992) BDRip-AVC от Youtracker | Театральная версия
Качество видео: BDRip-AVC // BDRemux 1080p
Перевод: Профессиональный (многоголосый закадровый) Киномания
Видео: h364 784x424 (16:9), 23.976 fps, h364, 1 151 Kbps, 0.144 bit/pixel
Аудио: MP3 48 kHz, MPEG Layer 3, 2 ch, ~128.00 kbps avg
Скачать

Загрузка начнется в течение 5 сек.

739.13 MB

Название: Зловещие мертвецы 3: Армия тьмы / Army of Darkness (1992) BDRip 720p от leonardo 59 | Лицензия
Качество видео: BDRip 720p Исходник: Blu-ray
Перевод: Профессиональный (многоголосый, закадровый) R5 | Лицензия
Формат видео: MKV Видео кодек: MPEG-4 AVC Аудио кодек: AC3
Видео: AVC, 1280x692 (1.85:1) at 23.976 fps, AVC at 7693 kbps avg, 0.362 bit/pixel
Аудио: AC3, 6ch 448 kbps - Профессиональный (многоголосый, закадровый) R5 | ЛицензияAC3, 6ch 384 kbps - Профессиональный (двухголосый, закадровый) Петр Гланц и Инна Королева (отдельно на disk yandex.ru)AC3, 2ch 224 kbps - Профессиональный (многоголосый, закадровый) (отдельно на disk yandex.ru)AC3, 6ch 384 kbps - Авторский (одноголосый, закадровый) Алексей Михалев (отдельно на disk yandex.ru)AC3, 2ch 192 kbps - Авторский (одноголосый, закадровый) Александр Готлиб (отдельно на disk yandex.ru)AC3, 2ch 192 kbps - Авторский (одноголосый, закадровый) Александр Марченко (отдельно на disk yandex.ru)AC3, 6ch 448 kbps - Оригинальная англоязычная дорожка (отдельно на disk yandex.ru)
Скачать

Загрузка начнется в течение 5 сек.

4.69 GB

Название: Зловещие мертвецы 3: Армия тьмы / Army of Darkness (1992) BDRip 1080p от Freeisland
Качество видео: BDRip
Перевод: Профессиональный (многоголосый закадровый)
Формат видео: MKV
Видео: AVC 1920x1038 (1.850:1), 23.976 fps, AVC, 12.1 Mbps
Аудио: AC3AC3, 448 Kbps, 48.0 KHz, 6 ch (DVO - П.Гланц и И.Королёва)AC3, 224 Kbps, 48.0 KHz, 2 ch (MVO)AC3, 448 Kbps, 48.0 KHz, 6 ch (AVO - А. Михалев)AC3, 192 Kbps, 48.0 KHz, 2 ch (AVO - А. Готлиб)AC3, 192 Kbps, 48.0 KHz, 2 ch (AVO - А. Марченко)AC3, 448 Kbps, 48.0 KHz, 6 ch (English)
Скачать

Загрузка начнется в течение 5 сек.

7.94 GB

Название: Зловещие мертвецы 3: Армия тьмы / Army of Darkness (1992) DVD9 от Youtracker | P | Лицензия
Качество видео: DVD9
Перевод: Профессиональный (многоголосый закадровый)
Видео: MPEG2 PAL 16:9 (720x576) VBR ~ 9533.76 kbps avg
Аудио: Русский / Английский AC-3, DD 5.1 (48,0 КГц; 448 Кбит/сек)
Скачать

Загрузка начнется в течение 5 сек.

5.87 GB

Название: Зловещие мертвецы 3: Армия тьмы / Army of Darkness (1992) 720p BDRip от HQCLUB
Качество видео: BDRip 720p (источник: Тарантиныч / Blu-Ray Remux / 1080p)
Перевод: Профессиональный (многоголосый, закадровый) + Профессиональный (двухголосый, закадровый) Гланц и Королёва + Авторский (одноголосый, закадровый) Михалев + Авторский (одноголосый, закадровый) Готлиб + А
Формат видео: mkv
Видео: 1280x692 (1.85:1), 23.976 fps, MPEG-4 AVC, crf, ~7065 kbps avg
Аудио: 48 kHz, AC3 Dolby Digital, 2/0 (L,R) ch, ~224.00 kbps avg |MVO|48 kHz/16-bit, DTS, 3/2 (L,C,R,l,r) + LFE ch, ~1536 kbps avg |Гланц и Королёва|48 kHz/24-bit, DTS, 3/2 (L,C,R,l,r) + LFE ch, ~1536 kbps avg |Михалев|48 kHz, AC3 Dolby Digital, 2/0 (L,R) ch, ~192.00 kbps avg |Готлиб|48 kHz, AC3 Dolby Digital, 2/0 (L,R) ch, ~192.00 kbps avg |Марченко|48 kHz/24-bit, DTS, 3/2 (L,C,R,l,r) + LFE ch, ~1536 kbps avg |Оригинал|
Скачать

Загрузка начнется в течение 5 сек.

7.04 GB

Армия тьмы (1992) через торрент

gig-torrent.net

30 июня 2016 11:04 Зловещие мертвецы 3: Армия тьмы / Army of Darkness (1992) HDRip от Scarabey | P .torrent   [Информация о файле (нажмите для просмотра)] Перевод: Профессиональный (многоголосый, закадровый) [Киномания]Видео: 688x368 (1.87:1), 23.976 fps, XviD build 73 ~1147 kbps avg, 0.19 bit/pixelАудио: 48 kHz, MPEG Layer 3, 2 ch, ~128.00 kbps avg 743,63 Mb 16 2
30 июня 2016 11:04 Зловещие мертвецы 3: Армия Тьмы / Evil Dead 3 : Army Of Darkness (1992) BDRip 1080p | P, P2, A | Режиссёрская версия .torrent   [Информация о файле (нажмите для просмотра)] Перевод: Профессиональный (многоголосый закадровый)Перевод: Профессиональный (двухголосый закадровый)Перевод: Авторский (одноголосый закадровый) x 4Субтитры: Русские, английскиеКачество: BDRip 1080pФормат: MKVВидео: MPEG4 Video (h364), 1920x1080, 23.976fps, 12.5 MbpsАудио #1: Русский: Dolby AC3, 48000 Hz, 6ch, 448 kbps - Многоголосый КиноманияАудио #2: Русский: Dolby AC3, 48000 Hz, 6ch, 448 kbps - Двухголосый Пётр Гланц и Инна КоролёваАудио #3: Русский: Dolby AC3, 48000 Hz, 6ch, 448 kbps - Одноголосый, МихалевАудио #4: Русский: Dolby AC3, 48000 Hz, 6ch, 448 kbps - Одноголосый, ВизгуновАудио #5: Русский: Dolby AC3, 48000 Hz, 6ch, 448 kbps - Одноголосый, ГранкинАудио #6: Русский: Dolby AC3, 48000 Hz, 2ch, 192 kbps - Одноголосый, ПрямостановАудио #7: Английский: Dolby AC3, 48000 Hz, 6ch, 448 kbps 10,35 Gb 11 1
30 июня 2016 11:04 Зловещие мертвецы 3: Армия тьмы / Army of Darkness (1992) DVDRip от Chesterfield .torrent   [Информация о файле (нажмите для просмотра)] Перевод: Авторский (одноголосый закадровый) С.Белов (Зереницин)Кодек: XviDКачество: DVDRipВидео: 720x432 (1.66:1), 29.970 fps, 2 382 kbps avg, 0.256 bit/pixelЗвук: 44.1 kHz, AC3 Dolby Digital, 2/0 (L,R) ch, 224.00 kbpsСубтитры: нет 1,48 Gb 9 3
30 июня 2016 11:04 Зловещие мертвецы 3: Армия тьмы / Army of Darkness (1992) BDRip от HQCLUB | Directors Cut .torrent   [Информация о файле (нажмите для просмотра)] Перевод: профессиональный (многоголосый, закадровый)КиноманияСубтитры: русские (2 вида), английскиеФормат: AVIКачество: BDRip (источник:Видео: 704x400 (1.76:1), 23.976 fps, XviD build 65 ~1707 kbps avg, 0.25 bit/pixelАудио #1: 48 kHz, AC3 Dolby Digital, 3/2 (L,C,R,l,r) + LFE ch, ~448 kbps avg (MVO.KINOMANIA)Аудио #2: 48 kHz, AC3 Dolby Digital, 2/0 (L,R), ~192 kbps avg (MVO.UKR.ICTV)(отдельно)Аудио #3: 48 kHz, AC3 Dolby Digital, 3/2 (L,C,R,l,r) + LFE ch, ~448 kbps avg (DVO.GLANC)(отдельно)Аудио #4: 48 kHz, AC3 Dolby Digital, 3/2 (L,C,R,l,r) + LFE ch, ~448 kbps avg (AVO.MIHALEV)(отдельно)Аудио #5: 48 kHz, AC3 Dolby Digital, 3/2 (L,C,R,l,r) + LFE ch, ~448 kbps avg (AVO.VIZGUNOV)(отдельно)Аудио #6: 48 kHz, AC3 Dolby Digital, 3/2 (L,C,R,l,r) + LFE ch, ~448 kbps avg (AVO.GRANKIN)(отдельно)Аудио #7: 48 kHz, AC3 Dolby Digital, 2/0 (L,R), ~192 kbps avg (AVO.PRYAMOSTANOV)(отдельно)Аудио #8: 48 kHz, AC3 Dolby Digital, 3/2 (L,C,R,l,r) + LFE ch, ~448 kbps avg (ENG)(отдельно) 1,46 Gb 35 2
30 июня 2016 11:04 Зловещие мертвецы 3: Армия тьмы / Army of Darkness (1992) BDRip-AVC от New-team | Режиссёрская версия | P2 .torrent   [Информация о файле (нажмите для просмотра)] Перевод: Профессиональный (двухголосый закадровый) Петр Гланц и Инна КоролеваВидео: 912x512 (16:9), 23.976 fps, h364, 1 963 Kbps, 0.175 bit/pixelАудио: 48 kHz, AC3 Dolby Digital, 2/0 (L,R) ch, ~192.00 kbps avg 1,45 Gb 13 7
30 июня 2016 11:04 Зловещие мертвецы 3: Армия тьмы / Army of Darkness (1992) BDRip-AVC от New-team | Театральная версия .torrent   [Информация о файле (нажмите для просмотра)] Перевод: Профессиональный (многоголосый закадровый) КиноманияВидео: 784x424 (16:9), 23.976 fps, h364, 1 151 Kbps, 0.144 bit/pixelАудио: 48 kHz, MPEG Layer 3, 2 ch, ~128.00 kbps avg 739,13 Mb 4 3
30 июня 2016 11:04 Зловещие мертвецы 3: Армия тьмы / Army of Darkness (1992) BDRip 720p от leonardo 59 | Лицензия .torrent   [Информация о файле (нажмите для просмотра)] Перевод: Профессиональный (многоголосый, закадровый) R5 | ЛицензияФормат: MKVВидео кодек: MPEG-4 AVC Аудио кодек: AC3Видео: AVC, 1280x692 (1.85:1) at 23.976 fps, AVC at 7693 kbps avg, 0.362 bit/pixelАудио: AC3, 6ch 448 kbps - Профессиональный (многоголосый, закадровый) R5 | ЛицензияСубтитры: русские, английские ================================================================Аудио: AC3, 6ch 384 kbps - Профессиональный (двухголосый, закадровый) Петр Гланц и Инна Королева(отдельно на disk yandex.ru)Аудио: AC3, 2ch 224 kbps - Профессиональный (многоголосый, закадровый)(отдельно на disk yandex.ru)Аудио: AC3, 6ch 384 kbps - Авторский (одноголосый, закадровый) Алексей Михалев(отдельно на disk yandex.ru)Аудио: AC3, 2ch 192 kbps - Авторский (одноголосый, закадровый) Александр Готлиб(отдельно на disk yandex.ru)Аудио: AC3, 2ch 192 kbps - Авторский (одноголосый, закадровый) Александр Марченко(отдельно на disk yandex.ru)Аудио: AC3, 6ch 448 kbps - Оригинальная англоязычная дорожка(отдельно на disk yandex.ru) 4,69 Gb 9 3
30 июня 2016 11:03 Зловещие мертвецы 3: Армия тьмы / Army of Darkness (1992) BDRip 1080p от Freeisland .torrent   [Информация о файле (нажмите для просмотра)] Перевод: Профессиональный (многоголосый закадровый)Субтитры: Russian (UTF-8), English (UTF-8)Качество: BDRipФормат: MKVВидео: 1920x1038 (1.850:1), 23.976 fps, AVC, 12.1 MbpsАудио #1: AC3, 448 Kbps, 48.0 KHz, 6 ch (DVO - П.Гланц и И.Королёва)Аудио #2: AC3, 224 Kbps, 48.0 KHz, 2 ch (MVO)Аудио #3: AC3, 448 Kbps, 48.0 KHz, 6 ch (AVO - А. Михалев)Аудио #4: AC3, 192 Kbps, 48.0 KHz, 2 ch (AVO - А. Готлиб)Аудио #5: AC3, 192 Kbps, 48.0 KHz, 2 ch (AVO - А. Марченко)Аудио #6: AC3, 448 Kbps, 48.0 KHz, 6 ch (English) 7,94 Gb 6 4
30 июня 2016 11:03 Зловещие мертвецы 3: Армия Тьмы / Evil Dead. Army of Darkness (1992) BDRemux 1080p .torrent   [Информация о файле (нажмите для просмотра)] Перевод: Профессиональный (двухголосый, закадровый) Петр Гланц и Инна Королева, Профессиональный (многоголосый, закадровый), Авторский (одноголосый, закадровый) Алексей Михалев, Авторский (одноголосый, закадровый) Александр Готлиб, Авторский (одноголосый, закадровый) Александр Марченко + оригиналСубтитры: Русские, английские Режиссер: Сэм Рэйми / Sam RaimiКачество: BDRemuxФормат: MKVВидео: MPEG-4 AVC Video 17,2 Mbps 1920 x 1080 / 23.976 fps / 16:9 / High Profile 4.1 / 0.345Аудио 1: (RUS): DTS Audio 5.1 / 48 kHz / 1510 kbps - [П.Гланц и И.Королёва]Аудио 2: (RUS): AC3 Dolby Digital, 48 kHz, 2/0 ch, ~224.00 kbps avg - [MVO]Аудио 3: (RUS): DTS-HD Master Audio 5.1 / 48 kHz / 3746 kbps / 24-bit (DTS Core: 5.1 / 48 kHz / 1509 kbps / 24-bit) - [Алексей Михалев]Аудио 4: (RUS): AC3 Dolby Digital, 48 kHz, 2/0 ch, ~192.00 kbps avg - [Александр Готлиб]Аудио 5: (RUS): AC3 Dolby Digital, 48 kHz, 2/0 ch, ~192.00 kbps avg - [Александр Марченко]Аудио 6: (ENG): DTS-HD Master Audio 5.1 / 48 kHz / 4182 kbps / 24-bit (DTS Core: 5.1 / 48 kHz / 1509 kbps / 24-bit) [оригинальная англоязычная дорожка]Субтитры: Russian, English 15,93 Gb 3 2
30 июня 2016 11:03 Зловещие мертвецы 3: Армия тьмы / Army of Darkness (1992) 720p BDRip от HQCLUB .torrent   [Информация о файле (нажмите для просмотра)] Перевод: Профессиональный (многоголосый, закадровый) + Профессиональный (двухголосый, закадровый)Гланц и Королёва + Авторский (одноголосый, закадровый) Михалев + Авторский (одноголосый, закадровый) Готлиб + Авторский (одноголосый, закадровый) Марченко + Оригинальная звуковая дорожкаСубтитры: Русские, Английские (SDH)Формат: mkvКачество: BDRip 720p (источник:Видео: 1280x692 (1.85:1), 23.976 fps, MPEG-4 AVC, crf, ~7065 kbps avgАудио #1: 48 kHz, AC3 Dolby Digital, 2/0 (L,R) ch, ~224.00 kbps avg|MVO|Аудио #2: 48 kHz/16-bit, DTS, 3/2 (L,C,R,l,r) + LFE ch, ~1536 kbps avg|Гланц и Королёва|Аудио #3: 48 kHz/24-bit, DTS, 3/2 (L,C,R,l,r) + LFE ch, ~1536 kbps avg|Михалев|Аудио #4: 48 kHz, AC3 Dolby Digital, 2/0 (L,R) ch, ~192.00 kbps avg|Готлиб|Аудио #5: 48 kHz, AC3 Dolby Digital, 2/0 (L,R) ch, ~192.00 kbps avg|Марченко|Аудио #6: 48 kHz/24-bit, DTS, 3/2 (L,C,R,l,r) + LFE ch, ~1536 kbps avg|Оригинал| 7,04 Gb 3 1
30 июня 2016 11:03 Зловещие мертвецы: Армия Тьмы / Evil Dead. Army of Darkness (1992) HDRip от Generalfilm .torrent   [Информация о файле (нажмите для просмотра)] Перевод: Одноголосый закадровый [Алексей Михалев]Кодек: XviDКачество: HDRipВидео: XviD, 720x400, 1011 Кб/секЗвук: АС3, 2ch, 192 Кб/секСубтитры: Нет 702,35 Mb 1 5
30 июня 2016 11:03 Зловещие мертвецы 3: Армия тьмы / Army of Darkness (1992) BDRip от HQCLUB .torrent   [Информация о файле (нажмите для просмотра)] Перевод: Профессиональный (двухголосый, закадровый)Гланц и КоролёваФормат: AVIКачество: BDRip (источник:Видео: 704x384 (1.83:1), 23.976 fps, XviD build 50 ~2111 kbps avg, 0.33 bit/pixelАудио #1: 48 kHz, AC3 Dolby Digital, 3/2 (L,C,R,l,r) + LFE ch, ~448 kbps avg (DVO.GLANC)Аудио #2: 48 kHz, AC3 Dolby Digital, 3/2 (L,C,R,l,r) + LFE ch, ~448 kbps avg (MVO.R5)(отдельно)Аудио #3: 48 kHz, AC3 Dolby Digital, 2/0 (L,R) ch, ~192 kbps avg (MVO)(отдельно)Аудио #4: 48 kHz, AC3 Dolby Digital, 3/2 (L,C,R,l,r) + LFE ch, ~448 kbps avg (AVO.MIHALEV)(отдельно)Аудио #5: 48 kHz, AC3 Dolby Digital, 2/0 (L,R) ch, ~192 kbps avg (AVO.MARCHENKO)(отдельно)Аудио #6: 48 kHz, AC3 Dolby Digital, 3/2 (L,C,R,l,r) + LFE ch, ~448 kbps avg (ENG)(отдельно) 1,45 Gb 3 1
30 июня 2016 11:03 Армия тьмы / Army of Darkness (1992) HDRip от HQ-ViDEO .torrent   1,46 Gb 3 1

Армия тьмы через торрент в хорошем качестве бесплатно BDRip-AVC

piratbit.ru

Размер: 739 MB | Добавлен: 4 года 3 мес. назад | Торрент скачан:251 раз
Реклама Дарим 3000 рублей за регистрацию, не упусти свой шанс получить шикарный бонус!!!

11-07-2013 04:50 Зловещие мертвецы 3: Армия тьмы Скачать торрент  

Зловещие мертвецы 3: Армия тьмы / Army of Darkness Страна: СШАЖанр: Комедия, мистика, ужасыГод выпуска: 1992Продолжительность: 01:20:56Перевод: Профессиональный (многоголосый закадровый) КиноманияCубтитры: нетОригинальная аудиодорожка: нет

Режиссер: Сэм Рэйми / Sam Raimi

В ролях: Брюс Кэмпбелл, Эмбет Дэвидц, Йен Эберкромби, Ричард Гроув, Тимоти Патрик Куилл, Майкл Эрл Рейд, Бриджит Фонда, Патриция Таллман, Тед Рейми, Дек Андерсон

Описание: По воле случая Эш переносится в далекое прошлое. Вместе со своим автомобилем и двухстволкой он оказывается в 13 веке. В этом мрачном средневековье люди страдают от сил тьмы. Бедняга Эш был пойман добропорядочными гражданами и помещен в местную тюрьму. Он с трудом смог убедить судью, в том, что он вовсе не шпион из враждебного королевства. Он решает помочь людям в битве с врагами. Чтобы победить, он должен восстановить Некрономикон, старинную магическую книгу, которая поможет ему вернуться в свое время. По неосторожности Эш выпустил на волю Армию тьмы. Как победить живых мертвецов?

Качество видео: BDRip-AVC // BDRemux 1080pФормат видео: MKVВидео кодек: h364Аудио кодек: MP3 Видео: 784x424 (16:9), 23.976 fps, h364, 1 151 Kbps, 0.144 bit/pixelАудио: 48 kHz, MPEG Layer 3, 2 ch, ~128.00 kbps avgРаздача от:

D:Зловещие мертвецы 3. Армия тьмы (1992. Army of Darkness)1.mkvGeneralUnique ID : 241571041838540264639630822333279126146 (0xB5BCE3EBD6C4D0189B91548F97184282)Complete name : D:Зловещие мертвецы 3. Армия тьмы (1992. Army of Darkness)1.mkvFormat : MatroskaFormat version : Version 2File size : 739 MiBDuration : 1h 20mnOverall bit rate : 1 277 KbpsEncoded date : UTC 2013-07-11 00:06:43Writing application : mkvmerge v5.6.0 ('Kenya Kane') built on Jun 29 2012 15:01:44Writing library : libebml v1.2.3 + libmatroska v1.3.0Video #1ID : 1Format : AVCFormat/Info : Advanced Video CodecFormat profile : [email protected] settings, CABAC : YesFormat settings, ReFrames : 9 framesCodec ID : V_MPEG4/ISO/AVCDuration : 1h 20mnBit rate : 1 151 KbpsWidth : 784 pixelsHeight : 424 pixelsDisplay aspect ratio : 16:9Frame rate : 23.976 fpsColor space : YUVChroma subsampling : 4:2:0Bit depth : 8 bitsScan type : ProgressiveBits/(Pixel*Frame) : 0.144Stream size : 650 MiB (88%)Writing library : x264 core 125 r2200 999b753Encoding settings : cabac=1 / ref=9 / deblock=1:-2:-2 / analyse=0x3:0x113 / me=umh / subme=9 / psy=1 / psy_rd=1.00:0.15 / mixed_ref=1 / me_range=32 / chroma_me=1 / trellis=1 / 8x8dct=1 / cqm=0 / deadzone=21,11 / fast_pskip=0 / chroma_qp_offset=-3 / threads=6 / lookahead_threads=1 / sliced_threads=0 / nr=0 / decimate=1 / interlaced=0 / bluray_compat=0 / constrained_intra=0 / bframes=9 / b_pyramid=2 / b_adapt=1 / b_bias=0 / direct=3 / weightb=1 / open_gop=0 / weightp=2 / keyint=240 / keyint_min=23 / scenecut=40 / intra_refresh=0 / rc_lookahead=60 / rc=2pass / mbtree=1 / bitrate=1151 / ratetol=1.0 / qcomp=0.60 / qpmin=0 / qpmax=69 / qpstep=4 / cplxblur=20.0 / qblur=0.5 / ip_ratio=1.40 / aq=1:1.00Default : YesForced : NoAudio #2ID : 2Format : MPEG AudioFormat version : Version 1Format profile : Layer 3Codec ID : A_MPEG/L3Codec ID/Hint : MP3 Duration : 1h 20mnBit rate mode : ConstantBit rate : 128 KbpsChannel(s) : 2 channelsSampling rate : 48.0 KHzCompression mode : LossyStream size : 74.1 MiB (10%)Writing library : LAME3.99rEncoding settings : -m s -V 4 -q 2 -lowpass 17 -b 128Default : YesForced : No

Скачать Зловещие мертвецы 3: Армия тьмы через торрент http://lostpic.net/orig_images/f/5/0/f505b10ef9673fbf250812e09a84f6ae.jpg Скачать фильм Зловещие мертвецы 3: Армия тьмы через торрент бесплантно в хорошем качестве Описание: По воле случая Эш переносится в далекое прошлое. Вместе со своим автомобилем и двухстволкой он оказывается в 13 веке. В этом ... 2013-07-11 04:50 9.9 10 24

Loading...

Loading...

Последний раз редактировалось: dexter lex (2013-07-11 08:16), всего редактировалось 1 раз

Рекламный пират

11-07-2013 05:03 Зловещие мертвецы 3: Армия тьмы Скачать торрент  

Охрененный фильм. Смотрел раз 10...

11-07-2013 05:05 Зловещие мертвецы 3: Армия тьмы Скачать торрент  

Кому нужно 1.45 гб? Еще не знаю, делать или нет :)

11-07-2013 05:46 Зловещие мертвецы 3: Армия тьмы Скачать торрент  

"...хороший,плохоооой....главный-у кого ружьё!.." :hunter: Классный фильм,спасибо!

11-07-2013 05:52 Зловещие мертвецы 3: Армия тьмы Скачать торрент  

нужно нужно делай

11-07-2013 06:31 Зловещие мертвецы 3: Армия тьмы Скачать торрент  

mikamika2

Завтра будет. :)

11-07-2013 06:42 Зловещие мертвецы 3: Армия тьмы Скачать торрент  

11-07-2013 09:34 Зловещие мертвецы 3: Армия тьмы Скачать торрент  

Один из самых шикарных персонажей в кино. "Bad...good...i'm just a guy with a gun"

11-07-2013 12:33 Зловещие мертвецы 3: Армия тьмы Скачать торрент  

dexter lex писал(а):

Кому нужно 1.45 гб? Еще не знаю, делать или нет :)

Сделай! Фильм отличный, Эш прикольный, Брюс великолепный)

Pекламный агент PB

11-07-2013 13:00 Зловещие мертвецы 3: Армия тьмы Скачать торрент  

всегда хотел посмотреть, но както руки не доходили =(, ща заценим.

11-07-2013 15:40 Зловещие мертвецы 3: Армия тьмы Скачать торрент  

худший из 3-х частей, ибо сам он должен быть страшным не менее 1-й и 2-й, а тут чисто комедия, разве что для того чтобы посмеяться.

Дорогой пользователь! Огромная просьба, поблагодарите релизера, оцените раздачу и оставьте свои комментарий, если Вы скачали Зловещие мертвецы 3: Армия тьмы через торрент бесплатно! Внесите свою лепту в развитие PiratBit!

Комментировать посты могут только пользователи прошедшие не сложную регистрацию

Зловещие мертвецы 3: Армия тьмы через торрент Скачать бесплатно Зловещие мертвецы 3: Армия тьмы Зловещие мертвецы 3: Армия тьмы скачать торрент Зловещие мертвецы 3: Армия тьмы смотреть онлайн Cкачать фильм Зловещие мертвецы 3: Армия тьмы бесплатно Зловещие мертвецы 3: Армия тьмы скачать торрент в хорошем качестве Зловещие мертвецы 3: Армия тьмы смотреть онлайн бесплатно в хорошем качестве

Вы не можете начинать темыВы не можете отвечать на сообщенияВы не можете редактировать свои сообщенияВы не можете удалять свои сообщенияВы не можете голосовать в опросахВы не можете прикреплять файлы к сообщениямВы можете скачивать файлы

Скачать Зловещие мертвецы 3: Армия тьмы через торрент

Категория: Фильмы 2234 0 Торрент добавлен: 22-04-2015 Рейтинг:

1993 / Ужасы, боевик, фэнтези, комедия / 80 мин.Страна: США Режиссер: Сэм Рэйми / Sam RaimiВ ролях: Брюс Кэмпбелл, Эмбет Дэвидц, Маркус Гилберт, Иан Эберкромби, Ричард Гроув, Тимоти Пэтрик Куилл, Майкл Эрл Рид, Бриджет Фонда

Эш оказывается в 13-ом веке, причем вместе с ним переноситься туда его любимая двустволка и автомобиль. Люди сразу же поймали странно одетого человека и упекли за решетку до суда. Во время судебного заседания он чудом смог разъяснить всю сложившуюся с ним ситуацию и доказать, что не является шпионом соседнего королевства. Как раз Эш оказался в такое время, когда шла кровавая борьба с хитрыми врагами, и он решает оказать помощь своим новым друзьям, а за одно и себе помочь вернуться домой. Ему необходимо было отыскать на кладбище книгу мертвых, но вместо того, чтобы с помощью нее вернуться в свое время, он выпускает силы тьмы, с которыми никто не знает, как сражаться.

Трейлер к фильму Зловещие мертвецы 3: Армия тьмы

Зловещие мертвецы 3: Армия тьмы скачать торрент

Качество: BDRemuxФормат: MKVВидео: MPEG-4 AVC Video 17,2 Mbps 1920 x 1080 / 23.976 fps / 16:9 / High Profile 4.1 / 0.345Аудио 1: (RUS): DTS Audio 5.1 / 48 kHz / 1510 kbps, Профессиональный (двухголосый, закадровый)

15,93 Gb

Качество: BDRipФормат: MKVВидео кодек: AVC Аудио кодеk: AC3Видео: 1920x1038 (1.850:1), 23.976 fps, AVC, 12.1 MbpsАудио #1: AC3, 448 Kbps, 48.0 KHz, 6 chПрофессиональный (многоголосый закадровый)

7,94 Gb

Качество видео: BDRip-AVC Формат видео: MKVВидео кодек: h364Аудио кодек: AC3Видео: 912x512 (16:9), 23.976 fps, h364, 1 963 Kbps, 0.175 bit/pixelАудио: 48 kHz, AC3 Dolby Digital, 2/0 (L,R) ch, ~192.00 kbps avgПрофессиональный (двухголосый закадровый)

Вы находитесь на странице, где можете совершенно бесплатно скачать фильм Зловещие мертвецы 3: Армия тьмы в хорошем качестве через торрент, в любом формате, который больше всего вам на данный момент подходит. Скачивание осуществляется через торрент, что означает максимально высокую скорость загрузки. Желаем Вам приятного просмотра!. Не забудь поделиться своими впечатлениями после того как посмотришь фильм Зловещие мертвецы 3: Армия тьмы.

Информация Посетители, находящиеся в группе Гости, не могут оставлять комментарии к данной публикации.

psp-gu.ru

Army Of Darkness (1992) BDRip 1080p

: , , , . , - ! - '', .

. 2100 : - , . - , . ( ) S-Mart . ? . , , , .

: BDRip 1080p: MKV : h364 : AC3: MPEG4 Video (h364), 1920x1080, 23.976fps, 12.5 Mbps : Softsub (SRT)

GeneralUnique ID : 185383037672123110091742137500662956691 (0x8B77796E9207CCC19F56D670B9CF0293)Complete name : F:Torrent 21992.Army.of.Darkness.renta23.mkvFormat : MatroskaFormat version : Version 4 / Version 2File size : 10.3 GiBDuration : 1h 36mnOverall bit rate : 15.4 MbpsEncoded date : UTC 2015-01-29 22:26:54Writing application : mkvmerge v7.1.0 ('Good Love') 32bit built on Jul 27 2014 12:59:18Writing library : libebml v1.3.0 + libmatroska v1.4.1DURATION : 01:30:18.794000000NUMBER_OF_FRAMES : 643NUMBER_OF_BYTES : 19432_STATISTICS_WRITING_APP : mkvmerge v7.1.0 ('Good Love') 32bit built on Jul 27 2014 12:59:18_STATISTICS_WRITING_DATE_UTC : 2015-01-29 22:26:54_STATISTICS_TAGS : BPS DURATION NUMBER_OF_FRAMES NUMBER_OF_BYTES

VideoID : 1Format : AVCFormat/Info : Advanced Video CodecFormat profile : [email protected]Format settings, CABAC : YesFormat settings, ReFrames : 3 framesCodec ID : V_MPEG4/ISO/AVCDuration : 1h 36mnBit rate : 12.5 MbpsWidth : 1 920 pixelsHeight : 1 080 pixelsDisplay aspect ratio : 16:9Frame rate mode : ConstantFrame rate : 23.976 fpsColor space : YUVChroma subsampling : 4:2:0Bit depth : 8 bitsScan type : ProgressiveBits/(Pixel*Frame) : 0.251Stream size : 8.20 GiB (79%)Title : 3: () / renta23Writing library : x264 core 125 r2208 d9d2288Encoding settings : cabac=1 / ref=4 / deblock=1:-1:-1 / analyse=0x3:0x133 / me=umh / subme=11 / psy=1 / psy_rd=1.25:0.30 / mixed_ref=1 / me_range=32 / chroma_me=1 / trellis=2 / 8x8dct=1 / cqm=0 / deadzone=21,11 / fast_pskip=0 / chroma_qp_offset=-4 / threads=12 / lookahead_threads=2 / sliced_threads=0 / nr=0 / decimate=1 / interlaced=0 / bluray_compat=0 / constrained_intra=0 / bframes=12 / b_pyramid=1 / b_adapt=2 / b_bias=0 / direct=3 / weightb=1 / open_gop=0 / weightp=2 / keyint=250 / keyint_min=23 / scenecut=40 / intra_refresh=0 / rc_lookahead=50 / rc=2pass / mbtree=1 / bitrate=12500 / ratetol=1.0 / qcomp=0.60 / qpmin=0 / qpmax=69 / qpstep=4 / cplxblur=20.0 / qblur=0.5 / ip_ratio=1.40 / aq=1:1.00Language : EnglishDefault : YesForced : No

Audio #1ID : 2Format : AC-3Format/Info : Audio Coding 3Mode extension : CM (complete main)Format settings, Endianness : BigCodec ID : A_AC3Duration : 1h 36mnBit rate mode : ConstantBit rate : 448 KbpsChannel(s) : 6 channelsChannel positions : Front: L C R, Side: L R, LFESampling rate : 48.0 KHzBit depth : 16 bitsCompression mode : LossyStream size : 309 MiB (3%)Title : Language : RussianDefault : YesForced : No

Audio #2ID : 3Format : AC-3Format/Info : Audio Coding 3Mode extension : CM (complete main)Format settings, Endianness : BigCodec ID : A_AC3Duration : 1h 36mnBit rate mode : ConstantBit rate : 448 KbpsChannel(s) : 6 channelsChannel positions : Front: L C R, Side: L R, LFESampling rate : 48.0 KHzBit depth : 16 bitsCompression mode : LossyStream size : 309 MiB (3%)Title : ϸ Language : RussianDefault : NoForced : No

Audio #3ID : 4Format : AC-3Format/Info : Audio Coding 3Mode extension : CM (complete main)Format settings, Endianness : BigCodec ID : A_AC3Duration : 1h 36mnBit rate mode : ConstantBit rate : 448 KbpsChannel(s) : 6 channelsChannel positions : Front: L C R, Side: L R, LFESampling rate : 48.0 KHzBit depth : 16 bitsCompression mode : LossyStream size : 309 MiB (3%)Title : , Language : RussianDefault : NoForced : No

Audio #4ID : 5Format : AC-3Format/Info : Audio Coding 3Mode extension : CM (complete main)Format settings, Endianness : BigCodec ID : A_AC3Duration : 1h 36mnBit rate mode : ConstantBit rate : 448 KbpsChannel(s) : 6 channelsChannel positions : Front: L C R, Side: L R, LFESampling rate : 48.0 KHzBit depth : 16 bitsCompression mode : LossyStream size : 309 MiB (3%)Title : , Language : RussianDefault : NoForced : No

Audio #5ID : 6Format : AC-3Format/Info : Audio Coding 3Mode extension : CM (complete main)Format settings, Endianness : BigCodec ID : A_AC3Duration : 1h 36mnBit rate mode : ConstantBit rate : 448 KbpsChannel(s) : 6 channelsChannel positions : Front: L C R, Side: L R, LFESampling rate : 48.0 KHzBit depth : 16 bitsCompression mode : LossyStream size : 309 MiB (3%)Title : , Language : RussianDefault : NoForced : No

Audio #6ID : 7Format : AC-3Format/Info : Audio Coding 3Mode extension : CM (complete main)Format settings, Endianness : BigCodec ID : A_AC3Duration : 1h 36mnBit rate mode : ConstantBit rate : 192 KbpsChannel(s) : 2 channelsChannel positions : Front: L RSampling rate : 48.0 KHzBit depth : 16 bitsCompression mode : LossyStream size : 132 MiB (1%)Title : , Language : RussianDefault : NoForced : No

Audio #7ID : 8Format : AC-3Format/Info : Audio Coding 3Mode extension : CM (complete main)Format settings, Endianness : BigCodec ID : A_AC3Duration : 1h 36mnBit rate mode : ConstantBit rate : 448 KbpsChannel(s) : 6 channelsChannel positions : Front: L C R, Side: L R, LFESampling rate : 48.0 KHzBit depth : 16 bitsCompression mode : LossyStream size : 309 MiB (3%)Language : EnglishDefault : NoForced : No

Text #1ID : 9Format : UTF-8Codec ID : S_TEXT/UTF8Codec ID/Info : UTF-8 Plain TextLanguage : RussianDefault : NoForced : No

Text #2ID : 10Format : UTF-8Codec ID : S_TEXT/UTF8Codec ID/Info : UTF-8 Plain TextLanguage : RussianDefault : NoForced : No

Text #3ID : 11Format : UTF-8Codec ID : S_TEXT/UTF8Codec ID/Info : UTF-8 Plain TextLanguage : EnglishDefault : NoForced : No

Menu00:00:00.000 : en:Chapter 0100:03:14.319 : en:Chapter 0200:09:24.272 : en:Chapter 0300:19:25.414 : en:Chapter 0400:23:13.100 : en:Chapter 0500:25:52.801 : en:Chapter 0600:31:41.232 : en:Chapter 0700:41:40.581 : en:Chapter 0800:50:15.303 : en:Chapter 0900:54:57.502 : en:Chapter 1000:59:03.998 : en:Chapter 1101:01:53.000 : en:Chapter 1201:12:45.319 : en:Chapter 1301:23:39.848 : en:Chapter 1401:26:31.436 : en:Chapter 1501:30:57.743 : en:Chapter 16

filmtor.net

Скачать фильм Зловещие мертвецы 2 (1987) через торрент

gig-torrent.net

30 июня 2016 11:00 Зловещие мертвецы 2 / Evil Dead II (1987) BDRip-AVC | P2, A .torrent   [Информация о файле (нажмите для просмотра)] Перевод: Профессианальный (двухголосый, закадровый) Гланц и КоролёваПеревод: Авторский (одноголосый, закадровый) МихалёвКодек: x264Качество: BDRip-AVCВидео: 768x416 at 23.976 fps, ~1871 kbpsАудио 1: 48 kHz, AAC, 2/0 (L,R) ch, ~132 kbps | Гланц и КоролёваАудио 2: 48 kHz, AAC, 2/0 (L,R) ch, ~132 kbps | МихалевАудио 3: 48 kHz, AAC, 2/0 (L,R) ch, ~132 kbps | АнглийскийВидео: Идентификатор : 1 Формат : AVC Формат/Информация : Advanced Video Codec Профиль формата : [email protected] Параметр CABAC формата : Да Параметр ReFrames формата : 11 кадров Идентификатор кодека : V_MPEG4/ISO/AVC Продолжительность : 1 ч. 24 м. Ширина : 768 пикселей Высота : 416 пикселей Соотношение сторон : 1,85:1 Режим частоты кадров : Постоянный Частота кадров : 23,976 кадра/сек Цветовое пространство : YUV Субдискретизация насыщенности : 4:2:0 Битовая глубина : 8 бит Тип развёртки : Прогрессивная Заголовок : MPEG-4 (AVC) Библиотека кодирования : x264 core 142 r2431 ac76440 Настройки программы : cabac=1 / ref=11 / deblock=1:-2:-1 / analyse=0x3:0x133 / me=umh / subme=10 / psy=1 / psy_rd=1.00:0.15 / mixed_ref=1 / me_range=32 / chroma_me=1 / trellis=2 / 8x8dct=1 / cqm=0 / deadzone=21,11 / fast_pskip=1 / chroma_qp_offset=-3 / threads=3 / lookahead_threads=1 / sliced_threads=0 / nr=0 / decimate=1 / interlaced=0 / bluray_compat=0 / constrained_intra=0 / bframes=10 / b_pyramid=2 / b_adapt=2 / b_bias=0 / direct=1 / weightb=1 / open_gop=0 / weightp=2 / keyint=240 / keyint_min=23 / scenecut=40 / intra_refresh=0 / rc=crf / mbtree=0 / crf=19.4 / qcomp=0.65 / qpmin=0 / qpmax=69 / qpstep=4 / ip_ratio=1.40 / pb_ratio=1.30 / aq=1:1.00 Язык : English Default : Нет Forced : НетАудио #1: Идентификатор : 2 Формат : AAC Формат/Информация : Advanced Audio Codec Профиль формата : LC Идентификатор кодека : A_AAC Продолжительность : 1 ч. 24 м. Каналы : 2 канала Расположение каналов : Front: L R Частота : 48,0 КГц Метод сжатия : С потерями Заголовок : П.Гланц - И.Королёва Язык : Russian Default : Нет Forced : НетАудио #2: Идентификатор : 3 Формат : AAC Формат/Информация : Advanced Audio Codec Профиль формата : LC Идентификатор кодека : A_AAC Продолжительность : 1 ч. 24 м. Каналы : 2 канала Расположение каналов : Front: L R Частота : 48,0 КГц Метод сжатия : С потерями Заголовок : А.Михалёв Язык : Russian Default : Нет Forced : НетАудио #3: Идентификатор : 4 Формат : AAC Формат/Информация : Advanced Audio Codec Профиль формата : LC Идентификатор кодека : A_AAC Продолжительность : 1 ч. 24 м. Каналы : 2 канала Расположение каналов : Front: L R Частота : 48,0 КГц Метод сжатия : С потерями Заголовок : Оригинал Язык : English Default : Нет Forced : Нет 1,38 Gb 31 3
30 июня 2016 11:00 Зловещие мертвецы 2 / Evil Dead II (1987) HDRip от Scarabey | Р .torrent   [Информация о файле (нажмите для просмотра)] Перевод: Профессиональный (многоголосый, закадровый)Видео: 624x336 (1.86:1), 23.976 fps, XviD build 73 ~1097 kbps avg, 0.22 bit/pixelАудио: 48 kHz, MPEG Layer 3, 2 ch, ~128.00 kbps avg 744,56 Mb 7 1
30 июня 2016 11:00 Зловещие мертвецы 2 / Evil Dead II (1987) HDRip от Scarabey | Р .torrent   [Информация о файле (нажмите для просмотра)] Перевод: Профессиональный (многоголосый, закадровый)Видео: 704x384 (1.83:1), 23.976 fps, XviD build 73 ~1999 kbps avg, 0.31 bit/pixelАудио: 48 kHz, AC3 Dolby Digital, 3/2 (L,C,R,l,r) + LFE ch, ~448.00 kbps avg 1,45 Gb 25 4
30 июня 2016 11:00 Зловещие мертвецы 2 / Evil Dead II (1987) BDRip 1080p от HDClub .torrent   [Информация о файле (нажмите для просмотра)] Перевод: Профессиональный (многоголосый, закадровый) CP-Digital + Профессиональный (многоголосый, закадровый) Киномания + Профессиональный (двухголосый, закадровый) П.Гланц и И.Королева + Авторский одноголосый А.Михалев + Авторский одноголосый Ю.Сербин + Авторский одноголосый А.Гаврилов + Одноголосый закадровый Зереницын/Белов + Одноголосый закадровый Неизвестный "Древний" + Одноголосый закадровый Неизвестный с немецкого + ОригиналКодек: x264Качество: BDRip 1080pВидео: 1920x1040 at 23.976 fps, [email protected], ~18668 kbpsАудио #01: Russian: 48 kHz, AC3, 3/2 (L,C,R,l,r) + LFE ch, ~448 kbps avg |CP Digital|Аудио #02: Russian: 48 kHz, AC3, 3/2 (L,C,R,l,r) + LFE ch, ~384 kbps avg |Киномания|Аудио #03: Russian: 48 kHz, DTS, 3/2 (L,C,R,l,r) ch, ~1509 kbps avg |П. Гланц и И. Королёва|Аудио #04: Russian: 48 kHz, DTS, 3/2 (L,C,R,l,r) ch, ~1509 kbps avg |А. Михалёв|Аудио #05: Russian: 48 kHz, DTS, 3/2 (L,C,R,l,r) ch, ~1509 kbps avg |Ю. Сербин|Аудио #06: Russian: 48 kHz, AC3, 2/0 (L,R) ch, ~192 kbps avg |А. Гаврилов|Аудио #07: Russian: 48 kHz, AC3, 2/0 (L,R) ch, ~192 kbps avg |Зереницын/Белов|Аудио #08: Russian: 48 kHz, AC3, 2/0 (L,R) ch, ~192 kbps avg |Неизвестный "Древний"|Аудио #09: Russian: 48 kHz, AC3, 2/0 (L,R) ch, ~192 kbps avg |Неизвестный с немецкого|Аудио #10: English: 48 kHz, DTS, 3/2 (L,C,R,l,r) ch, ~1509 kbps avgАудио #11: Ukrainian: 48 kHz, AC3, 2/0 (L,R) ch, ~192 kbps avg |Многоголосый закадровый, 2+2|Субтитры: Russian, EnglishВидео: Идентификатор : 1 Формат : AVC Формат/Информация : Advanced Video Codec Профиль формата : [email protected] Параметр CABAC формата : Да Параметр ReFrames формата : 4 кадра Идентификатор кодека : V_MPEG4/ISO/AVC Продолжительность : 1 ч. 24 м. Битрейт : 18,0 Мбит/сек Ширина : 1920 пикселей Высота : 1040 пикселей Соотношение сторон : 1,85:1 Режим частоты кадров : Постоянный Частота кадров : 23,976 кадра/сек Цветовое пространство : YUV Субдискретизация насыщенности : 4:2:0 Битовая глубина : 8 бит Тип развёртки : Прогрессивная Бит/(Пиксели*Кадры) : 0.377 Размер потока : 10,7 Гбайт (68%) Заголовок : Release for HDCLUB Библиотека кодирования : x264 core 142 r2431+42 c69a006 tMod [[email protected]:2:0 X86_64] Настройки программы : cabac=1 / ref=4 / deblock=1:-2:-2 / analyse=0x3:0x133 / me=umh / subme=11 / psy=1 / fade_compensate=0.00 / psy_rd=1.00:0.00 / mixed_ref=1 / me_range=32 / chroma_me=1 / trellis=2 / 8x8dct=1 / cqm=0 / deadzone=21,11 / fast_pskip=1 / chroma_qp_offset=-2 / threads=12 / lookahead_threads=2 / sliced_threads=0 / nr=0 / decimate=1 / interlaced=0 / bluray_compat=0 / constrained_intra=0 / fgo=0 / bframes=8 / b_pyramid=2 / b_adapt=2 / b_bias=0 / direct=1 / weightb=1 / open_gop=0 / weightp=2 / keyint=250 / keyint_min=23 / scenecut=40 / intra_refresh=0 / rc_lookahead=60 / rc=crf / mbtree=0 / crf=18.0000 / qcomp=0.70 / qpmin=0:0:0 / qpmax=69:69:69 / qpstep=4 / vbv_maxrate=62500 / vbv_bufsize=78125 / crf_max=0.0 / nal_hrd=none / filler=0 / ip_ratio=1.40 / pb_ratio=1.30 / aq=1:0.80 / aq-sensitivity=10.00 / aq-factor=1.00:1.00:1.00 / aq2=0 / aq3=0 Язык : English Default : Да Forced : Нет Основные цвета : BT.709 Характеристики трансфера : BT.709 Коэффициенты матрицы : BT.709Аудио #1: Идентификатор : 2 Формат : AC-3 Формат/Информация : Audio Coding 3 Расширение режима : CM (complete main) Параметр Endianness формата : Big Идентификатор кодека : A_AC3 Продолжительность : 1 ч. 24 м. Вид битрейта : Постоянный Битрейт : 448 Кбит/сек Каналы : 6 каналов Расположение каналов : Front: L C R, Side: L R, LFE Частота : 48,0 КГц Битовая глубина : 16 бит Метод сжатия : С потерями Размер потока : 271 Мбайт (2%) Заголовок : MVO, CP Digital Язык : Russian Default : Да Forced : НетАудио #2: Идентификатор : 3 Формат : AC-3 Формат/Информация : Audio Coding 3 Расширение режима : CM (complete main) Параметр Endianness формата : Big Идентификатор кодека : A_AC3 Продолжительность : 1 ч. 24 м. Вид битрейта : Постоянный Битрейт : 384 Кбит/сек Каналы : 6 каналов Расположение каналов : Front: L C R, Side: L R, LFE Частота : 48,0 КГц Битовая глубина : 16 бит Метод сжатия : С потерями Размер потока : 233 Мбайт (1%) Заголовок : MVO, Киномания Язык : Russian Default : Нет Forced : НетАудио #3: Идентификатор : 4 Формат : DTS Формат/Информация : Digital Theater Systems Режим : 16 Параметр Endianness формата : Big Идентификатор кодека : A_DTS Продолжительность : 1 ч. 24 м. Вид битрейта : Постоянный Битрейт : 1509 Кбит/сек Каналы : 6 каналов Расположение каналов : Front: L C R, Side: L R, LFE Частота : 48,0 КГц Битовая глубина : 24 бит Метод сжатия : С потерями Размер потока : 914 Мбайт (6%) Заголовок : DVO, Гланц и Королёва Язык : Russian Default : Нет Forced : НетАудио #4: Идентификатор : 5 Формат : DTS Формат/Информация : Digital Theater Systems Режим : 16 Параметр Endianness формата : Big Идентификатор кодека : A_DTS Продолжительность : 1 ч. 24 м. Вид битрейта : Постоянный Битрейт : 1509 Кбит/сек Каналы : 6 каналов Расположение каналов : Front: L C R, Side: L R, LFE Частота : 48,0 КГц Битовая глубина : 24 бит Метод сжатия : С потерями Размер потока : 914 Мбайт (6%) Заголовок : VO, Михалёв Язык : Russian Default : Нет Forced : НетАудио #5: Идентификатор : 6 Формат : DTS Формат/Информация : Digital Theater Systems Режим : 16 Параметр Endianness формата : Big Идентификатор кодека : A_DTS Продолжительность : 1 ч. 24 м. Вид битрейта : Постоянный Битрейт : 1509 Кбит/сек Каналы : 6 каналов Расположение каналов : Front: L C R, Side: L R, LFE Частота : 48,0 КГц Битовая глубина : 24 бит Метод сжатия : С потерями Размер потока : 914 Мбайт (6%) Заголовок : VO, Сербин Язык : Russian Default : Нет Forced : НетАудио #6: Идентификатор : 7 Формат : AC-3 Формат/Информация : Audio Coding 3 Расширение режима : CM (complete main) Параметр Endianness формата : Big Идентификатор кодека : A_AC3 Продолжительность : 1 ч. 24 м. Вид битрейта : Постоянный Битрейт : 192 Кбит/сек Каналы : 2 канала Расположение каналов : Front: L R Частота : 48,0 КГц Битовая глубина : 16 бит Метод сжатия : С потерями Размер потока : 116 Мбайт (1%) Заголовок : VO, Гаврилов Язык : Russian Default : Нет Forced : НетАудио #7: Идентификатор : 8 Формат : AC-3 Формат/Информация : Audio Coding 3 Расширение режима : CM (complete main) Параметр Endianness формата : Big Идентификатор кодека : A_AC3 Продолжительность : 1 ч. 24 м. Вид битрейта : Постоянный Битрейт : 192 Кбит/сек Каналы : 2 канала Расположение каналов : Front: L R Частота : 48,0 КГц Битовая глубина : 16 бит Метод сжатия : С потерями Размер потока : 116 Мбайт (1%) Заголовок : VO, Зереницын/Белов Язык : Russian Default : Нет Forced : НетАудио #8: Идентификатор : 9 Формат : AC-3 Формат/Информация : Audio Coding 3 Расширение режима : CM (complete main) Параметр Endianness формата : Big Идентификатор кодека : A_AC3 Продолжительность : 1 ч. 24 м. Вид битрейта : Постоянный Битрейт : 192 Кбит/сек Каналы : 2 канала Расположение каналов : Front: L R Частота : 48,0 КГц Битовая глубина : 16 бит Метод сжатия : С потерями Размер потока : 116 Мбайт (1%) Заголовок : VO, Неизвестный "Древний" Язык : Russian Default : Нет Forced : НетАудио #9: Идентификатор : 10 Формат : AC-3 Формат/Информация : Audio Coding 3 Расширение режима : CM (complete main) Параметр Endianness формата : Big Идентификатор кодека : A_AC3 Продолжительность : 1 ч. 24 м. Вид битрейта : Постоянный Битрейт : 192 Кбит/сек Каналы : 2 канала Расположение каналов : Front: L R Частота : 48,0 КГц Битовая глубина : 16 бит Метод сжатия : С потерями Размер потока : 116 Мбайт (1%) Заголовок : VO, Неизвестный с немецкого Язык : Russian Default : Нет Forced : НетАудио #10: Идентификатор : 11 Формат : DTS Формат/Информация : Digital Theater Systems Режим : 16 Параметр Endianness формата : Big Идентификатор кодека : A_DTS Продолжительность : 1 ч. 24 м. Вид битрейта : Постоянный Битрейт : 1509 Кбит/сек Каналы : 6 каналов Расположение каналов : Front: L C R, Side: L R, LFE Частота : 48,0 КГц Битовая глубина : 24 бит Метод сжатия : С потерями Размер потока : 914 Мбайт (6%) Язык : English Default : Нет Forced : НетАудио #11: Идентификатор : 12 Формат : AC-3 Формат/Информация : Audio Coding 3 Расширение режима : CM (complete main) Параметр Endianness формата : Big Идентификатор кодека : A_AC3 Продолжительность : 1 ч. 24 м. Вид битрейта : Постоянный Битрейт : 192 Кбит/сек Каналы : 2 канала Расположение каналов : Front: L R Частота : 48,0 КГц Битовая глубина : 16 бит Метод сжатия : С потерями Размер потока : 116 Мбайт (1%) Заголовок : MVO, 2+2 Язык : Ukrainian Default : Нет Forced : Нет 15,6 Gb 3 1
30 июня 2016 11:00 Зловещие мертвецы 2 / Evil Dead II (1987) BDRip | P, P2, A .torrent   [Информация о файле (нажмите для просмотра)] Перевод: Профессиональный (многоголосый, закадровый) (R5) Профессиональный (двухголосый, закадровый) Гланц и Королёва [отдельно] Авторский (Сербин Юрий) [отдельно]Кодек: XvidКачество: BDRipВидео: 656x352 (1.86:1), 23.976 fps, Xvid build 65 ~1099 kbps avg, 0.20 bit/pixel 900,05 Mb 1 4
30 июня 2016 11:00 Зловещие мертвецы 2 / Evil Dead II (1987) BDRip-AVC .torrent   [Информация о файле (нажмите для просмотра)] Перевод: Профессиональный (многоголосый закадровый)Кодек: MPEG-4 AVCКачество: BDRip-AVC - исх. BDRemux 1080pВидео: 1152x624 (1.85:1), 23.976 fps, ~3331 kbps, 0.193 bit/pixelЗвук: Russian, Audio Coding 3, 48 kHz, DD 5.1 ch, CBR 384 kbps | многоголосый закадровый, Киномания 2,19 Gb 4 1
30 июня 2016 11:00 Зловещие мертвецы 2 / Evil Dead II (1987) HDRip-AVC от New-Team .torrent   [Информация о файле (нажмите для просмотра)] Перевод: Профессиональный (многоголосый закадровый)Видео: 800x434 (16:9), 23.976 fps, h364 ~ 1 170 Kbps, 0.141 bit/pixelАудио: 48 KHz / 24 KHz, AAC HE-AAC / LC, 2/0 (L,R) ch, ~64 kbpsСубтитры: SoftSub (srt) 744,78 Mb 2 2
30 июня 2016 11:00 Зловещие мертвецы 2 / Evil Dead II (1987) HDRip от New-Team .torrent   [Информация о файле (нажмите для просмотра)] Перевод: Профессиональный (многоголосый закадровый)Видео: 704x384 (1.83:1), 23.976 fps, XviD build 73 ~2080 kbps avg, 0.32 bit/pixelАудио: 48 kHz, AC3 Dolby Digital, 3/2 (L,C,R,l,r) + LFE ch, ~384 kbps 1,46 Gb 4 2
30 июня 2016 11:00 Зловещие мертвецы 2 / Evil Dead 2 (1987) BDRip 720p от HDClub | 25th Anniversary Edition .torrent   [Информация о файле (нажмите для просмотра)] Перевод: профессиональный (многоголосый)x3, профессиональный (двухголосый), авторский (одноголосый) x3, оригиналКодек: x264Качество: BDRip 720pВидео: 1280x694, 8180 Кбит/сек, 23.976 кадр/сек, 0.384 бит/пиксАудио 1: AC3, 448 Кбит/сек, 6 каналов, 48.0 КГц - многоголосый (CP DIGITAL)Аудио 2: AC3, 384 Кбит/сек, 6 каналов, 48.0 КГц - многоголосый (Киномания)Аудио 3: DTS, 1536 Кбит/сек, 6 каналов, 48.0 КГц - двухголосый (Гланц и Королева)Аудио 4: DTS, 1536 Кбит/сек, 6 каналов, 48.0 КГц - авторский (Михалев)Аудио 5: DTS, 1536 Кбит/сек, 6 каналов, 48.0 КГц - авторский (Сербин)Аудио 6: AC3, 128 Кбит/сек, 2 канала, 48.0 КГц - авторский (Гаврилов)Аудио 7: AC3, 192 Кбит/сек, 2 канала, 48.0 КГц - многоголосый (украинский)Аудио 8: DTS, 1536 Кбит/сек, 6 каналов, 48.0 КГц - оригинал (английский)Аудио 9: AC3, 224 Кбит/сек, 2 канала, 48.0 КГц - комментарии (английский)Субтитры: русские, английскиеВидео: Идентификатор : 1 Формат : AVC Формат/Информация : Advanced Video Codec Профиль формата : [email protected] Параметр CABAC формата : Да Параметр ReFrames формата : 9 кадров Идентификатор кодека : V_MPEG4/ISO/AVC Продолжительность : 1 ч. 24 м. Битрейт : 8179 Кбит/сек Ширина : 1280 пикс. Высота : 694 пикс. Соотношение сторон : 16:9 Частота кадров : 23,976 кадр/сек Цветовое пространство : YUV Подвыборка цветности : 4:2:0 Битовая глубина : 8 бит Тип развёртки : Прогрессивная Бит/(Пиксели*Кадры) : 0.384 Размер потока : 4,81 Гбайт (51%) Заголовок : Release for HDCLUB Библиотека кодирования : x264 core 120 r2145 748fe16 Настройки программы : cabac=1 / ref=9 / deblock=1:-3:-3 / analyse=0x3:0x113 / me=umh / subme=10 / psy=1 / psy_rd=1.20:0.10 / mixed_ref=1 / me_range=48 / chroma_me=1 / trellis=2 / 8x8dct=1 / cqm=0 / deadzone=21,11 / fast_pskip=0 / chroma_qp_offset=-3 / threads=6 / sliced_threads=0 / nr=0 / decimate=1 / interlaced=0 / bluray_compat=0 / constrained_intra=0 / bframes=10 / b_pyramid=2 / b_adapt=2 / b_bias=0 / direct=1 / weightb=1 / open_gop=0 / weightp=2 / keyint=240 / keyint_min=23 / scenecut=40 / intra_refresh=0 / rc=crf / mbtree=0 / crf=18.0 / qcomp=0.60 / qpmin=10 / qpmax=51 / qpstep=4 / ip_ratio=1.40 / pb_ratio=1.30 / aq=1:0.80 Язык : EnglishАудио #1: Идентификатор : 2 Формат : AC-3 Формат/Информация : Audio Coding 3 Расширение режима : CM (complete main) Идентификатор кодека : A_AC3 Продолжительность : 1 ч. 24 м. Вид битрейта : Постоянный Битрейт : 448 Кбит/сек Каналы : 6 каналов Расположение каналов : Front: L C R, Side: L R, LFE Частота : 48,0 КГц Битовая глубина : 16 бит Метод сжатия : С потерями Размер потока : 270 Мбайт (3%) Заголовок : Многоголосый, R5 Язык : RussianАудио #2: Идентификатор : 3 Формат : AC-3 Формат/Информация : Audio Coding 3 Расширение режима : CM (complete main) Идентификатор кодека : A_AC3 Продолжительность : 1 ч. 24 м. Вид битрейта : Постоянный Битрейт : 384 Кбит/сек Каналы : 6 каналов Расположение каналов : Front: L C R, Side: L R, LFE Частота : 48,0 КГц Битовая глубина : 16 бит Метод сжатия : С потерями Размер потока : 231 Мбайт (2%) Заголовок : Многоголосый, Киномания Язык : RussianАудио #3: Идентификатор : 4 Формат : DTS Формат/Информация : Digital Theater Systems Идентификатор кодека : A_DTS Продолжительность : 1 ч. 24 м. Вид битрейта : Постоянный Битрейт : 1510 Кбит/сек Каналы : 6 каналов Расположение каналов : Front: L C R, Side: L R, LFE Частота : 48,0 КГц Битовая глубина : 24 бит Метод сжатия : С потерями Размер потока : 910 Мбайт (9%) Заголовок : Двухголосый, Гланц и Королева Язык : RussianАудио #4: Идентификатор : 5 Формат : DTS Формат/Информация : Digital Theater Systems Идентификатор кодека : A_DTS Продолжительность : 1 ч. 24 м. Вид битрейта : Постоянный Битрейт : 1510 Кбит/сек Каналы : 6 каналов Расположение каналов : Front: L C R, Side: L R, LFE Частота : 48,0 КГц Битовая глубина : 24 бит Метод сжатия : С потерями Размер потока : 910 Мбайт (9%) Заголовок : Одноголосый, Михалев Язык : RussianАудио #5: Идентификатор : 6 Формат : DTS Формат/Информация : Digital Theater Systems Идентификатор кодека : A_DTS Продолжительность : 1 ч. 24 м. Вид битрейта : Постоянный Битрейт : 1510 Кбит/сек Каналы : 6 каналов Расположение каналов : Front: L C R, Side: L R, LFE Частота : 48,0 КГц Битовая глубина : 24 бит Метод сжатия : С потерями Размер потока : 910 Мбайт (9%) Заголовок : Одноголосый, Сербин Язык : RussianАудио #6: Идентификатор : 7 Формат : AC-3 Формат/Информация : Audio Coding 3 Расширение режима : CM (complete main) Идентификатор кодека : A_AC3 Продолжительность : 1 ч. 24 м. Вид битрейта : Постоянный Битрейт : 128 Кбит/сек Каналы : 2 канала Расположение каналов : Front: L R Частота : 48,0 КГц Битовая глубина : 16 бит Метод сжатия : С потерями Размер потока : 77,2 Мбайт (1%) Заголовок : Одноголосый, Гаврилов Язык : RussianАудио #7: Идентификатор : 8 Формат : AC-3 Формат/Информация : Audio Coding 3 Расширение режима : CM (complete main) Идентификатор кодека : A_AC3 Продолжительность : 1 ч. 24 м. Вид битрейта : Постоянный Битрейт : 192 Кбит/сек Каналы : 2 канала Расположение каналов : Front: L R Частота : 48,0 КГц Битовая глубина : 16 бит Метод сжатия : С потерями Размер потока : 116 Мбайт (1%) Заголовок : Многоголосый, 2+2 Язык : UkrainianАудио #8: Идентификатор : 9 Формат : DTS Формат/Информация : Digital Theater Systems Идентификатор кодека : A_DTS Продолжительность : 1 ч. 24 м. Вид битрейта : Постоянный Битрейт : 1510 Кбит/сек Каналы : 6 каналов Расположение каналов : Front: L C R, Side: L R, LFE Частота : 48,0 КГц Битовая глубина : 24 бит Метод сжатия : С потерями Размер потока : 910 Мбайт (9%) Заголовок : Оригинал Язык : EnglishАудио #9: Идентификатор : 10 Формат : AC-3 Формат/Информация : Audio Coding 3 Расширение режима : CM (complete main) Идентификатор кодека : A_AC3 Продолжительность : 1 ч. 24 м. Вид битрейта : Постоянный Битрейт : 224 Кбит/сек Каналы : 2 канала Расположение каналов : Front: L R Частота : 48,0 КГц Битовая глубина : 16 бит Метод сжатия : С потерями Размер потока : 135 Мбайт (1%) Заголовок : Комментарии Язык : English 9,37 Gb 5 1
30 июня 2016 11:00 Зловещие мертвецы 2 / Evil Dead II (1987) BDRip-AVC от MediaClub | P, P2, A, L1 .torrent   [Информация о файле (нажмите для просмотра)] Перевод: Профессиональный многоголосый, профессиональный двухголосый, авторский одноголосый, любительский одноголосыйКодек: x264Качество: BDRip-AVCВидео: MPEG-4 AVC, 2000 Кбит/с, 1024x556, 23.976 кадр/сЗвук: 01. Русский (AC3, 6 ch, 448 Кбит/с) / Профессиональный многоголосый (CP Digital) 02. Русский (AC3, 6 ch, 384 Кбит/с) / Профессиональный многоголосый (Киномания) 03. Русский (АС3, 2 ch, 192 Кбит/с) / Авторский одноголосый (Андрей Гаврилов) 04. Английский (AC3, 6 ch, 448 Кбит/с) 05. Русский (AC3, 6 ch, 448 Кбит/с) / Профессиональный двухголосый (Петр Гланц и Инна Королева) - отдельно 06. Русский (AC3, 6 ch, 448 Кбит/с) / Авторский одноголосый (Алексей Михалев) - отдельно 07. Русский (AC3, 6 ch, 448 Кбит/с) / Авторский одноголосый (Юрий Сербин) - отдельно 08. Русский (АС3, 2 ch, 192 Кбит/с) / Любительский одноголосый (Зереницын/Белов) - отдельно 09. Русский (АС3, 2 ch, 192 Кбит/с) / Любительский одноголосый (Неизвестный "Древний") - отдельно 10. Русский (АС3, 2 ch, 192 Кбит/с) / Любительский одноголосый (Неизвестный с немецкого) - отдельно 11. Русский (AC3, 6 ch, 448 Кбит/с) / Любительский одноголосый (Jakob Bellmann) - отдельно 12. Украинский (АС3, 2 ch, 192 Кбит/с) / Профессиональный многоголосый (2+2) - отдельноСубтитры: Русские, английскиеВидео: Идентификатор : 1 Формат : AVC Формат/Информация : Advanced Video Codec Профиль формата : [email protected] Параметр CABAC формата : Да Параметр ReFrames формата : 8 кадров Идентификатор кодека : V_MPEG4/ISO/AVC Продолжительность : 1 ч. 24 м. Битрейт : 1858 Кбит/сек Номинальный битрейт : 2000 Кбит/сек Ширина : 1024 пикселя Высота : 556 пикселей Соотношение сторон : 1,85:1 Режим частоты кадров : Постоянный Частота кадров : 23,976 кадра/сек Цветовое пространство : YUV Субдискретизация насыщенности : 4:2:0 Битовая глубина : 8 бит Тип развёртки : Прогрессивная Бит/(Пиксели*Кадры) : 0.136 Размер потока : 1,10 Гбайт (31%) Заголовок : Zloveschie.mertvecy.2.1987.x264.BDRip(AVC)-mediaClub.mkv Библиотека кодирования : x264 core 133 r2334 a3ac64b Настройки программы : cabac=1 / ref=8 / deblock=1:-2:-2 / analyse=0x3:0x133 / me=umh / subme=11 / psy=1 / psy_rd=1.00:0.00 / mixed_ref=1 / me_range=48 / chroma_me=1 / trellis=2 / 8x8dct=1 / cqm=0 / deadzone=21,11 / fast_pskip=0 / chroma_qp_offset=-2 / threads=3 / lookahead_threads=1 / sliced_threads=0 / nr=0 / decimate=0 / interlaced=0 / bluray_compat=0 / constrained_intra=0 / bframes=8 / b_pyramid=2 / b_adapt=2 / b_bias=0 / direct=3 / weightb=1 / open_gop=0 / weightp=2 / keyint=240 / keyint_min=23 / scenecut=40 / intra_refresh=0 / rc=2pass / mbtree=0 / bitrate=2000 / ratetol=1.0 / qcomp=0.60 / qpmin=10 / qpmax=51 / qpstep=4 / cplxblur=20.0 / qblur=0.5 / ip_ratio=1.40 / pb_ratio=1.30 / aq=2:1.00 Язык : English Default : Да Forced : НетАудио #1: Идентификатор : 2 Формат : AC-3 Формат/Информация : Audio Coding 3 Расширение режима : CM (complete main) Параметр Endianness формата : Big Идентификатор кодека : A_AC3 Продолжительность : 1 ч. 24 м. Вид битрейта : Постоянный Битрейт : 448 Кбит/сек Каналы : 6 каналов Расположение каналов : Front: L C R, Side: L R, LFE Частота : 48,0 КГц Битовая глубина : 16 бит Метод сжатия : С потерями Размер потока : 271 Мбайт (7%) Заголовок : Профессиональный многоголосый (CP Digital) Язык : Russian Default : Да Forced : НетАудио #2: Идентификатор : 3 Формат : AC-3 Формат/Информация : Audio Coding 3 Расширение режима : CM (complete main) Параметр Endianness формата : Big Идентификатор кодека : A_AC3 Продолжительность : 1 ч. 24 м. Вид битрейта : Постоянный Битрейт : 384 Кбит/сек Каналы : 6 каналов Расположение каналов : Front: L C R, Side: L R, LFE Частота : 48,0 КГц Битовая глубина : 16 бит Метод сжатия : С потерями Размер потока : 233 Мбайт (6%) Заголовок : Профессиональный многоголосый (Киномания) Язык : Russian Default : Нет Forced : НетАудио #3: Идентификатор : 4 Формат : AC-3 Формат/Информация : Audio Coding 3 Расширение режима : CM (complete main) Параметр Endianness формата : Big Идентификатор кодека : A_AC3 Продолжительность : 1 ч. 24 м. Вид битрейта : Постоянный Битрейт : 192 Кбит/сек Каналы : 2 канала Расположение каналов : Front: L R Частота : 48,0 КГц Битовая глубина : 16 бит Метод сжатия : С потерями Размер потока : 116 Мбайт (3%) Заголовок : Авторский одноголосый (Андрей Гаврилов) Язык : Russian Default : Нет Forced : НетАудио #4: Идентификатор : 5 Формат : AC-3 Формат/Информация : Audio Coding 3 Расширение режима : CM (complete main) Параметр Endianness формата : Big Идентификатор кодека : A_AC3 Продолжительность : 1 ч. 24 м. Вид битрейта : Постоянный Битрейт : 448 Кбит/сек Каналы : 6 каналов Расположение каналов : Front: L C R, Side: L R, LFE Частота : 48,0 КГц Битовая глубина : 16 бит Метод сжатия : С потерями Размер потока : 271 Мбайт (7%) Заголовок : Английский Язык : English Default : Нет Forced : НетАудио #5: Идентификатор : 6 Формат : AC-3 Формат/Информация : Audio Coding 3 Расширение режима : CM (complete main) Параметр Endianness формата : Big Идентификатор кодека : A_AC3 Продолжительность : 1 ч. 24 м. Вид битрейта : Постоянный Битрейт : 448 Кбит/сек Каналы : 6 каналов Расположение каналов : Front: L C R, Side: L R, LFE Частота : 48,0 КГц Битовая глубина : 16 бит Метод сжатия : С потерями Размер потока : 271 Мбайт (7%) Заголовок : Профессиональный двухголосый (Петр Гланц и Инна Королева) Язык : Russian Default : Нет Forced : НетАудио #6: Идентификатор : 7 Формат : AC-3 Формат/Информация : Audio Coding 3 Расширение режима : CM (complete main) Параметр Endianness формата : Big Идентификатор кодека : A_AC3 Продолжительность : 1 ч. 24 м. Вид битрейта : Постоянный Битрейт : 448 Кбит/сек Каналы : 6 каналов Расположение каналов : Front: L C R, Side: L R, LFE Частота : 48,0 КГц Битовая глубина : 16 бит Метод сжатия : С потерями Размер потока : 271 Мбайт (7%) Заголовок : Авторский одноголосый (Алексей Михалев) Язык : Russian Default : Нет Forced : НетАудио #7: Идентификатор : 8 Формат : AC-3 Формат/Информация : Audio Coding 3 Расширение режима : CM (complete main) Параметр Endianness формата : Big Идентификатор кодека : A_AC3 Продолжительность : 1 ч. 24 м. Вид битрейта : Постоянный Битрейт : 448 Кбит/сек Каналы : 6 каналов Расположение каналов : Front: L C R, Side: L R, LFE Частота : 48,0 КГц Битовая глубина : 16 бит Метод сжатия : С потерями Размер потока : 271 Мбайт (7%) Заголовок : Авторский одноголосый (Юрий Сербин) Язык : Russian Default : Нет Forced : НетАудио #8: Идентификатор : 9 Формат : AC-3 Формат/Информация : Audio Coding 3 Расширение режима : CM (complete main) Параметр Endianness формата : Big Идентификатор кодека : A_AC3 Продолжительность : 1 ч. 24 м. Вид битрейта : Постоянный Битрейт : 192 Кбит/сек Каналы : 2 канала Расположение каналов : Front: L R Частота : 48,0 КГц Битовая глубина : 16 бит Метод сжатия : С потерями Размер потока : 116 Мбайт (3%) Заголовок : Любительский одноголосый (Зереницын/Белов) Язык : Russian Default : Нет Forced : НетАудио #9: Идентификатор : 10 Формат : AC-3 Формат/Информация : Audio Coding 3 Расширение режима : CM (complete main) Параметр Endianness формата : Big Идентификатор кодека : A_AC3 Продолжительность : 1 ч. 24 м. Вид битрейта : Постоянный Битрейт : 192 Кбит/сек Каналы : 2 канала Расположение каналов : Front: L R Частота : 48,0 КГц Битовая глубина : 16 бит Метод сжатия : С потерями Размер потока : 116 Мбайт (3%) Заголовок : Любительский одноголосый (Неизвестный "Древний") Язык : Russian Default : Нет Forced : НетАудио #10: Идентификатор : 11 Формат : AC-3 Формат/Информация : Audio Coding 3 Расширение режима : CM (complete main) Параметр Endianness формата : Big Идентификатор кодека : A_AC3 Продолжительность : 1 ч. 24 м. Вид битрейта : Постоянный Битрейт : 192 Кбит/сек Каналы : 2 канала Расположение каналов : Front: L R Частота : 48,0 КГц Битовая глубина : 16 бит Метод сжатия : С потерями Размер потока : 116 Мбайт (3%) Заголовок : Любительский одноголосый (Неизвестный с немецкого) Язык : Russian Default : Нет Forced : НетАудио #11: Идентификатор : 12 Формат : AC-3 Формат/Информация : Audio Coding 3 Расширение режима : CM (complete main) Параметр Endianness формата : Big Идентификатор кодека : A_AC3 Продолжительность : 1 ч. 24 м. Вид битрейта : Постоянный Битрейт : 448 Кбит/сек Каналы : 6 каналов Расположение каналов : Front: L C R, Side: L R, LFE Частота : 48,0 КГц Битовая глубина : 16 бит Метод сжатия : С потерями Размер потока : 271 Мбайт (7%) Заголовок : Любительский одноголосый (Jakob Bellmann) Язык : Russian Default : Нет Forced : НетАудио #12: Идентификатор : 13 Формат : AC-3 Формат/Информация : Audio Coding 3 Расширение режима : CM (complete main) Параметр Endianness формата : Big Идентификатор кодека : A_AC3 Продолжительность : 1 ч. 24 м. Вид битрейта : Постоянный Битрейт : 192 Кбит/сек Каналы : 2 канала Расположение каналов : Front: L R Частота : 48,0 КГц Битовая глубина : 16 бит Метод сжатия : С потерями Размер потока : 116 Мбайт (3%) Заголовок : Профессиональный многоголосый (2+2) Язык : Ukrainian Default : Нет Forced : Нет 3,55 Gb 3 3
30 июня 2016 11:00 Зловещие мертвецы 2 / Evil Dead II (1987) BDRip от HQCLUB .torrent   [Информация о файле (нажмите для просмотра)] Перевод: профессиональный (многоголосый, закадровый)КиноманияСубтитры: русские, английскиеФормат: AVIКачество: BDRip (источник:Видео: 704x384 (1.83:1), 23.976 fps, XviD build 65 ~2073 kbps avg, 0.32 bit/pixelАудио #1: 48 kHz, AC3 Dolby Digital, 3/2 (L,C,R,l,r) + LFE ch, ~384 kbps avg (MVO.KINOMANIA)Аудио #2: 48 kHz, AC3 Dolby Digital, 3/2 (L,C,R,l,r) + LFE ch, ~384 kbps avg (MVO.R5)(отдельно)Аудио #3: 48 kHz, AC3 Dolby Digital, 2/0 (L,R), ~192 kbps avg (MVO.UKR.2+2)(отдельно)Аудио #4: 48 kHz, AC3 Dolby Digital, 3/2 (L,C,R,l,r) + LFE ch, ~384 kbps avg (DVO.UKR.UKRAINA)(отдельно)Аудио #5: 48 kHz, AC3 Dolby Digital, 3/2 (L,C,R,l,r) + LFE ch, ~384 kbps avg (DVO.GLANC)(отдельно)Аудио #6: 48 kHz, AC3 Dolby Digital, 2/0 (L,R), ~192 kbps avg (AVO.GAVRILOV)(отдельно)Аудио #7: 48 kHz, AC3 Dolby Digital, 3/2 (L,C,R,l,r) + LFE ch, ~384 kbps avg (AVO.MIHALEV)(отдельно)Аудио #8: 48 kHz, AC3 Dolby Digital, 3/2 (L,C,R,l,r) + LFE ch, ~384 kbps avg (AVO.SERBIN)(отдельно)Аудио #9: 48 kHz, AC3 Dolby Digital, 2/0 (L,R), ~192 kbps avg (AVO.ZERENITSYN)(отдельно)Аудио #10: 48 kHz, AC3 Dolby Digital, 2/0 (L,R), ~192 kbps avg (VO.DREVNIJ)(отдельно)Аудио #11: 48 kHz, AC3 Dolby Digital, 2/0 (L,R), ~192 kbps avg (VO.S.NEMETSKOGO)(отдельно)Аудио #12: 48 kHz, AC3 Dolby Digital, 3/2 (L,C,R,l,r) + LFE ch, ~384 kbps avg (VO.JAKOB.BELLMAN)(отдельно)Аудио #13: 48 kHz, AC3 Dolby Digital, 3/2 (L,C,R,l,r) + LFE ch, ~384 kbps avg (ENG)(отдельно) 1,45 Gb 3 3
30 июня 2016 11:00 Зловещие мертвецы 2 / Evil Dead II (1987) BDRip 720p от leonardo 59 .torrent   [Информация о файле (нажмите для просмотра)] Перевод: Профессиональный (многоголосый, закадровый) | КиноманияФормат: MKVВидео кодек: MPEG-4 AVC Аудио кодек: AC3Видео: AVC, 1280x694 (16:9) at 23.976 fps, AVC at 7161 kbps avg, 0.336 bit/pixelАудио: AC3, 6ch 384 kbps - Профессиональный (многоголосый, закадровый) | КиноманияАудио: AC3, 6ch 448 kbps - Профессиональный (двухголосый, закадровый) CP Digital(отдельно на disk yandex.ru)Аудио: AC3, 2ch 192 kbps - Профессиональный (многоголосый, закадровый) Ukrainian | 2+2(отдельно на disk yandex.ru)Аудио: AC3, 6ch 384 kbps - Профессиональный (двухголосый, закадровый) Петр Гланц и Инна Королева(отдельно на disk yandex.ru)Аудио: AC3, 6ch 384 kbps - Авторский (одноголосый, закадровый) Алексей Михалев(отдельно на disk yandex.ru)Аудио: AC3, 6ch 384 kbps - Авторский (одноголосый, закадровый) Юрий Сербин(отдельно на disk yandex.ru)Аудио: AC3, 2ch 192 kbps - Авторский (одноголосый, закадровый) Андрей Гаврилов(отдельно на disk yandex.ru)Аудио: AC3, 2ch 192 kbps - Авторский (одноголосый, закадровый) Зереницын/Белов(отдельно на disk yandex.ru)Аудио: AC3, 2ch 192 kbps - Неизвестный "Древний"(отдельно на disk yandex.ru)Аудио: AC3, 2ch 192 kbps - Неизвестный с немецкого(отдельно на disk yandex.ru)Аудио: AC3, 6ch 448 kbps - Jakob Bellmann(отдельно на disk yandex.ru)Аудио: AC3, 6ch 384 kbps - Оригинальная англоязычная дорожка(отдельно на disk yandex.ru) 4,53 Gb 2 2
30 июня 2016 11:00 Зловещие мертвецы 2 / Evil Dead II (1987) BDRip 1080p от Freeisland .torrent   [Информация о файле (нажмите для просмотра)] Перевод: Профессиональный (многоголосый закадровый)Субтитры: Russian (UTF-8), English (UTF-8)Качество: BDRipФормат: MKVВидео: 1920x1040 (16:9), 23.976 fps, AVC, 10.2 MbpsАудио #1: AC3, 384 Kbps, 48.0 KHz, 6 ch (MVO - CP Digital)Аудио #2: AC3, 384 Kbps, 48.0 KHz, 6 ch (MVO - Киномания)Аудио #3: AC3, 384 Kbps, 48.0 KHz, 6 ch (DVO - П.Гланц и И.Королёва)Аудио #4: AC3, 192 Kbps, 48.0 KHz, 2 ch (Украин. MVO - 2+2)Аудио #5: AC3, 384 Kbps, 48.0 KHz, 6 ch (AVO - А. Михалев)Аудио #6: AC3, 384 Kbps, 48.0 KHz, 6 ch (AVO - Ю.Сербин)Аудио #7: AC3, 192 Kbps, 48.0 KHz, 2 ch (AVO - А.Гаврилов)Аудио #8: AC3, 192 Kbps, 48.0 KHz, 2 ch (AVO - Зереницын|Белов)Аудио #9: AC3, 384 Kbps, 48.0 KHz, 6 ch (AVO - Jakob Bellmann)Аудио #10: AC3, 384 Kbps, 48.0 KHz, 6 ch (English) 7,95 Gb 7 2
30 июня 2016 11:00 Зловещие мертвецы 2 / Evil Dead II (1987) BDRemux 1080р .torrent   [Информация о файле (нажмите для просмотра)] Перевод: Профессиональный (двухголосый, закадровый) Гланц и Королева, Профессиональный (многоголосый, закадровый) Киномания, Профессиональный (многоголосый, закадровый) CP DIGITAL, Авторский (одноголосый, закадровый) Алексей Михалев, Авторский (одноголосый, закадровый) Андрей ГавриловКачество: BDRemux 1080рФормат: MKVВидео: MPEG-4 AVC Video 27.7 Mbps 1920 x 1080 / 23.976 fps / 16:9 / High Profile 4.1 / 0.557Аудио 1: (RUS): DTS Audio 5.1 / 48 kHz / 1510 kbps | профессиональный (двухголосый, закадровый) - [П.Гланц и И.Королёва]Аудио 2: (RUS): 48 kHz, AC3 Dolby Digital, 5/1 ch, ~384.00 kbps avg | профессиональный (многоголосый, закадровый) - [Киномания]Аудио 3: (RUS): 48 kHz, AC3 Dolby Digital, 5/1 ch, ~448.00 kbps avg | профессиональный (многоголосый, закадровый) - [CP DIGITAL]Аудио 4: (RUS): 48 kHz, AC3 Dolby Digital, 5/1 ch, ~448.00 kbps avg | авторский (одноголосый, закадровый) - (Алексей Михалев)Аудио 5: (RUS): 48 kHz, AC3 Dolby Digital, 2/0 ch, ~192.00 kbps avg | авторский (одноголосый, закадровый) - (Андрей Гаврилов)Аудио 6: (ENG): DTS Audio 5.1 / 48 kHz / 1510 kbps | оригинальная англоязычная дорожка 19,3 Gb 3 3
30 июня 2016 11:00 Зловещие мертвецы 2 / Evil Dead II (1987) BDRemux .torrent   [Информация о файле (нажмите для просмотра)] Качество: BD RemuxПеревод: Профессиональный (двухголосый, закадровый)Перевод: Профессиональный (многоголосый, закадровый)Субтитры: русские, английские, английские (PGS), английские (SDH)Формат: MKVВидео: MPEG-4 AVC, 30550 kbps, 1080p, 23,976 fps, 16:9, High Profile 4.1,1920x1080Аудио: Dolby Digital Audio Russian 5.1 / 48 kHz / 448 kbps | R5Аудио: Dolby Digital Audio Russian 5.1 / 48 kHz / 384 kbps | КиноманияАудио: Dolby Digital Audio Ukrainian 2.0 / 48 kHz / 192 kbps | 2+2Аудио: DTS-HD Master Audio Russian 3640 kbps 5.1 / 48 kHz / 24-bit (DTS Core: 5.1 / 48 kHz / 1536 kbps / 24-bit) | Петр Гланц и Инна КоролеваАудио: DTS-HD Master Audio Russian 3650 kbps 5.1 / 48 kHz / 24-bit (DTS Core: 5.1 / 48 kHz / 1536 kbps / 24-bit) | Алексей МихалевАудио: DTS-HD Master Audio Russian 3641 kbps 5.1 / 48 kHz / 24-bit (DTS Core: 5.1 / 48 kHz / 1536 kbps / 24-bit) | Юрий СербинАудио: Dolby Digital Audio Russian 2.0 / 48 kHz / 192 kbps | Андрей ГавриловАудио: Dolby Digital Audio Russian 2.0 / 48 kHz / 192 kbps | Зереницын/БеловАудио: Dolby Digital Audio Russian 2.0 / 48 kHz / 192 kbps | Неизвестный "Древний"Аудио: Dolby Digital Audio Russian 2.0 / 48 kHz / 192 kbps | Неизвестный с немецкогоАудио: Dolby Digital Audio Russian 5.1 / 48 kHz / 448 kbps | Jakob BellmannАудио: DTS-HD Master Audio English 3661 kbps 5.1 / 48 kHz / 24-bit (DTS Core: 5.1 / 48 kHz / 1536 kbps / 24-bit) 27,81 Gb 2 5
30 июня 2016 11:00 Зловещие мертвецы 2 / Evil Dead II (1987) BDRip 720p от HQCLUB .torrent   [Информация о файле (нажмите для просмотра)] Перевод: Профессиональный (многоголосый, закадровый)Киномания + Профессиональный (многоголосый, закадровый) CP DIGITAL + Профессиональный (двухголосый, закадровый) Гланц и Королева + Авторский (одноголосый, закадровый) Алексей Михалев + Авторский (одноголосый, закадровый) Андрей Гаврилов + Оригинальная звуковая дорожкаСубтитры: Английские SDH (srt)Формат: mkvКачество: BDRip 720p (источник:Видео: 1280x692 (1.85:1), 23.976 fps, MPEG-4 AVC, crf, ~6965 kbpsАудио #1: 48 kHz, AC3 Dolby Digital, 3/2 (L,C,R,l,r) + LFE ch, ~384.00 kbps avg|Киномания|Аудио #2: 48 kHz, AC3 Dolby Digital, 3/2 (L,C,R,l,r) + LFE ch, ~448.00 kbps avg|CP DIGITAL|Аудио #3: 48 kHz/24-bit, DTS, 3/2 (L,C,R,l,r) + LFE ch, ~1536 kbps|П.Гланц и И.Королёва|Аудио #4: 48 kHz, AC3 Dolby Digital, 3/2 (L,C,R,l,r) + LFE ch, ~448.00 kbps avg|А. Михалев|Аудио #5: 48 kHz, AC3 Dolby Digital, 2/0 (L,R) ch, ~192.00 kbps avg|А. Гаврилов|Аудио #6: 48 kHz/24-bit, DTS, 3/2 (L,C,R,l,r) + LFE ch, ~1536 kbps|Оригинал| 6,88 Gb 5 1
30 июня 2016 11:00 Зловещие мертвецы 2 / Evil Dead II (1987) BDRip от HQ-ViDEO .torrent   1,46 Gb 3 2

Смотрите также