Скачать жизнь пи скачать торрент в хорошем качестве


Скачать фильм Жизнь Пи через торрент в хорошем качестве бесплатно 720p

GeneralUnique ID : 216257521602417943587376582267966915457 (0xA2B1AF0408BFB089BB7017F6C98D0381)Complete name : D:\Моя музыка\Zhizn' Pi [BDRip-720p 60 FPS] By EXCLUSIF.mkvFormat : MatroskaFormat version : Version 4 / Version 2File size : 7.63 GiBDuration : 2h 6mnOverall bit rate : 8 605 KbpsMovie name : Жизнь Пи / Life of Pi [BDRip-720p 60 FPS] By EXCLUSIFEncoded date : UTC 2013-03-24 20:56:28Writing application : mkvmerge v6.1.0 ('Old Devil') built on Mar 2 2013 14:32:37Writing library : libebml v1.3.0 + libmatroska v1.4.0

VideoID : 1Format : AVCFormat/Info : Advanced Video CodecFormat profile : [email protected] settings, CABAC : YesFormat settings, ReFrames : 8 framesCodec ID : V_MPEG4/ISO/AVCDuration : 2h 6mnBit rate : 7 537 KbpsWidth : 1 280 pixelsHeight : 694 pixelsDisplay aspect ratio : 1.85:1Frame rate mode : ConstantFrame rate : 59.880 fpsOriginal frame rate : 59.940 fpsColor space : YUVChroma subsampling : 4:2:0Bit depth : 8 bitsScan type : ProgressiveBits/(Pixel*Frame) : 0.142Stream size : 6.69 GiB (88%)Title : Release by EXCLUSIFWriting library : x264 core 130 r2273 b3065e6Encoding settings : cabac=1 / ref=8 / deblock=1:-3:-2 / analyse=0x3:0x133 / me=umh / subme=9 / psy=1 / psy_rd=1.00:0.00 / mixed_ref=1 / me_range=24 / chroma_me=1 / trellis=2 / 8x8dct=1 / cqm=0 / deadzone=21,11 / fast_pskip=0 / chroma_qp_offset=-2 / threads=6 / lookahead_threads=1 / sliced_threads=0 / nr=0 / decimate=0 / interlaced=0 / bluray_compat=0 / constrained_intra=0 / bframes=5 / b_pyramid=2 / b_adapt=2 / b_bias=0 / direct=3 / weightb=1 / open_gop=0 / weightp=2 / keyint=599 / keyint_min=59 / scenecut=40 / intra_refresh=0 / rc_lookahead=60 / rc=crf / mbtree=1 / crf=18.0 / qcomp=0.60 / qpmin=0 / qpmax=69 / qpstep=4 / ip_ratio=1.40 / aq=1:1.00Language : EnglishDefault : YesForced : No

Audio #1ID : 2Format : AC-3Format/Info : Audio Coding 3Mode extension : CM (complete main)Format settings, Endianness : BigCodec ID : A_AC3Duration : 2h 6mnBit rate mode : ConstantBit rate : 448 KbpsChannel(s) : 6 channelsChannel positions : Front: L C R, Side: L R, LFESampling rate : 48.0 KHzBit depth : 16 bitsCompression mode : LossyStream size : 407 MiB (5%)Title : RusLanguage : RussianDefault : YesForced : No

Audio #2ID : 3Format : AC-3Format/Info : Audio Coding 3Mode extension : CM (complete main)Format settings, Endianness : BigCodec ID : A_AC3Duration : 2h 6mnBit rate mode : ConstantBit rate : 448 KbpsChannel(s) : 6 channelsChannel positions : Front: L C R, Side: L R, LFESampling rate : 48.0 KHzBit depth : 16 bitsCompression mode : LossyStream size : 407 MiB (5%)Title : EngLanguage : EnglishDefault : NoForced : No

Text #1ID : 4Format : UTF-8Codec ID : S_TEXT/UTF8Codec ID/Info : UTF-8 Plain TextTitle : Rus ForcedLanguage : RussianDefault : YesForced : Yes

Text #2ID : 5Format : UTF-8Codec ID : S_TEXT/UTF8Codec ID/Info : UTF-8 Plain TextTitle : RusLanguage : RussianDefault : NoForced : No

Text #3ID : 6Format : UTF-8Codec ID : S_TEXT/UTF8Codec ID/Info : UTF-8 Plain TextTitle : Eng ForcedLanguage : EnglishDefault : NoForced : No

Text #4ID : 7Format : UTF-8Codec ID : S_TEXT/UTF8Codec ID/Info : UTF-8 Plain TextTitle : EngLanguage : EnglishDefault : NoForced : No

piratbit.ru

rutor.org :: Жизнь Пи / Life of Pi (2012) BDRip 1080p от New-Team | 3D-Video

Жизнь Пи в 3Д / Life of Pi 3D«Поверь в невозможное»

Страна: США, ТайваньСтудия: Fox 2000 Pictures, Haishang Films, Rhythm & HuesЖанр: драма, приключенияГод выпуска: 2012Продолжительность: 02:06:59

Перевод: Русский дубляж + Украинский дубляж [Лицензия, R5]Оригинальная аудиодорожка: английскаяРусские субтитры: естьРежиссер: Энг Ли / Ang LeeВ ролях: Сурадж Шарма / Suraj Sharma (Pi Patel), Ирфан Кхан / Irfan Khan (Adult Pi Patel), Рейф Сполл / Rafe Spall (Writer), Табу / Tabu (Gita Patel), Адиль Хуссэйн / Adil Hussain (Santosh Patel), Жерар Депардье / Gérard Depardieu (Cook), Аюш Тандон / Ayush Tandon (Pi Patel, (11 / 12 Years)), Гаутам Белур / Gautam Belur (Pi Patel, (5 Years)), Аян Кхан / Ayan Khan (Ravi Patel, (7 Years)), Мохд Аббас Халили / Mohd Abbas Khaleeli (Ravi Patel, (13 / 14 Years))Роли дублировали: Игорь Сергеев, Валерий Соловьев, Валерий Смекалов, Ирина Обрезкова

Главный герой фильма оказывается на шлюпке посреди океана в компании неожиданного попутчика — грозного бенгальского тигра.

Качество: BDRip 1080pКонтейнер: MKVФормат 3D: Half OverUnder / Вертикальная анаморфная стереопараПорядок ракурсов: левый ракурс первыйПоддержка автоматического запуска 3D на вашем TV (frame paking): даВидео кодек: x264Аудио кодек: AC3Видео: AVC / [email protected] / 2 pass / 23,976 fps / 1920x1080p / 12,8 Mbps / 0.257Аудио 1: AC3 / 5.1 ch / 640 kbps / Русский дубляж, [Лицензия, R5]Аудио 2: AC3 / 5.1 ch / 448 kbps / Украинский дубляж, [Лицензия, R5]Аудио 3: AC3 / 5.1 ch / 640 kbps / Английский original, BDСубтитры: [softsub SRT]Русские Forced (включены по кмолчанию)Русские FullУкраинские FullАнглийские ForcedАнглийские FullАнглийские SDHАнглийские SDH COLORДополнительно: Сохранены оригинальные чаптеры как на Blu-rayРип (видеоряд) от: Killbrain

Дополнительно о фильме:

Знаете ли вы, что...

  • В какой-то момент к проекту был приписан М. Найт Шьямалан в качестве сценариста и режиссера. Так же режиссерами фильма могли стать Альфонсо Куарон и Жан-Пьер Жёне.
  • Эндрю Гарфилд рассматривался на роль, которая досталась Тоби Магуайру. Но хотя все сцены с его участием были отсняты, Магуайра заменили Рейфом Споллом, потому что режиссер посчитал, что Магуайр слишком известен для такой маленькой роли.
  • Как и в оригинальном романе, название японского судна — «Цимцум» (Tsimtsum). Это на самом деле еврейское слово, которое в 16-ом веке использовал каббалист Ицхак Лурия для обозначения процесса сжатия бесконечного Бога, в результате которого образуется пустое пространство. В романе взрослый Пи упоминает диссертацию по идеям Лурия о создании. В фильме он просто упоминает преподавание курса по каббале, при этом, не ссылаясь конкретно на Лурию.
  • Персонаж Писин Молитор Патель (Пи) был назван в честь бассейна (Piscine Molitor) во Франции. Он находится рядом с парком «Булонский лес», между стадионами «Ролан Гаррос» и «Парк де Пренс». Этот бассейн был классифицирован как французский исторический памятник 27 марта 1990 года, после того как в 1989 году его закрыли.
  • Янн Мартел, автор книги, заявил, что вдохновение для написания романа пришло к нему предположительно после прочтения книги бразильского автора Моасира Скляра «Макс и семейство кошачьих» 1981 года, которая рассказывает о еврейско-немецком беженце, пересекшем Атлантический океан на одном судне вместе с ягуаром.
  • Персонаж Пи, которого сыграл актер Сурадж Шарма, на самом деле никогда не был в лодке с живым тигром. В большинстве сцен тигр был сделан при помощи технологий компьютерной графики, и лишь некоторые сцены как те, где тигр плавает в воде, были сняты с настоящим тигром.
  • Изначально даже не предполагалось, что актер Сурадж Шарма, который играет роль главного персонажа — Пи, будет проходить прослушивание, он просто подыгрывал своему брату на кастинге. В конечном итоге команда Энга Ли выбрала его из более чем 3,000 претендентов на главную роль.
  • Второй фильм 2012 года с участием Ирфана Кхана, в котором есть персонаж по имени «Ричард Паркер». Первый — «Новый Человек-паук» (2012).
  • Когда взрослый Пи и писатель разговаривают сидя перед монреальской гаванью, можно заметить корабль под названием Mignonette. Это название яхты, участвующей в событиях «R v Dudley and Stephens» (известная английская криминальная история). Из этого дела Янн Мартел и взял имя Ричарда Паркера.
  • Остров в фильме имеет форму лежащего Вишну (индийское божество), это заметно при панорамном плане острова.
  • Табу и Ирфан Кхан, которые снимались в роли матери и сына в этом фильме, ранее снимались в роли мужа и жены в фильме «Тезки» (2006).
  • Есть ряд странных совпадений с именем Ричарда Паркера: в книге Эдгара Аллана По «Повесть о приключениях Артура Гордона Пима», опубликованной в 1838 году, Паркер был моряком, который выжил после крушения его корабля вместе с еще тремя членами команды, но они съели его, чтобы не умереть от голода. В 1884 году корабль под названием Mignorette затонул в океане, и только четыре человека спаслись, среди них был юнга по имени Ричард Паркер, которого впоследствии убили и съели трое других выживших. Янн Мартел, автор романа «Жизнь Пи», назвал бенгальского тигра «Ричардом Паркером», отталкиваясь от этих событий.
  • Ближе к концу истории Пи упоминает, что «плотоядный остров» больше никогда не видели, и это привносит некоторые сомнения в версию истории с тигром. В начале фильма, когда Пи рассказывает писателю про Вишну, он говорит: «Вишну спит на безбрежных просторах океана, а мы являемся предметами его снов». Остров имел форму Вишну, лежащего на поверхности океана.
  • Пи назвал своего сына в честь своего брата, Рави.
  • Когда камера отъезжает, после того как летучая рыба ушла, плота нигде не видно. Однако в следующей сцене он все еще прикреплен к лодке.
  • В трейлере в сцене бури видно современный океанский сухогруз грузоподъемностью 30,000 т. Четыре грузовых крана на корабле приведены в рабочий режим. Ни один корабль никогда не выходит в море с кранами в поднятом состоянии — ни в спокойные моря, ни тем более в такой шторм, так как это было бы крайне опасно. Краны могут сломаться и поставить под угрозу мореходность судна, а возможно привести к гибели всей команды.
  • Во время шторма спальня Пи и его брата на борту корабля абсолютно неподвижна, чего быть не может с учетом показанных движений корабля.
  • Когда тигр прыгает обратно в спасательную шлюпку, покидая остров, парус никак не меняет свое положение в ответ на нагрузку от его веса. Мгновение спустя мальчик ступает на то же место, и парус прогибается.
  • Как только шлюпка причаливает к мексиканскому берегу, тигр прыгает в ближайший пролесок, но песок, на который он прыгает, не разлетается от его лап.
  • Награды и номинации:

    Технические детали съёмки:

    Производство, спецэффекты:

    Log x264:

    x264 [info]: frame I:1077 Avg QP:15.66 size:297350 x264 [info]: frame P:49115 Avg QP:18.54 size:115307 x264 [info]: frame B:132495 Avg QP:19.63 size: 46836

    MediaInfo:

    Общее Уникальный идентификатор : 181553457951971054720244933405482870475 (0x8895EC92F9D7C536B1C4304FF56EE6CB) Полное имя : F:Скачка торрентLife.of.Pi.3D.2012.BDRip1080p.halfOU(Killbrain).mkv Формат : Matroska Версия формата : Version 4 / Version 2 Размер файла : 12,9 Гбайт Продолжительность : 2 ч. 6 м. Общий поток : 14,5 Мбит/сек Название фильма : Life of Pi 3D (2012) by Killbrain Дата кодирования : UTC 2013-03-09 12:34:37 Программа кодирования : mkvmerge v6.1.0 ('Old Devil') built on Mar 2 2013 14:32:37 Библиотека кодирования : libebml v1.3.0 + libmatroska v1.4.0

    Видео Идентификатор : 1 Формат : AVC Формат/Информация : Advanced Video Codec Профиль формата : [email protected] Параметр CABAC формата : Да Параметр ReFrames формата : 4 кадра Идентификатор кодека : V_MPEG4/ISO/AVC Битрейт : 12,8 Мбит/сек Ширина : 1920 пикселей Высота : 1080 пикселей Соотношение сторон : 16:9 Режим частоты кадров : Переменный Частота кадров в оригинале : 23,976 кадра/сек Цветовое пространство : YUV Субдискретизация насыщенности : 4:2:0 Битовая глубина : 8 бит Тип развёртки : Прогрессивная Бит/(Пиксели*Кадры) : 0.257 Заголовок : Life of Pi 3D (2012) Библиотека кодирования : x264 core 128 r2216 198a7ea Настройки программы : cabac=1 / ref=4 / deblock=1:-3:-3 / analyse=0x3:0x113 / me=umh / subme=10 / psy=1 / psy_rd=1.00:0.15 / mixed_ref=1 / me_range=16 / chroma_me=1 / trellis=2 / 8x8dct=1 / cqm=0 / deadzone=21,11 / fast_pskip=1 / chroma_qp_offset=-3 / threads=3 / lookahead_threads=1 / sliced_threads=0 / nr=0 / decimate=0 / interlaced=0 / bluray_compat=0 / constrained_intra=0 / bframes=8 / b_pyramid=2 / b_adapt=2 / b_bias=0 / direct=3 / weightb=1 / open_gop=0 / weightp=2 / keyint=240 / keyint_min=23 / scenecut=40 / intra_refresh=0 / rc_lookahead=60 / rc=2pass / mbtree=0 / bitrate=12800 / ratetol=1.0 / qcomp=0.70 / qpmin=0 / qpmax=69 / qpstep=4 / cplxblur=20.0 / qblur=0.5 / vbv_maxrate=40000 / vbv_bufsize=40000 / nal_hrd=none / frame-packing=4 / ip_ratio=1.40 / pb_ratio=1.30 / aq=1:0.90 Язык : English Default : Да Forced : Нет

    Аудио #1 Идентификатор : 2 Формат : AC-3 Формат/Информация : Audio Coding 3 Расширение режима : CM (complete main) Параметр Endianness формата : Big Идентификатор кодека : A_AC3 Продолжительность : 2 ч. 6 м. Вид битрейта : Постоянный Битрейт : 640 Кбит/сек Каналы : 6 каналов Расположение каналов : Front: L C R, Side: L R, LFE Частота : 48,0 КГц Битовая глубина : 16 бит Метод сжатия : С потерями Размер потока : 581 Мбайт (4%) Заголовок : AC3 / 5.1 ch / 640 kbps / Русский дубляж, R5 Язык : Russian Default : Да Forced : Нет

    Аудио #2 Идентификатор : 3 Формат : AC-3 Формат/Информация : Audio Coding 3 Расширение режима : CM (complete main) Параметр Endianness формата : Big Идентификатор кодека : A_AC3 Продолжительность : 2 ч. 6 м. Вид битрейта : Постоянный Битрейт : 448 Кбит/сек Каналы : 6 каналов Расположение каналов : Front: L C R, Side: L R, LFE Частота : 48,0 КГц Битовая глубина : 16 бит Метод сжатия : С потерями Размер потока : 407 Мбайт (3%) Заголовок : AC3 / 5.1 ch / 448 kbps / Украинский дубляж, R5 Язык : Ukrainian Default : Нет Forced : Нет

    Аудио #3 Идентификатор : 4 Формат : AC-3 Формат/Информация : Audio Coding 3 Расширение режима : CM (complete main) Параметр Endianness формата : Big Идентификатор кодека : A_AC3 Продолжительность : 2 ч. 6 м. Вид битрейта : Постоянный Битрейт : 640 Кбит/сек Каналы : 6 каналов Расположение каналов : Front: L C R, Side: L R, LFE Частота : 48,0 КГц Битовая глубина : 16 бит Метод сжатия : С потерями Размер потока : 581 Мбайт (4%) Заголовок : AC3 / 5.1 ch / 640 kbps / Английский Original, BD Язык : English Default : Нет Forced : Нет

    Текст #1 Идентификатор : 5 Формат : UTF-8 Идентификатор кодека : S_TEXT/UTF8 Идентификатор кодека/Информация : UTF-8 Plain Text Заголовок : Forced Язык : Russian Default : Да Forced : Нет

    Текст #2 Идентификатор : 6 Формат : UTF-8 Идентификатор кодека : S_TEXT/UTF8 Идентификатор кодека/Информация : UTF-8 Plain Text Заголовок : Full Язык : Russian Default : Нет Forced : Нет

    Текст #3 Идентификатор : 7 Формат : UTF-8 Идентификатор кодека : S_TEXT/UTF8 Идентификатор кодека/Информация : UTF-8 Plain Text Заголовок : Full Язык : Ukrainian Default : Нет Forced : Нет

    Текст #4 Идентификатор : 8 Формат : UTF-8 Идентификатор кодека : S_TEXT/UTF8 Идентификатор кодека/Информация : UTF-8 Plain Text Заголовок : Forced Язык : English Default : Нет Forced : Нет

    Текст #5 Идентификатор : 9 Формат : UTF-8 Идентификатор кодека : S_TEXT/UTF8 Идентификатор кодека/Информация : UTF-8 Plain Text Заголовок : Full Язык : English Default : Нет Forced : Нет

    Текст #6 Идентификатор : 10 Формат : UTF-8 Идентификатор кодека : S_TEXT/UTF8 Идентификатор кодека/Информация : UTF-8 Plain Text Заголовок : SDH Язык : English Default : Нет Forced : Нет

    Текст #7 Идентификатор : 11 Формат : UTF-8 Идентификатор кодека : S_TEXT/UTF8 Идентификатор кодека/Информация : UTF-8 Plain Text Заголовок : SDH Color Язык : English Default : Нет Forced : Нет

    Меню 00:00:00.000 : :Chapter 01 00:03:58.821 : :Chapter 02 00:11:13.172 : :Chapter 03 00:15:24.924 : :Chapter 04 00:21:29.621 : :Chapter 05 00:25:44.542 : :Chapter 06 00:29:46.826 : :Chapter 07 00:31:31.014 : :Chapter 08 00:35:34.298 : :Chapter 09 00:45:24.346 : :Chapter 10 00:50:21.893 : :Chapter 11 00:54:13.333 : :Chapter 12 00:57:18.351 : :Chapter 13 01:00:07.395 : :Chapter 14 01:04:12.056 : :Chapter 15 01:09:32.084 : :Chapter 16 01:11:48.053 : :Chapter 17 01:13:34.284 : :Chapter 18 01:16:47.561 : :Chapter 19 01:21:31.177 : :Chapter 20 01:23:10.026 : :Chapter 21 01:26:30.852 : :Chapter 22 01:31:21.434 : :Chapter 23 01:34:13.856 : :Chapter 24 01:43:42.674 : :Chapter 25 01:47:38.660 : :Chapter 26 01:55:20.079 : :Chapter 27 01:59:16.274 : :Chapter 28

    Чёрно-белые скриншоты в анаглифе для оценки качества 3Д:

    Немного рецензий с Кинопоиска.Ру:

    main-rutor.org

    Скачать фильм Жизнь Пи в 3Д через торрент в хорошем качестве бесплатно 1080p

    Размер: 21.91 GB | Добавлен: 4 года 7 мес. назад | Торрент скачан:568 раз
    Реклама Дарим 3000 рублей за регистрацию, не упусти свой шанс получить шикарный бонус!!!

    17-03-2013 18:59 Жизнь Пи в 3Д Скачать торрент  

    Жизнь Пи / Lifе оf Рi

    Год выпуска: 2012Страна: США, ТайваньСтудия: Fox 2000 Pictures, Dune Entertainment, Ingenious MediaЖанр: Драма, ПриключенияПродолжительность: 02:07:00

    Перевод: Профессиональный (дублированный)Русские субтитры: нетРежиссер на русском: Энг ЛиРежиссер на английском: Ang Lee

    В ролях: Сурадж Шарма, Ирфан Кхан, Рейф Сполл, Табу, Адиль Хуссэйн, Жерар Депардье, Аюш Тандон, Гаутам Белур, Аян Кхан, Мохд Аббас Халили

    Роли озвучивали: Игорь Сергеев, Валерий Соловьев, Валерий Смекалов, Ирина Обрезкова

    Описание: Еще одна история "Маугли", которая происходит не в джунглях, а посреди Тихого океана, где по бескрайней водной глади дрейфует лодка со спасшимися после кораблекрушения. Семья решает перебраться жить в Канаду, но корабль терпит крушение. Индийский подросток Пи оказывается на шлюпке посреди океана в компании неожиданного попутчика — грозного бенгальского тигра. Фильм поставлен по одноименной книге Янна Мартелла, за которую автор получил Букеровскую премию.

    Качество: BDripКонтейнер: MKVФормат 3D: OverUnder / Вертикальная стереопараПорядок ракурсов: левый ракурс первыйВидео кодек: x264Аудио кодек: DTSВидео: AVC / [email protected]/ 23,976 fps / 1920х2068 / 22,4 MbpsАудио: Русский / DTS / 48 KHz / 5.1 ch / 755 KbpsАудио 2: Украинский / AC3 / 48 KHz / 5.1 ch / 448 KbpsАудио 3: Английский / AC3 / 48 KHz / 5.1 ch / 640 Kbps

    ВНИМАНИЕ ! На встроенных ТВ-плейерах работать не будет!!!

    Железные плееры на которых воспроизводятся полные стереопары:Popcorn C-200 , Dune HD Smart D1 , Dune HD DUO , Dune HD Smart h2 , Dune HD Smart B1 , Dune HD Max , Dune HD TV-303D , Dune HD Base 3D

    ОбщееУникальный идентификатор : 196516773233197344095741339311613067871 (0x93D7C0F9FB4C9CAABD4B29C2A8D6C25F)Полное имя : F:видеоLife of Pi.Rip by SeRoGa00.mkvФормат : MatroskaВерсия формата : Version 2Размер файла : 21,9 ГбайтПродолжительность : 2 ч. 7 м.Общий поток : 24,7 Мбит/секДата кодирования : UTC 2013-03-17 16:32:50Программа кодирования : mkvmerge v3.4.0 ('Rapunzel') сборка от May 15 2010 09:38:20Библиотека кодирования : libebml v0.8.0 + libmatroska v0.9.0

    ВидеоИдентификатор : 1Формат : AVCФормат/Информация : Advanced Video CodecПрофиль формата : [email protected]Параметр CABAC формата : ДаПараметр ReFrames формата : 4 кадраИдентификатор кодека : V_MPEG4/ISO/AVCПродолжительность : 2 ч. 7 м.Битрейт : 22,4 Мбит/секШирина : 1920 пикселейВысота : 2068 пикселейСоотношение сторон : 0,928Частота кадров : 23,976 кадра/секЦветовое пространство : YUVСубдискретизация насыщенности : 4:2:0Битовая глубина : 8 битТип развёртки : ПрогрессивнаяБит/(Пиксели*Кадры) : 0.235Размер потока : 19,8 Гбайт (91%)Заголовок : Rip by SeRoGa00Библиотека кодирования : x264 core 128 r2216kMod 198a7eaНастройки программы : cabac=1 / ref=4 / deblock=1:-3:-3 / analyse=0x3:0x113 / me=umh / subme=9 / psy=1 / fade_compensate=0.00 / psy_rd=1.00:0.15 / mixed_ref=1 / me_range=16 / chroma_me=1 / trellis=2 / 8x8dct=1 / cqm=0 / deadzone=21,11 / fast_pskip=1 / chroma_qp_offset=-3 / threads=9 / lookahead_threads=1 / sliced_threads=0 / nr=0 / decimate=1 / interlaced=0 / bluray_compat=0 / constrained_intra=0 / bframes=6 / b_pyramid=2 / b_adapt=2 / b_bias=0 / direct=3 / weightb=1 / open_gop=0 / weightp=2 / keyint=250 / keyint_min=23 / scenecut=40 / intra_refresh=0 / rc_lookahead=60 / rc=crf / mbtree=1 / crf=18.0000 / qcomp=0.60 / qpmin=10 / qpmax=69 / qpstep=4 / vbv_maxrate=40000 / vbv_bufsize=40000 / crf_max=0.0 / nal_hrd=none / ip_ratio=1.40 / aq=1:1.00Язык : English

    Аудио #1Идентификатор : 2Формат : DTSФормат/Информация : Digital Theater SystemsИдентификатор кодека : A_DTSПродолжительность : 2 ч. 7 м.Вид битрейта : ПостоянныйБитрейт : 755 Кбит/секКаналы : 6 каналовРасположение каналов : Front: L C R, Side: L R, LFEЧастота : 48,0 КГцБитовая глубина : 24 битМетод сжатия : С потерямиРазмер потока : 685 Мбайт (3%)Язык : Russian

    Аудио #2Идентификатор : 3Формат : AC-3Формат/Информация : Audio Coding 3Расширение режима : CM (complete main)Идентификатор кодека : A_AC3Продолжительность : 2 ч. 7 м.Вид битрейта : ПостоянныйБитрейт : 448 Кбит/секКаналы : 6 каналовРасположение каналов : Front: L C R, Side: L R, LFEЧастота : 48,0 КГцБитовая глубина : 16 битМетод сжатия : С потерямиРазмер потока : 407 Мбайт (2%)Язык : Ukrainian

    Аудио #3Идентификатор : 4Формат : AC-3Формат/Информация : Audio Coding 3Расширение режима : CM (complete main)Идентификатор кодека : A_AC3Продолжительность : 2 ч. 7 м.Вид битрейта : ПостоянныйБитрейт : 640 Кбит/секКаналы : 6 каналовРасположение каналов : Front: L C R, Side: L R, LFEЧастота : 48,0 КГцБитовая глубина : 16 битМетод сжатия : С потерямиРазмер потока : 581 Мбайт (3%)Язык : English

    Скачать Жизнь Пи в 3Д через торрент http://i53.fastpic.ru/big/2013/0317/c9/7613d48f1f6f848e2dea701acfa904c9.jpg Скачать фильм Жизнь Пи в 3Д через торрент бесплантно в хорошем качестве Описание: Еще одна история "Маугли", которая происходит не в джунглях, а посреди Тихого океана, где по бескрайней водной глади дрейфует ... 2013-03-17 18:59 8.9 10 14

    Loading...

    Loading...

    Рекламный пират

    17-03-2013 19:37 Жизнь Пи в 3Д Скачать торрент  

    жызьнь Пи в Зде?))) сори но на заглдавной странице так) уберите)

    17-03-2013 20:19 Жизнь Пи в 3Д Скачать торрент  

    Просветите нуба, пожалуйста. Можно ли на обычном компе с обычным жк-монитором смотреть вертикальные/горизонтальные стереопары при наличии пассивных стереоочков?

    17-03-2013 20:43 Жизнь Пи в 3Д Скачать торрент  

    С обычным жк-монитором смотреть - точно нельзя , нужен 3д , комп тоже не всякий подойдет.FAQ по просмотру и форматам 3д http://rutracker.org/forum/viewtopic.php?t=897607

    17-03-2013 21:02 Жизнь Пи в 3Д Скачать торрент  

    По данной ссылке не нашел ни одного утверждения, что нельзя смотреть. Зачем тогда нужны стереоплееры на компе, если нельзя смотреть стереопары?ЗЫ: Кое-как разобрался. Где не спрошу - нигде толком не объяснят в чем принципиальная разница между 3D-телевизорами и мониторами (кроме активных очков). Пусть еще не все понятно, но дальше надо уже расспрашивать специалиста. :)

    Последний раз редактировалось: Po3T (2013-03-17 23:36), всего редактировалось 1 раз

    17-03-2013 22:56 Жизнь Пи в 3Д Скачать торрент  

    Чесно по мне, фильм мутный. Вообще не о чём

    18-03-2013 03:58 Жизнь Пи в 3Д Скачать торрент  

    Я НЕ МОГУ ПОНЯТЬ ПОЧЕМУ ТЕПЕРЬ РАЗРЕШЕНИЕ ИЗМЕНЯЮТ В СВЯЗИ С ЧЕМ ЭТО СВЯЗАНО ТОЛЬКО КУПИЛ ТЕЛЕВИЗОР ТЕПЕРЬ ЧЕ МНЕ ЕГО МЕНЯТЬ НАДО ТАК КАК НА ВСТРОЕННОМ ПЛЕЕРЕ НЕ РАБОТАЕТ ПИШУТ И КАК УЗНАТЬ КАКОЙ ПЛЕЕР ИВСТРОЕН В ТЕЛЕВИЗОР У МЕНЯ НАПРИМЕР SAMSUNG UE46ES7507UXRU

    18-03-2013 07:43 Жизнь Пи в 3Д Скачать торрент  

    Венер. На встроенном плеере телевизора смотри разрешение 1920 на 1080 вертикальные или горизонтальные пары....

    25-04-2013 12:51 Жизнь Пи в 3Д Скачать торрент  

    Фильм ахриненный! но не для каждого!

    Pекламный агент PB

    06-05-2013 04:05 Жизнь Пи в 3Д Скачать торрент  

    Сам не смотрел, но жена в восторге. Скачаю теперь ей в 3D. Смотреть будет с обычного компьютера, но на мониторе LG DM2752D.

    07-07-2013 22:55 Жизнь Пи в 3Д Скачать торрент  

    Po3T писал(а):

    По данной ссылке не нашел ни одного утверждения, что нельзя смотреть. Зачем тогда нужны стереоплееры на компе, если нельзя смотреть стереопары?ЗЫ: Кое-как разобрался. Где не спрошу - нигде толком не объяснят в чем принципиальная разница между 3D-телевизорами и мониторами (кроме активных очков). Пусть еще не все понятно, но дальше надо уже расспрашивать специалиста. :)

    на самом деле всё различие заключается в частоте манитора, на пример у меня частота на маниторе 140, а на телевизаре 800, но 800 только при просмотре в 3д, а так только 400.

    итог - будет у тебя манитор с охрененной разгерцовкой - будешь пользоваться стереоплеером на компе.

    12-01-2015 17:14 Жизнь Пи в 3Д Скачать торрент  

    Дорогой пользователь! Огромная просьба, поблагодарите релизера, оцените раздачу и оставьте свои комментарий, если Вы скачали Жизнь Пи в 3Д через торрент бесплатно! Внесите свою лепту в развитие PiratBit!

    Комментировать посты могут только пользователи прошедшие не сложную регистрацию

    Жизнь Пи в 3Д через торрент Скачать бесплатно Жизнь Пи в 3Д Жизнь Пи в 3Д скачать торрент Жизнь Пи в 3Д смотреть онлайн Cкачать фильм Жизнь Пи в 3Д бесплатно Жизнь Пи в 3Д скачать торрент в хорошем качестве Жизнь Пи в 3Д смотреть онлайн бесплатно в хорошем качестве

    Вы не можете начинать темыВы не можете отвечать на сообщенияВы не можете редактировать свои сообщенияВы не можете удалять свои сообщенияВы не можете голосовать в опросахВы не можете прикреплять файлы к сообщениямВы можете скачивать файлы

    piratbit.ru

    Жизнь Пи (2012) HD 1080p скачать торрент в хорошем качестве

    Информация о фильмеНазвание: Жизнь ПиОригинальное название: Life of PiГод выхода: 2012Жанр: драма, приключенияРежиссер: Энг ЛиВ ролях: Сурадж Шарма, Ирфан Кхан, Рейф Сполл, Табу, Адиль Хуссэйн, Жерар Депардье, Аюш Тандон, Гаутам Белур, Аян Кхан, Мохд Аббас Халили

    О фильме: Главный герой фильма оказывается на шлюпке посреди океана в компании неожиданного попутчика — грозного бенгальского тигра.

    Выпущено: Fox 2000 PicturesПродолжительность: 02:07:00Перевод: Дублированный (лицензия)

    ФайлКодек: x264Качество: BDRip (источник: Blu-ray Disc)Видео: 1920x1040 (16:9), 23.976 fps, 7850 kbpsАудио #1: AC-3, 6 ch, 448 kbps (Rus)Аудио #2: AC-3, 6 ch, 448 kbps (Eng)Субтитры: Русские (форс,полные), Английские (форс,полные)

    ОбщееУникальный идентификатор : 217386259915561267838387292573388260636 (0xA38B121C793DA7DD89A97A12102C451C)Полное имя : Life.of.Pi.2012.BDRip.1080p.Rus.Eng.mkvФормат : MatroskaВерсия формата : Version 2Размер файла : 7,76 ГбайтПродолжительность : 2 ч. 6 м.Общий поток : 8747 Кбит/секНазвание фильма : Жизнь Пи / Life of Pi (2012)Дата кодирования : UTC 2013-03-11 15:25:10Программа кодирования : mkvmerge v5.8.0 ('No Sleep / Pillow') built on Sep 2 2012 15:37:04Библиотека кодирования : libebml v1.2.3 + libmatroska v1.3.0

    ВидеоИдентификатор : 1Формат : AVCФормат/Информация : Advanced Video CodecПрофиль формата : [email protected]Параметр CABAC формата : ДаПараметр ReFrames формата : 4 кадраИдентификатор кодека : V_MPEG4/ISO/AVCПродолжительность : 2 ч. 6 м.Битрейт : 7850 Кбит/секШирина : 1920 пикселейВысота : 1040 пикселейСоотношение сторон : 16:9Частота кадров : 23,976 кадра/секЦветовое пространство : YUVСубдискретизация насыщенности : 4:2:0Битовая глубина : 8 битТип развёртки : ПрогрессивнаяБит/(Пиксели*Кадры) : 0.164Размер потока : 6,81 Гбайт (88%)Заголовок : Release by AlexKaБиблиотека кодирования : x264 core 130 r2273 b3065e6Настройки программы : cabac=1 / ref=4 / deblock=1:-3:-3 / analyse=0x3:0x133 / me=umh / subme=10 / psy=1 / psy_rd=1.00:0.00 / mixed_ref=1 / me_range=32 / chroma_me=1 / trellis=2 / 8x8dct=1 / cqm=0 / deadzone=21,11 / fast_pskip=0 / chroma_qp_offset=-2 / threads=12 / lookahead_threads=1 / sliced_threads=0 / nr=0 / decimate=0 / interlaced=0 / bluray_compat=0 / constrained_intra=0 / bframes=5 / b_pyramid=2 / b_adapt=2 / b_bias=0 / direct=3 / weightb=1 / open_gop=0 / weightp=2 / keyint=240 / keyint_min=23 / scenecut=40 / intra_refresh=0 / rc=2pass / mbtree=0 / bitrate=7850 / ratetol=1.0 / qcomp=0.60 / qpmin=0 / qpmax=69 / qpstep=4 / cplxblur=20.0 / qblur=0.5 / ip_ratio=1.40 / pb_ratio=1.30 / aq=1:0.60Язык : English

    Аудио #1Идентификатор : 2Формат : AC-3Формат/Информация : Audio Coding 3Расширение режима : CM (complete main)Идентификатор кодека : A_AC3Продолжительность : 2 ч. 6 м.Вид битрейта : ПостоянныйБитрейт : 448 Кбит/секКаналы : 6 каналовРасположение каналов : Front: L C R, Side: L R, LFEЧастота : 48,0 КГцБитовая глубина : 16 битМетод сжатия : С потерямиРазмер потока : 407 Мбайт (5%)Заголовок : RusЯзык : Russian

    Аудио #2Идентификатор : 3Формат : AC-3Формат/Информация : Audio Coding 3Расширение режима : CM (complete main)Идентификатор кодека : A_AC3Продолжительность : 2 ч. 6 м.Вид битрейта : ПостоянныйБитрейт : 448 Кбит/секКаналы : 6 каналовРасположение каналов : Front: L C R, Side: L R, LFEЧастота : 48,0 КГцБитовая глубина : 16 битМетод сжатия : С потерямиРазмер потока : 407 Мбайт (5%)Заголовок : EngЯзык : English

    Текст #1Идентификатор : 4Формат : UTF-8Идентификатор кодека : S_TEXT/UTF8Идентификатор кодека/Информация : UTF-8 Plain TextЗаголовок : Rus forcedЯзык : Russian

    Текст #2Идентификатор : 5Формат : UTF-8Идентификатор кодека : S_TEXT/UTF8Идентификатор кодека/Информация : UTF-8 Plain TextЗаголовок : RusЯзык : Russian

    Текст #3Идентификатор : 6Формат : UTF-8Идентификатор кодека : S_TEXT/UTF8Идентификатор кодека/Информация : UTF-8 Plain TextЗаголовок : Eng forcedЯзык : English

    Текст #4Идентификатор : 7Формат : UTF-8Идентификатор кодека : S_TEXT/UTF8Идентификатор кодека/Информация : UTF-8 Plain TextЗаголовок : EngЯзык : English

    Меню00:00:00.000 : :Chapter 0100:03:58.822 : :Chapter 0200:11:13.172 : :Chapter 0300:15:24.924 : :Chapter 0400:21:29.622 : :Chapter 0500:25:44.543 : :Chapter 0600:29:46.827 : :Chapter 0700:31:31.014 : :Chapter 0800:35:34.299 : :Chapter 0900:45:24.347 : :Chapter 1000:50:21.894 : :Chapter 1100:54:13.333 : :Chapter 1200:57:18.352 : :Chapter 1301:00:07.395 : :Chapter 1401:04:12.057 : :Chapter 1501:09:32.085 : :Chapter 1601:11:48.054 : :Chapter 1701:13:34.285 : :Chapter 1801:16:47.561 : :Chapter 1901:21:31.178 : :Chapter 2001:23:10.027 : :Chapter 2101:26:30.852 : :Chapter 2201:31:21.434 : :Chapter 2301:34:13.857 : :Chapter 2401:43:42.675 : :Chapter 2501:47:38.661 : :Chapter 2601:55:20.080 : :Chapter 2701:59:16.274 : :Chapter 28

    x264 [info]: frame I:1077 Avg QP:16.32 size:192335x264 [info]: frame P:47343 Avg QP:19.27 size: 71894x264 [info]: frame B:134268 Avg QP:21.32 size: 28783

    rutorg2.ru


    Смотрите также