Скачать живое в хорошем качестве hd 720 торрент


Скачать фильм Живое через торрент в хорошем качестве бесплатно 720p

GeneralUnique ID : 199286509277413165487112650944067166413 (0x95ED2F81B5ED413EBA8D8A5CC21860CD)Complete name : E:\Life.2O17.D.WeB-DL.72OP.mkvFormat : MatroskaFormat version : Version 2File size : 3.51 GiBDuration : 1 h 43 minOverall bit rate : 4 838 kb/sMovie name : EVOEncoded date : UTC 2017-06-05 18:06:45Writing application : mkvmerge v8.3.0 ('Over the Horizon') 64bitWriting library : libebml v1.3.1 + libmatroska v1.4.2

VideoID : 1Format : AVCFormat/Info : Advanced Video CodecFormat profile : [email protected] settings, CABAC : NoFormat settings, ReFrames : 2 framesCodec ID : V_MPEG4/ISO/AVCDuration : 1 h 43 minBit rate : 3 974 kb/sWidth : 1 280 pixelsHeight : 532 pixelsDisplay aspect ratio : 2.40:1Frame rate mode : ConstantFrame rate : 23.976 FPSColor space : YUVChroma subsampling : 4:2:0Bit depth : 8 bitsScan type : ProgressiveBits/(Pixel*Frame) : 0.243Stream size : 2.89 GiB (82%)Language : EnglishDefault : YesForced : NoColor range : LimitedColor primaries : BT.709Transfer characteristics : BT.709Matrix coefficients : BT.709

Audio #1ID : 2Format : AC-3Format/Info : Audio Coding 3Mode extension : CM (complete main)Format settings, Endianness : BigCodec ID : A_AC3Duration : 1 h 43 minBit rate mode : ConstantBit rate : 384 kb/sChannel(s) : 6 channelsChannel positions : Front: L C R, Side: L R, LFESampling rate : 48.0 kHzFrame rate : 31.250 FPS (1536 spf)Compression mode : LossyStream size : 286 MiB (8%)Language : RussianDefault : NoForced : No

Audio #2ID : 3Format : AC-3Format/Info : Audio Coding 3Mode extension : CM (complete main)Format settings, Endianness : BigCodec ID : A_AC3Duration : 1 h 43 minBit rate mode : ConstantBit rate : 384 kb/sChannel(s) : 6 channelsChannel positions : Front: L C R, Side: L R, LFESampling rate : 48.0 kHzFrame rate : 31.250 FPS (1536 spf)Compression mode : LossyStream size : 286 MiB (8%)Language : EnglishDefault : NoForced : No

piratbit.ru

Фильм Живое 2017 смотреть онлайн полностью в хорошем HD 720, 1080 качестве и скачать бесплатно

КачествоПереводРазмер файлаДата добавленияСкачано (раз)Сидеры / ЛичерыКак скачать?CAMRip ПодробнееПроф. (полное дублирование)1.37 GB25 Мар 1733

▲ 110▼ 65

CAMRip ПодробнееПроф. (полное дублирование)718.23 MB25 Мар 1711

▲ 369▼ 52

Файл: Живое - Life (2017) CAMRip | D.torrentПродолжительность: 01:30Видео: XviD, 817 Кбит/сек, 688x288Звук: AC3, 256 Кбит/сек (2 ch)Перевод: ДублированныйСубтитры: нетTS ПодробнееПроф. (полное дублирование)1.37 GB28 Мар 1776

▲ 1174▼ 39

Файл: Живое - Life (2017) TS | D.torrentПродолжительность: 01:30Видео: 720x288 (2.500), 30.000 fps, XviD ~1 843 kbps avgЗвук:Аудио: 48 kHz, AC3 Dolby Digital, 2/0 (L,R) ch, ~192 kbpsПеревод: Профессиональный (полное дублирование)Субтитры: нетTC ПодробнееПроф. (полное дублирование)3.31 GB29 Май 179

▲ 1510▼ 616

Файл: Живое - Life (2017) TC 1080р | D.torrentПродолжительность: 01:30Видео: 1920x846 (2.25:1), 23.976 fps, MPEG-4 AVC ~4 555 kbps avgЗвук:Аудио: 48 kHz, AC3 Dolby Digital, 2/0 (L,R) ch, ~384 kbpsПеревод: Профессиональный (полное дублирование)Субтитры: иероглифы (вшитые)TC ПодробнееПроф. (полное дублирование)1.37 GB29 Май 175

▲ 1053▼ 273

Файл: Живое - Life (2017) TC | D.torrentПродолжительность: 01:30Видео: 720x320 (2.25:1), 23.976 fps, XviD ~1 646 kbps avgЗвук:Аудио: 48 kHz, AC3 Dolby Digital, 2/0 (L,R) ch, ~192 kbpsПеревод: Профессиональный (полное дублирование)Субтитры: иероглифы (вшитые)TC ПодробнееПроф. (полное дублирование)2.81 GB29 Май 174

▲ 380▼ 115

Файл: Живое - Life (2017) TC 720р | D.torrentПродолжительность: 01:30Видео: 1280x564 (2.25:1), 23.976 fps, MPEG-4 AVC ~3 810 kbps avgЗвук:Аудио: 48 kHz, AC3 Dolby Digital, 2/0 (L,R) ch, ~384 kbpsПеревод: Профессиональный (полное дублирование)Субтитры: иероглифы (вшитые)WEBRip ПодробнееПроф. (полное дублирование)3.03 GB01 Июн 1716

▲ 945▼ 216

Файл: Живое - Life (2017) WEBRip 720р | Line.torrentПродолжительность: 01:30Видео: 1280x536 (2.40:1), 30.000 fps, MPEG-4 AVC ~3 732 kbps avgЗвук:Аудио: 48 kHz, AC3 Dolby Digital, 2/0 (L,R) ch, ~384 kbpsПеревод: Профессиональный (полное дублирование) | чистый звукСубтитры: иероглифы (вшитые)WEBRip ПодробнееПроф. (полное дублирование)1.36 GB01 Июн 1718

▲ 3300▼ 603

Файл: Живое - Life (2017) WEBRip | Line.torrentПродолжительность: 01:30Видео: 720x304 (2.35:1), 30.000 fps, XviD ~1 649 kbps avgЗвук:Аудио: 48 kHz, AC3 Dolby Digital, 2/0 (L,R) ch, ~192 kbpsПеревод: Профессиональный (полное дублирование) | чистый звукСубтитры: иероглифы (вшитые)WEBRip ПодробнееПроф. (полное дублирование)3.58 GB01 Июн 175

▲ 3792▼ 833

Файл: Живое - Life (2017) WEBRip 1080р | Line.torrentПродолжительность: 01:30Видео: 1920x804 (2.40:1), 30.000 fps, MPEG-4 AVC ~4 485 kbps avgЗвук:Аудио: 48 kHz, AC3 Dolby Digital, 2/0 (L,R) ch, ~384 kbpsПеревод: Профессиональный (полное дублирование) | чистый звукСубтитры: иероглифы (вшитые)WEB-DL ПодробнееПроф. (полное дублирование)3.87 GB06 Июн 1727

▲ 423▼ 234

Файл: Живое - Life (2017) WEB-DL 1080p | iTunes.torrentПродолжительность: 01:30Видео: X264, 4500 Кбит/с, 1920x798Звук:Аудио: Русский, английский (AC3, 6 ch, 384 Кбит/с)Перевод: Дублированный | iTunesСубтитры: русские (форс. и полные), английские (форс. и полные)WEB-DLRip ПодробнееПроф. (полное дублирование)1.86 GB06 Июн 170

▲ 67▼ 41

Файл: Живое - Life (2017) WEB-DLRip-AVC от OlLanDGroup | iTunes.torrentПродолжительность: 01:30Видео: 1024x426 (2.40:1), 23.976 fps, x264 ~1666 kbps avg, 0.159 bit/pixelЗвук:Аудио #1: 48 kHz, AC3 Dolby Digital, 3/2 (L,C,R,l,r) + LFE ch, ~384.00 kbps avg | RUS (iTunes)Аудио #2: 48 kHz, AAC, 2 (L,R) ch, ~160.00 kbps avg | UKR (iTunes)Аудио #3: 48 kHz, AC3 Dolby Digital, 3/2 (L,C,R,l,r) + LFE ch, ~384.00 kbps avg | ENG (Original)Перевод: Дублированный | iTunesСубтитры: Русские, английские, украинскиеWEB-DL ПодробнееПроф. (полное дублирование)3.51 GB05 Июн 170

▲ 135▼ 77

Файл: Живое - Life (2017) WEB-DL 720р от ExKinoRay | iTunes.torrentПродолжительность: 01:30Видео: MPEG-4 AVC, 1280x532, 4068 Кbit/s, 23.976 fpsЗвук:Аудио #01: 48 kHz, AC3, 5.1, 384 Kbps | Дублированный | iTunes | RUS |Аудио #02: 48 kHz, AC3, 5.1, 384 Kbps | Оригинал | ENG |Перевод: Дублированный | iTunesСубтитры: Русские (full, forced), английскиеWEB-DLRip ПодробнееПроф. (полное дублирование)745.57 MB06 Июн 170

▲ 49▼ 28

WEB-DLRip ПодробнееПроф. (полное дублирование)1.46 GB05 Июн 170

▲ 129▼ 67

vkinoshke.com

Скачать фильм Живое через торрент в хорошем качестве бесплатно 1080p

GeneralUnique ID : 189210131483777346278576202572858596824 (0x8E588BB996A5DA39B4EF25C0B5BF1DD8)Complete name : E:\Живое.1080p.i. Ton.mkvFormat : MatroskaFormat version : Version 4 / Version 2File size : 10.9 GiBDuration : 1 h 43 minOverall bit rate : 15.1 Mb/sMovie name : Живое. (Tonik)Encoded date : UTC 2017-06-08 13:40:22Writing application : mkvmerge v7.1.0 ('Good Love') 64bit built on Jul 27 2014 13:06:55Writing library : libebml v1.3.0 + libmatroska v1.4.1

VideoID : 1Format : AVCFormat/Info : Advanced Video CodecFormat profile : [email protected] settings, CABAC : YesFormat settings, ReFrames : 5 framesCodec ID : V_MPEG4/ISO/AVCDuration : 1 h 43 minBit rate : 13.0 Mb/sWidth : 1 920 pixelsHeight : 804 pixelsDisplay aspect ratio : 2.40:1Frame rate mode : ConstantFrame rate : 23.976 (24000/1001) FPSColor space : YUVChroma subsampling : 4:2:0Bit depth : 8 bitsScan type : ProgressiveBits/(Pixel*Frame) : 0.351Stream size : 9.36 GiB (85%)Writing library : x264 core 148 r2665kMod a01e339Encoding settings : cabac=1 / ref=5 / deblock=1:-3:-3 / analyse=0x3:0x133 / me=umh / subme=11 / psy=1 / fade_compensate=0.00 / psy_rd=0.85:0.00 / mixed_ref=1 / me_range=48 / chroma_me=1 / trellis=2 / 8x8dct=1 / cqm=0 / deadzone=21,11 / fast_pskip=0 / chroma_qp_offset=-2 / threads=24 / lookahead_threads=4 / sliced_threads=0 / nr=0 / decimate=0 / interlaced=0 / bluray_compat=0 / constrained_intra=0 / fgo=0 / bframes=8 / b_pyramid=2 / b_adapt=2 / b_bias=0 / direct=3 / weightb=1 / open_gop=0 / weightp=2 / keyint=240 / keyint_min=24 / scenecut=40 / intra_refresh=0 / rc=2pass / mbtree=0 / bitrate=13000 / ratetol=1.0 / qcomp=0.70 / qpmin=0 / qpmax=69 / qpstep=4 / cplxblur=20.0 / qblur=0.5 / ip_ratio=1.20 / pb_ratio=1.20 / aq=3:0.80Language : EnglishDefault : YesForced : No

Audio #1ID : 2Format : AC-3Format/Info : Audio Coding 3Mode extension : CM (complete main)Format settings, Endianness : BigCodec ID : A_AC3Duration : 1 h 43 minBit rate mode : ConstantBit rate : 384 kb/sChannel(s) : 6 channelsChannel positions : Front: L C R, Side: L R, LFESampling rate : 48.0 kHzFrame rate : 31.250 FPS (1536 spf)Compression mode : LossyStream size : 286 MiB (3%)Title : iTunesLanguage : RussianDefault : YesForced : No

Audio #2ID : 3Format : DTSFormat/Info : Digital Theater SystemsMode : 16Format settings, Endianness : BigCodec ID : A_DTSDuration : 1 h 43 minBit rate mode : ConstantBit rate : 1 509 kb/sChannel(s) : 6 channelsChannel positions : Front: L C R, Side: L R, LFESampling rate : 48.0 kHzFrame rate : 93.750 FPS (512 spf)Bit depth : 16 bitsCompression mode : LossyStream size : 1.10 GiB (10%)Language : EnglishDefault : NoForced : No

Text #1ID : 4Format : UTF-8Codec ID : S_TEXT/UTF8Codec ID/Info : UTF-8 Plain TextTitle : ForcedLanguage : RussianDefault : YesForced : No

Text #2ID : 5Format : UTF-8Codec ID : S_TEXT/UTF8Codec ID/Info : UTF-8 Plain TextLanguage : RussianDefault : NoForced : No

Text #3ID : 6Format : UTF-8Codec ID : S_TEXT/UTF8Codec ID/Info : UTF-8 Plain TextLanguage : UkrainianDefault : NoForced : No

Text #4ID : 7Format : UTF-8Codec ID : S_TEXT/UTF8Codec ID/Info : UTF-8 Plain TextTitle : ForcedLanguage : EnglishDefault : NoForced : No

Text #5ID : 8Format : UTF-8Codec ID : S_TEXT/UTF8Codec ID/Info : UTF-8 Plain TextLanguage : EnglishDefault : NoForced : No

Menu00:00:00.000 : en:00:00:00.00000:09:32.864 : en:00:09:32.86400:13:13.084 : en:00:13:13.08400:15:36.894 : en:00:15:36.89400:19:35.341 : en:00:19:35.34100:24:57.454 : en:00:24:57.45400:34:36.992 : en:00:34:36.99200:40:45.109 : en:00:40:45.10900:43:59.303 : en:00:43:59.30300:52:21.805 : en:00:52:21.80500:58:33.927 : en:00:58:33.92701:06:37.785 : en:01:06:37.78501:11:43.257 : en:01:11:43.25701:17:50.875 : en:01:17:50.87501:22:39.621 : en:01:22:39.62101:28:34.309 : en:01:28:34.309

piratbit.ru

Скачать фильм Живое через торрент в хорошем качестве бесплатно HDRip

Раздают: 14 [ 0 KB/s ]
Размер: 2.08 GB | Добавлен: 4 мес. 14 д. назад | Торрент скачан:959 раз
Реклама Дарим 3000 рублей за регистрацию, не упусти свой шанс получить шикарный бонус!!!

11-06-2017 18:25 Живое Скачать торрент  

Живое / Life

Год выпуска: 2017Страна: США / Columbia Pictures, Skydance Media, Sony Pictures Entertainment (SPE)Жанр: Ужасы, фантастика, триллерПродолжительность: 01:43:59Перевод: Дубляж (iTunes)Субтитры: Русские форсированные - вшитые

Режиссер: Даниэль Эспиноса

В ролях: Джейк Джилленхол, Ребекка Фергюсон (II), Райан Рейнольдс, Ольга Дыховичная, Эрион Бакаре, Хироюки Санада, Наоко Мори, Александр Нгуйен, Камиль Уоррен-Тейлор, Хиу Ун-Син

Описание: Международная космическая станция. Наши дни. С Марса прилетает модуль с образцами пород, куда совершенно случайно затесалась тамошняя инфузория-тапочка в свежезамороженном состоянии. Команда исследователей с упоением начинает издеваться над чужеродным организмом: помещает его в кислотную среду, кормит денатуратом с ложечки, бьет электрическим шокером и поджаривает лазерным резаком. В результате перенесенных потрясений инопланетный гость превращается в агрессивно настроенного пожирателя мозгов, выбирается из инкубатора и устраивает экипажу станции веселую жизнь.

Качество: HDRipФормат: AVIВидео кодек: XviDАудио кодек: AC3Видео: 720x304 (2.37:1), 23.976 fps, XviD build 50 ~2472 kbps avg, 0.47 bit/pixelАудио: 48 kHz, AC3 Dolby Digital, 3/2 (L,C,R,l,r) + LFE ch, ~384 kbps

ОбщееПолное имя : F:\ФИЛЬМЫ\Живое.2017.D.HDRip.aviФормат : AVIФормат/Информация : Audio Video InterleaveПрофиль формата : OpenDMLРазмер файла : 2,08 ГбайтПродолжительность : 1 ч. 43 м.Общий поток : 2863 Кбит/секПрограмма кодирования : VirtualDubMod 1.5.10.3 | www.virtualdub-fr.org || (build 2550/release)Библиотека кодирования : VirtualDubMod build 2550/release

ВидеоИдентификатор : 0Формат : MPEG-4 VisualПрофиль формата : Advanced [email protected]Параметр BVOP формата : 1Параметр QPel формата : НетПараметр GMC формата : Без точки переходаПараметр матрицы формата : Default (MPEG)Идентификатор кодека : XVIDИдентификатор кодека/Подсказка : XviDПродолжительность : 1 ч. 43 м.Битрейт : 2467 Кбит/секШирина : 720 пикселейВысота : 304 пикселяСоотношение сторон : 2,35:1Частота кадров : 23,976 (24000/1001) кадра/секЦветовое пространство : YUVСубдискретизация насыщенности : 4:2:0Битовая глубина : 8 битТип развёртки : ПрогрессивнаяМетод сжатия : С потерямиБит/(Пиксели*Кадры) : 0.470Размер потока : 1,79 Гбайт (86%)Библиотека кодирования : XviD 1.2.1 (UTC 2008-12-04)

АудиоИдентификатор : 1Формат : AC-3Формат/Информация : Audio Coding 3Параметр Endianness формата : BigИдентификатор кодека : 2000Продолжительность : 1 ч. 43 м.Вид битрейта : ПостоянныйБитрейт : 384 Кбит/секКаналы : 6 каналовРасположение каналов : Front: L C R, Side: L R, LFEЧастота : 48,0 КГцЧастота кадров : 31,250 кадров/сек (1536 spf)Битовая глубина : 16 битМетод сжатия : С потерямиРазмер потока : 286 Мбайт (13%)Выравнивание : Разделение по промежуткамПродолжительность промежутка : 42 мс. (1,00 видеокадр)Время предзагрузки промежутка : 500 мс.ServiceKind/String : Complete Main

Скачать Живое через торрент http://pic1.pb.wtf/images/11/ybkav.jpg Скачать фильм Живое через торрент бесплантно в хорошем качестве Описание: Международная космическая станция. Наши дни. С Марса прилетает модуль с образцами пород, куда совершенно случайно затесалась ... 2017-06-11 18:25 8.8 10 15

Loading...

Loading...

% Раздел Тема Автор DL S | L
Ultra HD (UHD: 2K, 4K, 8K) — видео сверхвысокой чёткости [ 46.57 GB ] Живое / Life [2017 UHD BDRemux 2160p] DUB+3xAVO [] bober100 Скачать
Фильмы (Blu-ray, BD-Remux, HDDVD) [ 24.45 GB ] Живое / Life [2017 BD Remux 1080p] [] DUB+2xAVO bober100 Скачать
Фильмы [HD 720p, 1080p] (Хороший звук DUB, MVO) [ 7.76 GB ] Живое / Life [2017 BDRip 1080p] DUB + AVO potroks Скачать
Фильмы (HD 720p, 1080p) (48-60 fps) [ 4.26 GB ] Живое / Life [2017 BDRip 720p 60 fps от еnvy / NNNB] DUB | еnvy Скачать
Фильмы (Blu-ray, BD-Remux, HDDVD) [ 31.28 GB ] Живое / Life [2017 Blu-Ray EUR 1080p] DUB [] bober100 Скачать
Фильмы [HD 720p, 1080p] (Хороший звук DUB, MVO) [ 4.37 GB ] Живое / Life [2017 BDRip 720p] potroks Скачать
Фильмы 2017 [DVDrip, WEB-DLRip, HDrip] (DUB, MVO) [ 1.45 GB ] Живое / Life [2017 BDRip] - [] Twi7ter Скачать

Рекламный пират

12-06-2017 09:05 Живое Скачать торрент  

Прикольное опиание

12-06-2017 22:28 Живое Скачать торрент  

самый предсказуемый фильм который я видел, а может это римэйк чего то старого весь фильм было чувство что я его смотрел, что вот щас они его загонят и его опять кто то отпустит и как всегда угадывалось кто

08-07-2017 15:52 Живое Скачать торрент  

"Задорнов был прав......... " - это лучшее описание к этому фильму

Дорогой пользователь! Огромная просьба, поблагодарите релизера, оцените раздачу и оставьте свои комментарий, если Вы скачали Живое через торрент бесплатно! Внесите свою лепту в развитие PiratBit!

Комментировать посты могут только пользователи прошедшие не сложную регистрацию

Живое через торрент Скачать бесплатно Живое Живое скачать торрент Живое смотреть онлайн Cкачать фильм Живое бесплатно Живое скачать торрент в хорошем качестве Живое смотреть онлайн бесплатно в хорошем качестве

Вы не можете начинать темыВы не можете отвечать на сообщенияВы не можете редактировать свои сообщенияВы не можете удалять свои сообщенияВы не можете голосовать в опросахВы не можете прикреплять файлы к сообщениямВы можете скачивать файлы

piratbit.ru


Смотрите также