Скачать замбезия через торрент в хорошем качестве


Скачать фильм Замбезия через торрент в хорошем качестве бесплатно HDRip

Раздают: 1 [ 0 KB/s ]
Размер: 1.37 GB | Добавлен: 5 лет 1 мес. назад | Торрент скачан:6323 раза
Реклама Дарим 3000 рублей за регистрацию, не упусти свой шанс получить шикарный бонус!!!

22-09-2012 11:12 Замбезия Скачать торрент  

Замбезия / Zambezia Год выпуска: 2012Страна: ЮАР / Cinema Management Group, The Department of Trade and Industry of South Africa, The National Film and Video Foundation of SAЖанр: мультфильм, комедияПродолжительность: 01:22:26Перевод: Дублированный [лицензия] Режиссер: Уэйн ТонлиВ ролях: Эбигейл Бреслин, Кори Бертон, Джим Каммингс, Норин ДеВулф, Ли Дуру, Джефф Голдблюм, Ричард Э. Грант, Таня Гунади, Сэмюэл Л. Джексон, Том Кенни

Описание: В мультфильме рассказывается история жизни юного соколёнка по имени Кай, его приключения, характер, комичные ситуации в которые он попадает на пути к своей главной цели, на пути к заветному птичьему городку Замбезия, в котором он от всей души желает отыскать новых друзей, которые бы скрасили его одиночество и не оставили в беде. Однако для начала ему необходимо преодолеть путь, который полон опасностей и неожиданных поворотов.

Качество: HDRipФормат: AVIВидео кодек: XviDАудио кодек: AC3Видео: 720x384 (1.88:1), 23.976 fps, XviD build 50 ~1913 kbps avg, 0.29 bit/pixelАудио: 48 kHz, AC3 Dolby Digital, 3/2 (L,C,R,l,r) + LFE ch, ~448 kbps Format : AVIFormat/Info : Audio Video InterleaveFile size : 1.37 GiBDuration : 1h 22mnOverall bit rate : 2 371 KbpsWriting application : VirtualDubMod 1.5.10.3 | www.virtualdub-fr.org || (build 2550/release)Writing library : VirtualDubMod build 2550/release

VideoID : 0Format : MPEG-4 VisualFormat profile : Advanced [email protected] settings, BVOP : 2Format settings, QPel : NoFormat settings, GMC : No warppointsFormat settings, Matrix : Default (MPEG)Codec ID : XVIDCodec ID/Hint : XviDDuration : 1h 22mnBit rate : 1 914 KbpsWidth : 720 pixelsHeight : 384 pixelsDisplay aspect ratio : 1.85:1Frame rate : 23.976 fpsColor space : YUVChroma subsampling : 4:2:0Bit depth : 8 bitsScan type : ProgressiveCompression mode : LossyBits/(Pixel*Frame) : 0.289Stream size : 1.10 GiB (81%)Writing library : XviD 1.2.1 (UTC 2008-12-04)

AudioID : 1Format : AC-3Format/Info : Audio Coding 3Mode extension : CM (complete main)Format settings, Endianness : BigCodec ID : 2000Duration : 1h 22mnBit rate mode : ConstantBit rate : 448 KbpsChannel(s) : 6 channelsChannel positions : Front: L C R, Side: L R, LFESampling rate : 48.0 KHzBit depth : 16 bitsCompression mode : LossyStream size : 264 MiB (19%)Alignment : Split accross interleavesInterleave, duration : 42 ms (1.00 video frame)Interleave, preload duration : 500 ms

Скачать Замбезия через торрент http://i40.fastpic.ru/big/2012/0922/70/e114590de5b5dd5b7d55a0e1514d0570.jpg Скачать фильм Замбезия через торрент бесплантно в хорошем качестве Описание: В мультфильме рассказывается история жизни юного соколёнка по имени Кай, его приключения, характер, комичные ситуации в которые ... 2012-09-22 11:12 10 10 22

Loading...

Loading...

Рекламный пират

22-09-2012 12:12 Замбезия Скачать торрент  

чота при таком битрейте и размере не тянет на ХДрип-то...

22-09-2012 12:29 Замбезия Скачать торрент  

sergunka писал(а):

чота при таком битрейте и размере не тянет на ХДрип-то...

почему это не тянет, всё тянет

22-09-2012 13:35 Замбезия Скачать торрент  

22-09-2012 17:04 Замбезия Скачать торрент  

Спасибо за раздачу мульт прикольный

16-08-2013 11:48 Замбезия Скачать торрент  

Дорогой пользователь! Огромная просьба, поблагодарите релизера, оцените раздачу и оставьте свои комментарий, если Вы скачали Замбезия через торрент бесплатно! Внесите свою лепту в развитие PiratBit!

Комментировать посты могут только пользователи прошедшие не сложную регистрацию

Замбезия через торрент Скачать бесплатно Замбезия Замбезия скачать торрент Замбезия смотреть онлайн Cкачать фильм Замбезия бесплатно Замбезия скачать торрент в хорошем качестве Замбезия смотреть онлайн бесплатно в хорошем качестве

Вы не можете начинать темыВы не можете отвечать на сообщенияВы не можете редактировать свои сообщенияВы не можете удалять свои сообщенияВы не можете голосовать в опросахВы не можете прикреплять файлы к сообщениямВы можете скачивать файлы

piratbit.ru

Скачать Замбезия через торрент - фильм в хорошем качестве

Категория: Фильмы 1765 0 Торрент добавлен: 15-04-2015 Рейтинг:

Жанр: Комедия, мультфильм Производство: ЮАРПродолжительность: 01:13:19 Режиссер: Уэйн Тонли В ролях: Эбигейл Бреслин, Кори Бертон, Джим Каммингс, Норин ДеВулф Ли, Дуру Джефф, Голдблюм Ричард Э. Грант, Таня Гунади, Сэмюэл Л. Джексон, Том Кенни

Этот романтичный и замечательный мультфильм повествует историю молодого соколика, которого все зовут Кай. Он рвется отважно преодолевать любые преграды, возникающие на его тернистом пути, чтобы достичь своей мечты – попасть в город Замбезия. В этом городе, где обитают одни птицы, Кай надеется быть счастливым со своими новыми друзьями. Но для осуществления заветной мечты, ему предстоит преодолеть много опасных и коварных ситуаций, пройдя головокружительные приключения.

Трейлер к мультфильму Замбезия

Замбезия скачать торрент

Формат: M2TSВидео кодек: AVCАудио кодек: DTSВидео: MPEG-4 AVC, 23876 Кбит/с, 1920x1080, 23.976 кадр/с Аудио: Аудио 1: Рус: DTS-HD МА, 6 ch, 2015 Кбит/c 17,29 Gb

скачать

3D

Формат: MKVВидео кодек: H.26xАудио кодек: AC3Видео: AVC / 23,976 fps / 1920х1080p / 8597 Kbps Аудио: Аудио 1: Рус / 48 KHz / 5.1 ch / 640 Kbps

5,80 Gb

скачать

Формат: MKVВидео кодек: H.26xАудио кодек: AC3Видео: 1280x688, 3415 Кбит/сек, 23,976 кадр/сек, AVC, x264, 1,860, 0.162 Бит/[Пиксели*Кадры], 2pass Аудио: 384 Кбит/сек, 6 канала(ов), 48,0 КГц

2,18 Gb

Формат: AVIВидео кодек: XviDАудио кодек: AC3Видео: 1914 Кбит/с, 720x384

скачать

Вы находитесь на странице, где можете совершенно бесплатно скачать фильм Замбезия в хорошем качестве через торрент, в любом формате, который больше всего вам на данный момент подходит. Скачивание осуществляется через торрент, что означает максимально высокую скорость загрузки. Желаем Вам приятного просмотра!. Не забудь поделиться своими впечатлениями после того как посмотришь фильм Замбезия.

Информация Посетители, находящиеся в группе Гости, не могут оставлять комментарии к данной публикации.

psp-gu.ru

Скачать фильм Замбезия через торрент в хорошем качестве бесплатно BDRip-AVC

GeneralUnique ID                                : 216827766484131578448121623473292340266 (0xA31F824254E0CD8A8F9EAD86A9306C2A)Complete name                            : E:ФильмыЗамбезия (2012) BDRip-AVC Лицензия.mkvFormat                                   : MatroskaFormat version                           : Version 2File size                                : 1.46 GiBDuration                                 : 1h 22mnOverall bit rate                         : 2 536 KbpsMovie name                               : -=POTROKS=-Encoded date                             : UTC 2012-09-24 15:28:33Writing application                      : mkvmerge v5.7.0 ('The Whirlwind') built on Jul  8 2012 20:08:51Writing library                          : libebml v1.2.3 + libmatroska v1.3.0

VideoID                                       : 1Format                                   : AVCFormat/Info                              : Advanced Video CodecFormat profile                           : [email protected] settings, CABAC                   : YesFormat settings, ReFrames                : 12 framesCodec ID                                 : V_MPEG4/ISO/AVCDuration                                 : 1h 22mnBit rate                                 : 1 769 KbpsWidth                                    : 1 024 pixelsHeight                                   : 552 pixelsDisplay aspect ratio                     : 1.85:1Original display aspect ratio            : 1.85:1Frame rate mode                          : ConstantFrame rate                               : 23.976 fpsColor space                              : YUVChroma subsampling                       : 4:2:0Bit depth                                : 8 bitsScan type                                : ProgressiveBits/(Pixel*Frame)                       : 0.131Stream size                              : 1 013 MiB (68%)Title                                    : Zambezija.2012.D.BDRip.x264.potroksWriting library                          : x264 core 116 r2019M 9cc407dEncoding settings                        : cabac=1 / ref=13 / deblock=1:-1:-1 / analyse=0x3:0x133 / me=umh / subme=10 / psy=1 / psy_rd=1.00:0.00 / mixed_ref=1 / me_range=48 / chroma_me=1 / trellis=2 / 8x8dct=1 / cqm=0 / deadzone=21,11 / fast_pskip=0 / chroma_qp_offset=-2 / threads=8 / sliced_threads=0 / nr=0 / decimate=1 / interlaced=0 / bluray_compat=0 / constrained_intra=0 / bframes=14 / b_pyramid=1 / b_adapt=2 / b_bias=0 / direct=3 / weightb=1 / open_gop=0 / weightp=2 / keyint=240 / keyint_min=23 / scenecut=40 / intra_refresh=0 / rc_lookahead=100 / rc=2pass / mbtree=1 / bitrate=1769 / ratetol=1.0 / qcomp=0.70 / qpmin=10 / qpmax=51 / qpstep=4 / cplxblur=20.0 / qblur=0.5 / vbv_maxrate=20000 / vbv_bufsize=25000 / nal_hrd=none / ip_ratio=1.35 / aq=1:1.00Language                                 : EnglishDefault                                  : YesForced                                   : No

Audio #1ID                                       : 2Format                                   : AC-3Format/Info                              : Audio Coding 3Mode extension                           : CM (complete main)Format settings, Endianness              : BigCodec ID                                 : A_AC3Duration                                 : 1h 22mnBit rate mode                            : ConstantBit rate                                 : 384 KbpsChannel(s)                               : 6 channelsChannel positions                        : Front: L C R, Side: L R, LFESampling rate                            : 48.0 KHzBit depth                                : 16 bitsCompression mode                         : LossyStream size                              : 226 MiB (15%)Language                                 : RussianDefault                                  : YesForced                                   : No

Audio #2ID                                       : 3Format                                   : AC-3Format/Info                              : Audio Coding 3Mode extension                           : CM (complete main)Format settings, Endianness              : BigCodec ID                                 : A_AC3Duration                                 : 1h 22mnBit rate mode                            : ConstantBit rate                                 : 384 KbpsChannel(s)                               : 6 channelsChannel positions                        : Front: L C R, Side: L R, LFESampling rate                            : 48.0 KHzBit depth                                : 16 bitsCompression mode                         : LossyStream size                              : 226 MiB (15%)Language                                 : EnglishDefault                                  : NoForced                                   : No

TextID                                       : 4Format                                   : UTF-8Codec ID                                 : S_TEXT/UTF8Codec ID/Info                            : UTF-8 Plain TextDefault                                  : YesForced                                   : No

piratbit.ru

Скачать фильм Замбезия (2012) через торрент

26 января 2016 11:21 Замбезия / Zambezia (2012) BDRemux 1080p от ExKinoRay | Лицензия .torrent   [Информация о файле (нажмите для просмотра)] Качество: Blu-Ray Remux (1080p)Видео: MPEG-4 АVC, 19953 Кбит/сек, 1920x1080, 23,976 кадр/сАудио: Русский (DTS-HD MA, 6 ch, 1744 Кбит/с), английский (DTS-HD MA, 6 ch, 1737 Кбит/с)Перевод: ДублированныйСубтитры: РусскиеВидео: Идентификатор : 1 Формат : AVC Формат/Информация : Advanced Video Codec Профиль формата : [email protected] Параметр CABAC формата : Да Параметр ReFrames формата : 4 кадра Идентификатор кодека : V_MPEG4/ISO/AVC Продолжительность : 1 ч. 22 м. Вид битрейта : Переменный Максимальный битрейт : 34,0 Мбит/сек Ширина : 1920 пикселей Высота : 1080 пикселей Соотношение сторон : 16:9 Режим частоты кадров : Постоянный Частота кадров : 23,976 кадра/сек Стандарт вещания : NTSC Цветовое пространство : YUV Субдискретизация насыщенности : 4:2:0 Битовая глубина : 8 бит Тип развёртки : Прогрессивная Default : Да Forced : Нет Основные цвета : BT.709 Характеристики трансфера : BT.709 Коэффициенты матрицы : BT.709Аудио #1: Идентификатор : 2 Формат : DTS Формат/Информация : Digital Theater Systems Профиль формата : MA / Core Режим : 16 Параметр Endianness формата : Big Идентификатор кодека : A_DTS Продолжительность : 1 ч. 22 м. Вид битрейта : Переменный Битрейт : Неизвестно / 768 Кбит/сек Каналы : 6 каналов Расположение каналов : Front: L C R, Side: L R, LFE Частота : 48,0 КГц Битовая глубина : 16 бит Метод сжатия : Без потерь / Lossy Язык : Russian Default : Да Forced : ДаАудио #2: Идентификатор : 3 Формат : DTS Формат/Информация : Digital Theater Systems Профиль формата : MA / Core Режим : 16 Параметр Endianness формата : Big Идентификатор кодека : A_DTS Продолжительность : 1 ч. 22 м. Вид битрейта : Переменный Битрейт : Неизвестно / 768 Кбит/сек Каналы : 6 каналов Расположение каналов : Front: L C R, Side: L R, LFE Частота : 48,0 КГц Битовая глубина : 16 бит Метод сжатия : Без потерь / Lossy Язык : English Default : Нет Forced : Нет 13,5 Gb 15 1 26 января 2016 11:21 Замбезия / Zambezia (2012) BDRip 720p от Leonardo and Scarabey | Лицензия | US Transfer .torrent   [Информация о файле (нажмите для просмотра)] Перевод: Профессиональный (полное дублирование) ЛицензияФормат: MKVВидео кодек: MPEG-4 AVC Аудио кодек: AC3Видео: AVC, 1280x720 (16:9) at 23.976 fps, AVC at 3580 kbps avg, 0.159 bit/pixelАудио: Russian: 48 kHz; AC3 5.1; 448.00 kbps avg; профессиональный, полное дублированиеСубтитры: Русские, английские 2,32 Gb 61 8 26 января 2016 11:21 Замбезия / Zambezia (2012) BDRip от HQCLUB | Лицензия .torrent   [Информация о файле (нажмите для просмотра)] Перевод: профессиональный (полное дублирование)BD RUSСубтитры: русские, английские (полные, SDH)Формат: AVIКачество: BDRip (источник:Видео: 704x400 (1.76:1), 23.976 fps, XviD build 65 ~2064 kbps avg, 0.30 bit/pixelАудио #1: 48 kHz, AC3 Dolby Digital, 3/2 (L,C,R,l,r) + LFE ch, ~448 kbps avg (RUS)Аудио #2: 48 kHz, AC3 Dolby Digital, 2/0 (L,R) ch, ~192 kbps avg (UKR)(отдельно)Аудио #3: 48 kHz, AC3 Dolby Digital, 3/2 (L,C,R,l,r) + LFE ch, ~448 kbps avg (ENG)(отдельно) 1,45 Gb 371 19 26 января 2016 11:21 Замбезия / Zambezia (2012) BDRip 1080p от Leonardo and Scarabey | Лицензия .torrent   [Информация о файле (нажмите для просмотра)] Перевод: Профессиональный (полное дублирование) ЛицензияФормат: MKVВидео кодек: MPEG-4 AVC Аудио кодек: AC3Видео: AVC, 1920x1036 (1.85:1) at 23.976 fps, AVC at 9270 kbps avg, 0.190 bit/pixelАудио: 48 kHz, AC3 Dolby Digital, 3/2 (L,C,R,l,r) + LFE ch, 640.00 kbps - RussianАудио: 48 kHz, AC3 Dolby Digital, 3/2 (L,C,R,l,r) + LFE ch, 640.00 kbps - EnglishСубтитры: русские 6,08 Gb 18 4 26 января 2016 11:21 Замбезия / Zambezia (2012) BDRip-AVC | iPad .torrent   [Информация о файле (нажмите для просмотра)] Перевод: Профессиональный (дублированный)Кодек: H.264/AVCФормат: MP4 (контейнер m4v)Качество: BDRip 576pВидео: 1024x560 (16:9) at 23.976 fps, AVC at 2428 kbps avg, 0.177 bit/pixelЗвук: Русский: 48 kHz, AAC, 2ch, 165 kbps avg - Оригинал 1,5 Gb 37 5 26 января 2016 11:21 Замбезия / Zambezia (2012) BDRip от HELLYWOOD .torrent   [Информация о файле (нажмите для просмотра)] Перевод: Профессиональный (дублированный)Субтитры: нетФормат: AVIКачество: BDRip (источник: HDCLUB /Blu-Ray Disc/ 1080p)Видео: 704x384 (1.833:1), 23.976 fps, XviD build 65 ~2140 kbps avg, 0.33 bit/pixelАудио: 48 kHz, AC3 Dolby Digital, 3/2 (L,C,R,l,r) + LFE ch, ~384 kbps 1,68 Gb 32 13 26 января 2016 11:21 Замбезия / Zambezia (2012) BDRip 720p .torrent   [Информация о файле (нажмите для просмотра)] Перевод: Профессиональный (полное дублирование)[Лицензия]Качество: BDRip 720pВидео: 1280x692 (1.85:1), 23.976 fps, AVC, ~3854 Kbps, 0.181 bits/pixelАудио #1: (Dolby AC3, 6 ch) 640 Кбит/сек, 48,0 КГц | Russian |Аудио #2: (Dolby AC3, 6 ch) 640 Кбит/сек, 48,0 КГц | English |Субтитры: русские 2,96 Gb 51 4 26 января 2016 11:21 Замбезия / Zambezia (2012) BDRip 1080p | 3D-Video | D .torrent   [Информация о файле (нажмите для просмотра)] Перевод: Профессиональный (дублированный)Качество: BDripКонтейнер: MKVВидео: AVC / 23,976 fps / 1920х1080p / 8597 KbpsАудио: #1 - Русский / AC3 / 48 KHz / 5.1 ch / 640 Kbps (Дубляж) #2 - Английский / AC3 / 48 KHz / 5.1 ch / 640 KbpsСубтитры: Русские вшитые softsub (SRT) Полные 5,8 Gb 10 2 26 января 2016 11:21 Замбезия / Zambezia (2012) HDRip | КПК от Generalfilm | Лицензия .torrent   [Информация о файле (нажмите для просмотра)] Качество: HDRip | КПКВидео: кодеккодек: x264,формат: mp4,размер кадра: 480х256, битрейт: 350 кб/сАудио: языкрусский, перевод: Дублированный (лицензия), 283,24 Mb 11 2 26 января 2016 11:21 Замбезия / Zambezia (2012) BDRip 1080p [Hi10P] от FREEISLAND .torrent   2,91 Gb 4 1 26 января 2016 11:21 Замбезия / Zambezia (2012) BDRip-AVC от potroks | D | Лицензия .torrent   [Информация о файле (нажмите для просмотра)] Перевод: Профессиональный (полное дублирование)Субтитры: РусскиеКачество: BDRip-AVC [Zambezia 2012 Blu-ray 1080p AVC DTS-HD 5 1] Формат: MKVВидео: H.264, 1024x552 (1,86:1), 23,976 кадр/сек, 1769 Кбит/сек, 0.131 bit/pixelАудио#1: 48 kHz, AC3 Dolby Digital, 3/2 (L,C,R,l,r) + LFE ch, ~384.00 kbps avg |RUSАудио#2: 48 kHz, AC3 Dolby Digital, 3/2 (L,C,R,l,r) + LFE ch, ~384.00 kbps avg |ENG 1,46 Gb 13 1 26 января 2016 11:21 Замбезия / Zambezia (2012) DVD5 от New-Team | D .torrent   3,86 Gb 1 1 26 января 2016 11:21 Замбезия / Zambezia (2012) BDRip 1080p .torrent   [Информация о файле (нажмите для просмотра)] Перевод: Дублированный (лицензия)Кодек: x264Качество: BDRip (источник: Blu-ray Disc)Видео: 1920x1040 (16:9), 23.976 fps, 6695 kbpsАудио #1: AC-3, 6 ch, 448 kbps (Rus)Аудио #2: AC-3, 6 ch, 448 kbps (Eng)Субтитры: РусскиеВидео: Идентификатор : 1 Формат : AVC Формат/Информация : Advanced Video Codec Профиль формата : [email protected] Параметр CABAC формата : Да Параметр ReFrames формата : 4 кадра Идентификатор кодека : V_MPEG4/ISO/AVC Продолжительность : 1 ч. 22 м. Битрейт : 6695 Кбит/сек Ширина : 1920 пикселей Высота : 1040 пикселей Соотношение сторон : 16:9 Частота кадров : 23,976 кадра/сек Цветовое пространство : YUV Субдискретизация насыщенности : 4:2:0 Битовая глубина : 8 бит Тип развёртки : Прогрессивная Бит/(Пиксели*Кадры) : 0.140 Размер потока : 3,77 Гбайт (86%) Заголовок : Release by AlexKa Библиотека кодирования : x264 core 128 r2216 198a7ea Настройки программы : cabac=1 / ref=4 / deblock=1:0:0 / analyse=0x3:0x133 / me=umh / subme=10 / psy=1 / psy_rd=1.00:0.00 / mixed_ref=1 / me_range=32 / chroma_me=1 / trellis=2 / 8x8dct=1 / cqm=0 / deadzone=21,11 / fast_pskip=0 / chroma_qp_offset=-2 / threads=12 / lookahead_threads=2 / sliced_threads=0 / nr=0 / decimate=0 / interlaced=0 / bluray_compat=0 / constrained_intra=0 / bframes=3 / b_pyramid=2 / b_adapt=2 / b_bias=0 / direct=3 / weightb=1 / open_gop=0 / weightp=2 / keyint=240 / keyint_min=23 / scenecut=40 / intra_refresh=0 / rc=2pass / mbtree=0 / bitrate=6695 / ratetol=1.0 / qcomp=0.60 / qpmin=0 / qpmax=69 / qpstep=4 / cplxblur=20.0 / qblur=0.5 / ip_ratio=1.40 / pb_ratio=1.30 / aq=1:0.50 Язык : EnglishАудио #1: Идентификатор : 2 Формат : AC-3 Формат/Информация : Audio Coding 3 Расширение режима : CM (complete main) Идентификатор кодека : A_AC3 Продолжительность : 1 ч. 22 м. Вид битрейта : Постоянный Битрейт : 448 Кбит/сек Каналы : 6 каналов Расположение каналов : Front: L C R, Side: L R, LFE Частота : 48,0 КГц Битовая глубина : 16 бит Метод сжатия : С потерями Размер потока : 264 Мбайт (6%) Заголовок : Rus Язык : RussianАудио #2: Идентификатор : 3 Формат : AC-3 Формат/Информация : Audio Coding 3 Расширение режима : CM (complete main) Идентификатор кодека : A_AC3 Продолжительность : 1 ч. 22 м. Вид битрейта : Постоянный Битрейт : 448 Кбит/сек Каналы : 6 каналов Расположение каналов : Front: L C R, Side: L R, LFE Частота : 48,0 КГц Битовая глубина : 16 бит Метод сжатия : С потерями Размер потока : 264 Мбайт (6%) Заголовок : Eng Язык : English 4,37 Gb 63 9 26 января 2016 11:21 Замбезия / Zambezia (2012) Blu-Ray .torrent   17,29 Gb 1 4 26 января 2016 11:21 Замбезия / Zambezia (2012) HDRip | Лицензия .torrent   [Информация о файле (нажмите для просмотра)] Формат: AVIКачество: HDRip [рип с BluRay]Видео: XviD, 640x336, 1053 kb/sАудио: MP3, 128 kb/s (2 ch) 702,52 Mb 74 1

gig-torrent.net

Скачать фильм Замбезия через торрент в хорошем качестве бесплатно BDRip

Размер: 1.45 GB | Добавлен: 3 года 7 мес. назад | Торрент скачан:246 раз
Реклама Дарим 3000 рублей за регистрацию, не упусти свой шанс получить шикарный бонус!!!

15-03-2014 16:03 Замбезия Скачать торрент  

Замбезия / Zambezia «Это где-то между Мадагаскаром и Рио»
  • Год выпуска: 2012
  • Страна: ЮАР, Монголия
  • Жанр:мультфильм, комедия, приключения, семейный
  • Продолжительность: 01:22:28
  • Перевод: Профессиональный [Дубляж - BD RUS]
  • Субтитры:русские, английские (полные, SDH) Скачать отдельно⇒
  • Режиссер: Уэйн Тонли / Wayne Thornley
  • В ролях: Леонард Нимой (Sekhuru, озвучка), Джереми Суарес (Kai, озвучка), Эбигейл Бреслин (Zoe, озвучка), Джефф Голдблюм (Ajax, озвучка), Сэмюэл Л. Джексон (Tendai, озвучка), Дженифер Льюис (Gogo, озвучка), Джим Каммингс (Budzo / Marabous, озвучка), Ямал Миксон (Ezee, озвучка), Ричард Э. Грант (Cecil, озвучка), Дэвид Шонесси (Morton, озвучка), Норин ДеВулф (Pavi, озвучка), Таня Гунади (Tini, озвучка)
    • Описание:В мультфильме рассказывается история жизни юного соколёнка по имени Кай, его приключения, характер, комичные ситуации в которые он попадает на пути к своей главной цели, на пути к заветному птичьему городку Замбезия, в котором он от всей души желает отыскать новых друзей, которые бы скрасили его одиночество и не оставили в беде. Однако для начала ему необходимо преодолеть путь, который полон опасностей и неожиданных поворотов.
    Бюджет:$20 000 000 / Мировая премьера:5 июня 2012
    • Качество:BDRip
    • Формат:AVI
    • Видео кодек: XviD
    • Аудио кодек:AC3
    • Видео: XviD, 704x400 (16:9), 2064 kbps, 23,976 fps, 0,306 bpp
    • Аудио: AC3 / 5.1 / 48 kHz / 448 kbps / 16 bitАудио #2: 48 kHz, AC3 Dolby Digital, 3/2 (L,C,R,l,r) + LFE ch, ~448 kbps avg (ENG) Скачать отдельно⇒

    Код:

    GeneralComplete name                            : D:ТорентыZambeziya.2012.RUS.BDRip.XviD.AC3.-HQCLUB.aviFormat                                   : AVIFormat/Info                              : Audio Video InterleaveFile size                                : 1.45 GiBDuration                                 : 1h 22mnOverall bit rate                         : 2 522 KbpsMovie name                               : Замбезия / Zambezia (2012) BDRipDirector                                 : sociolog_melvasGenre                                    : мультфильм,комедия,семейныйWriting application                      : VirtualDubMod 1.5.10.2 (build 2540/release)

    Comment                                  : 04.03.2014

    VideoID                                       : 0Format                                   : MPEG-4 VisualFormat profile                           : Advanced [email protected] settings, BVOP                    : 1Format settings, QPel                    : NoFormat settings, GMC                     : No warppointsFormat settings, Matrix                  : CustomCodec ID                                 : XVIDCodec ID/Hint                            : XviDDuration                                 : 1h 22mnBit rate                                 : 2 064 KbpsWidth                                    : 704 pixelsHeight                                   : 400 pixelsDisplay aspect ratio                     : 16:9Frame rate                               : 23.976 fpsColor space                              : YUVChroma subsampling                       : 4:2:0Bit depth                                : 8 bitsScan type                                : ProgressiveCompression mode                         : LossyBits/(Pixel*Frame)                       : 0.306Stream size                              : 1.19 GiB (82%)Writing library                          : XviD 65

    AudioID                                       : 1Format                                   : AC-3Format/Info                              : Audio Coding 3Mode extension                           : CM (complete main)Codec ID                                 : 2000Duration                                 : 1h 22mnBit rate mode                            : ConstantBit rate                                 : 448 KbpsChannel(s)                               : 6 channelsChannel positions                        : Front: L C R, Side: L R, LFESampling rate                            : 48.0 KHzBit depth                                : 16 bitsCompression mode                         : LossyStream size                              : 264 MiB (18%)Alignment                                : Split accross interleavesInterleave, duration                     : 42 ms (1.00 video frame)Interleave, preload duration             : 500 ms

    Скриншоты: Трейлеры к фильмам [2014] © Оформление by Raven
  • Скачать Замбезия через торрент http://pic.pb.wtf/images/6/ordi9.jpg Скачать фильм Замбезия через торрент бесплантно в хорошем качестве Описание:В мультфильме рассказывается история жизни юного соколёнка по имени Кай, его приключения, характер, комичные ситуации в которые он ... 2014-03-15 16:03 10 10 8

    Loading...

    Loading...

    Рекламный пират

    Дорогой пользователь! Огромная просьба, поблагодарите релизера, оцените раздачу и оставьте свои комментарий, если Вы скачали Замбезия через торрент бесплатно! Внесите свою лепту в развитие PiratBit!

    Комментировать посты могут только пользователи прошедшие не сложную регистрацию

    Замбезия через торрент Скачать бесплатно Замбезия Замбезия скачать торрент Замбезия смотреть онлайн Cкачать фильм Замбезия бесплатно Замбезия скачать торрент в хорошем качестве Замбезия смотреть онлайн бесплатно в хорошем качестве

    Вы не можете начинать темыВы не можете отвечать на сообщенияВы не можете редактировать свои сообщенияВы не можете удалять свои сообщенияВы не можете голосовать в опросахВы не можете прикреплять файлы к сообщениямВы можете скачивать файлы

    piratbit.ru

    Скачать фильм Замбезия через торрент в хорошем качестве бесплатно 720p

    ОбщееУникальный идентификатор : 218227219884915947021500217972785491070 (0xA42D08A38E7508DDAB6FEDD62A392C7E)Полное имя : D:DVDZambezia.2012.BDRip.720p.mkvФормат : MatroskaВерсия формата : Version 2Размер файла : 2,66 ГбайтПродолжительность : 1 ч. 22 м.Общий поток : 4624 Кбит/секНазвание фильма : ZambeziaДата кодирования : UTC 2012-11-06 15:34:12Программа кодирования : mkvmerge v3.4.0 ('Rapunzel') сборка от May 15 2010 09:38:20Библиотека кодирования : libebml v0.8.0 + libmatroska v0.9.0

    ВидеоИдентификатор : 1Формат : AVCФормат/Информация : Advanced Video CodecПрофиль формата : [email protected]Параметр CABAC формата : ДаПараметр ReFrames формата : 9 кадровИдентификатор кодека : V_MPEG4/ISO/AVCБитрейт : 3764 Кбит/секШирина : 1280 пикселейВысота : 692 пикселяСоотношение сторон : 1,85:1Режим частоты кадров : ПеременныйЧастота кадров в оригинале : 23,976 кадра/секЦветовое пространство : YUVСубдискретизация насыщенности : 4:2:0Битовая глубина : 8 битТип развёртки : ПрогрессивнаяЗаголовок : NTSC, 1280x692 (1.85:1), BDRip 720p - tRuAVC & Multfilmy [DFCbit]Библиотека кодирования : x264 core 128 r2216kMod 198a7eaНастройки программы : cabac=1 / ref=9 / deblock=1:-2:-1 / analyse=0x3:0x133 / me=umh / subme=11 / psy=1 / fade_compensate=0.00 / psy_rd=0.60:0.00 / mixed_ref=1 / me_range=32 / chroma_me=1 / trellis=2 / 8x8dct=1 / cqm=0 / deadzone=21,11 / fast_pskip=0 / chroma_qp_offset=-2 / threads=6 / lookahead_threads=1 / sliced_threads=0 / nr=0 / decimate=1 / interlaced=0 / bluray_compat=0 / constrained_intra=0 / bframes=10 / b_pyramid=2 / b_adapt=2 / b_bias=0 / direct=1 / weightb=1 / open_gop=0 / weightp=2 / keyint=250 / keyint_min=23 / scenecut=40 / intra_refresh=0 / rc_lookahead=70 / rc=crf / mbtree=0 / crf=16.5600 / qcomp=0.80 / qpmin=0 / qpmax=69 / qpstep=4 / vbv_maxrate=50000 / vbv_bufsize=62500 / crf_max=0.0 / nal_hrd=none / ip_ratio=1.40 / pb_ratio=1.30 / aq=2:0.90Default : НетForced : НетОсновные цвета : BT.709Характеристики трансфера : BT.709Коэффициенты матрицы : BT.709

    Аудио #1Идентификатор : 2Формат : AC-3Формат/Информация : Audio Coding 3Расширение режима : CM (complete main)Параметр Endianness формата : BigИдентификатор кодека : A_AC3Продолжительность : 1 ч. 22 м.Вид битрейта : ПостоянныйБитрейт : 384 Кбит/секКаналы : 6 каналовРасположение каналов : Front: L C R, Side: L R, LFEЧастота : 48,0 КГцБитовая глубина : 16 битМетод сжатия : С потерямиРазмер потока : 226 Мбайт (8%)Заголовок : AC3, 6 ch, 48 kHz, 384 kbps, DubbingЯзык : RussianDefault : ДаForced : Нет

    Аудио #2Идентификатор : 3Формат : AC-3Формат/Информация : Audio Coding 3Расширение режима : CM (complete main)Параметр Endianness формата : BigИдентификатор кодека : A_AC3Продолжительность : 1 ч. 22 м.Вид битрейта : ПостоянныйБитрейт : 384 Кбит/секКаналы : 6 каналовРасположение каналов : Front: L C R, Side: L R, LFEЧастота : 48,0 КГцБитовая глубина : 16 битМетод сжатия : С потерямиРазмер потока : 226 Мбайт (8%)Заголовок : AC3, 6 ch, 48 kHz, 384 kbps, OriginalЯзык : EnglishDefault : НетForced : Нет

    ТекстИдентификатор : 4Формат : UTF-8Идентификатор кодека : S_TEXT/UTF8Идентификатор кодека/Информация : UTF-8 Plain TextЗаголовок : SRT, FullЯзык : RussianDefault : НетForced : Нет

    Меню00:00:00.000 : en:Chapter 100:04:46.495 : en:Chapter 200:08:27.257 : en:Chapter 300:12:58.486 : en:Chapter 400:18:24.562 : en:Chapter 500:25:37.536 : en:Chapter 600:30:46.762 : en:Chapter 700:38:11.247 : en:Chapter 800:43:55.383 : en:Chapter 900:46:52.393 : en:Chapter 1000:50:51.757 : en:Chapter 1100:55:05.385 : en:Chapter 1201:00:01.431 : en:Chapter 1301:06:04.836 : en:Chapter 1401:12:11.410 : en:Chapter 1501:16:37.218 : en:Chapter 16

    piratbit.ru


    Смотрите также