Скачать все еще элис торрент в хорошем качестве


Все еще Элис 2014 - скачать бесплатно через торрент в хорошем качестве. Без регистрации

Название: Все еще Элис / Still Alice (2014) HDRip | КПК | Лицензия
Скачать

Загрузка начнется в течение 5 сек.

457.29 MB

Название: Всё ещё Элис / Still Alice (2014) BDRemux 1080p от ExKinoRay | Р, A | Лицензия
Качество видео: Blu-Ray Remux (1080p)
Перевод: Профессиональный многоголосый, авторский
Видео: MPEG-4 AVC, 24932 Кбит/с, 1920x1080, 23.976 кадр/с
Аудио: Русский (AC3, 6 ch, 640 Кбит/с), (DTS-HD MA, 6 ch, 2946 Кбит/c), английский (DTS-HD MA, 6 ch, 2824 Кбит/c)
Скачать

Загрузка начнется в течение 5 сек.

22.62 GB

Название: Все еще Элис / Still Alice (2014) HDRip от Scarabey | P | Лицензия
Качество видео: HDRip
Перевод: Профессиональный (многоголосый, закадровый) [Лицензия]
Видео: 624x336 (1.86:1), 23.976 fps, XviD build 73 ~891 kbps avg, 0.18 bit/pixel
Аудио: 48 kHz, MPEG Layer 3, 2 ch, ~128.00 kbps avg
Скачать

Загрузка начнется в течение 5 сек.

745.28 MB

Название: Все еще Элис / Still Alice (2014) HDRip от Scarabey | P | Лицензия
Качество видео: HDRip
Перевод: Профессиональный (многоголосый, закадровый) [Лицензия]
Видео: 688x368 (1.87:1), 23.976 fps, XviD build 73 ~1671 kbps avg, 0.28 bit/pixel
Аудио: 48 kHz, AC3 Dolby Digital, 3/2 (L,C,R,l,r) + LFE ch, ~384 kbps
Скачать

Загрузка начнется в течение 5 сек.

1.46 GB

Название: Все еще Элис / Still Alice (2014) BDRip 1080p | Лицензия
Перевод: Профессиональный (многоголосый закадровый)
Видео: MPEG-4 AVC, 13.1 Mбит/с, 1920x1038, 23,976 fps
Аудио: Rus, AC3, 640 kb/s (6 ch), 48 kHz
Скачать

Загрузка начнется в течение 5 сек.

11.02 GB

Название: Все еще Элис / Still Alice (2014) BDRip 720p | Лицензия
Перевод: Профессиональный (многоголосый закадровый)
Видео: MPEG-4 AVC, 7520 Кбит/с, 1280x692, 23,976 fps
Аудио: Rus, AC3, 640 kb/s (6 ch), 48 kHz
Скачать

Загрузка начнется в течение 5 сек.

6.35 GB

Название: Все еще Элис / Still Alice (2014) BDRip-AVC | P | Лицензия
Качество видео: BDRip-AVC
Перевод: Профессиональный многоголосый [лицензия]
Видео: x264 720x388 (1,85:1), 23.976 fps, AVC (x264), [email protected] ~605 kbps avg
Аудио: 48 kHz, AC3 Dolby Digital, 2/0 (L,R) ch, ~128.00 kbps avg
Скачать

Загрузка начнется в течение 5 сек.

541.83 MB

Название: Все еще Элис / Still Alice (2014) HDRip | P | Лицензия
Качество видео: HDRip
Перевод: Профессиональный (многоголосый закадровый)
Формат видео: AVI
Видео: 720x384, XviD, 23.976 fps, ~1539 kbps avg
Аудио: Russian: 48 kHz, AC3, 3/2 (L,C,R,l,r) + LFE ch, ~384 kbps |Многоголосый закадровый, лицензия|
Скачать

Загрузка начнется в течение 5 сек.

1.37 GB

Название: Все еще Элис / Still Alice (2014) HDRip | Лицензия
Качество видео: HDRip
Перевод: Профессиональное (многоголосное) [лицензия]
Видео: XviD 829 Кбит/с, 640x352
Аудио: AC3, 2 ch, 128 Кбит/c
Скачать

Загрузка начнется в течение 5 сек.

699.75 MB

Название: Все еще Элис / Still Alice (2014) BDRip 1080p | Лицезия
Качество видео: BDRip 1080p
Перевод: Профессиональное многоголосное, авторский
Формат видео: MKV
Видео: MPEG-4 AVC, 13100 Кбит/с, 1920x1038
Аудио: Русский (AC3, 6 ch, 384 Кбит/с) Многоголосное (Лицензия)Русский (AC3, 6 ch, 448 Кбит/с) Авторский (В. Котов)Английский (DTS, 6 ch, 1510 Кбит/с) Оригинал
Скачать

Загрузка начнется в течение 5 сек.

11.16 GB

Название: Все еще Элис / Still Alice (2014) BDRip 1080p | Р, A | Лицезия
Качество видео: BDRip (1080p)
Перевод: Профессиональный многоголосый [лицензия], авторский одноголосый закадровый [Вячеслав Котов]
Видео: MPEG-4 AVC, 13.1 Мбит/с, 1920x1038
Аудио: Русский (AC3, 6 ch, 384 Кбит/с, Профессиональный многоголосый [лицензия]), (AC3, 6 ch, 448 Кбит/с, авторский одноголосый закадровый [Вячеслав Котов]), английский (DTS, 6 ch, 1510 Кбит/с)
Скачать

Загрузка начнется в течение 5 сек.

11.16 GB

Название: Все еще Элис / Still Alice (2014) HDRip | P
Качество видео: HDRip
Перевод: Профессиональный многоголосый [лицензия]
Видео: XviD 2030 Кбит/с, 720x384
Аудио: Русский (AC3, 6 ch, 384 Кбит/c), английский (AC3, 6 ch, 448 Кбит/c)
Скачать

Загрузка начнется в течение 5 сек.

2.04 GB

Название: Все еще Элис / Still Alice (2014) BDRip-AVC | Лицезия | P, A
Качество видео: BDRip AVC
Перевод: Профессиональное многоголосное, авторский
Формат видео: MKV
Видео: MPEG-4 AVC, 2147 Кбит/с, 1024x552
Аудио: Русский (AC3, 6 ch, 384 Кбит/с) Многоголосное (Лицензия)Русский (AC3, 6 ch, 384 Кбит/с) Авторский (В. Котов)Английский (AC3, 6 ch, 384 Кбит/с) Оригинал
Скачать

Загрузка начнется в течение 5 сек.

2.33 GB

Название: Все еще Элис / Still Alice (2014) BDRip 720p | Лицезия
Качество видео: BDRip 720p
Перевод: Профессиональное многоголосное, авторский
Формат видео: MKV
Видео: MPEG-4 AVC, 4666 Кбит/с, 1280x688
Аудио: Русский (AC3, 6 ch, 384 Кбит/с) Многоголосное (Лицензия)Русский (AC3, 6 ch, 384 Кбит/с) Авторский (В. Котов)Английский (DTS, 6 ch, 1510 Кбит/с) Оригинал
Скачать

Загрузка начнется в течение 5 сек.

4.87 GB

Название: Все еще Элис / Still Alice (2014) BDRip-AVC | L1
Качество видео: BDRip
Перевод: Одноголосый закадровый, любительский
Аудио: Русский - AC3 / 5.1 / 48.0 KHz / 320 KbpsАнглийский - AC3 / 5.1 / 48.0 KHz / 384 Kbps
Скачать

Загрузка начнется в течение 5 сек.

2.06 GB

Название: Все еще Элис / Still Alice (2014) BDRip 720p | Котов
Качество видео: BDRip 720p
Перевод: Авторское (одноголосое) [Вячеслав Котов]
Формат видео: MKV
Видео: 4666 Kb/s, 1280x688
Аудио: Russian: AC3, 320 kb/s (6 ch) / English: DTS, 1510 kb/s (6 ch)
Скачать

Загрузка начнется в течение 5 сек.

4.59 GB

Название: Все еще Элис / Still Alice (2014) BDRip 1080p | A
Качество видео: BDRip 1080p
Перевод: Авторский одноголосый (Вячеслав Котов)
Видео: MPEG-4 AVC 9305 Кбит/с, 1920x1040
Аудио: Русский (AC3, 6 ch, 320 Кбит/с), английский (DTS, 6 ch, 1510 Кбит/с)
Скачать

Загрузка начнется в течение 5 сек.

7.87 GB

Название: Все еще Элис / Still Alice (2014) HDRip | Котов
Качество видео: HDRip
Перевод: Авторское (одноголосое) [Вячеслав Котов]
Формат видео: AVI (XviD)
Видео: 1733 kb/s, 720x384
Аудио: AC3, 320 kb/s (6 ch)
Скачать

Загрузка начнется в течение 5 сек.

1.46 GB

Название: Все еще Элис / Still Alice (2014) DVDScr | Котов
Качество видео: DVDScr
Перевод: Авторское (одноголосое) [Вячеслав Котов]
Формат видео: AVI (XviD)
Видео: 1717 kb/s, 720x384
Аудио: AC3, 320 kb/s (6 ch)
Скачать

Загрузка начнется в течение 5 сек.

1.45 GB

www.kinovit.net

Всё ещё Элис через торрент

Общее Уникальный идентификатор : 212472768515029920153080951569422460260 (0x9FD8C44816DC1A08BDFDCD5F1233A564) Полное имя : N:\Драма\Vsyo.Escho.Elis.2014.DUAL.BDRip.x264.-HELLYWOOD.mkv Формат : Matroska Версия формата : Version 4 / Version 2 Размер файла : 2,18 Гбайт Продолжительность : 1 ч. 41 м. Общий поток : 3082 Кбит/сек Название фильма : Still Alice (2014) - HELLYWOOD Дата кодирования : UTC 2015-09-02 18:30:38 Программа кодирования : mkvmerge v5.9.0 ('On The Loose') built on Dec 15 2012 16:39:58 Библиотека кодирования : libebml v1.3.0 + libmatroska v1.4.0

Видео Идентификатор : 1 Формат : AVC Формат/Информация : Advanced Video Codec Профиль формата : [email protected] Параметр CABAC формата : Да Параметр ReFrames формата : 10 кадров Идентификатор кодека : V_MPEG4/ISO/AVC Продолжительность : 1 ч. 41 м. Битрейт : 2186 Кбит/сек Ширина : 1060 пикселей Высота : 572 пикселя Соотношение сторон : 1,85:1 Режим частоты кадров : Постоянный Частота кадров : 23,976 кадра/сек Цветовое пространство : YUV Субдискретизация насыщенности : 4:2:0 Битовая глубина : 8 бит Тип развёртки : Прогрессивная Бит/(Пиксели*Кадры) : 0.150 Размер потока : 1,50 Гбайт (69%) Заголовок : potroks Библиотека кодирования : x264 core 148 r2597M e86f3a1 Настройки программы : cabac=1 / ref=10 / deblock=1:-2:-2 / analyse=0x3:0x133 / me=umh / subme=11 / psy=1 / psy_rd=1.00:0.10 / mixed_ref=1 / me_range=56 / chroma_me=1 / trellis=2 / 8x8dct=1 / cqm=0 / deadzone=21,11 / fast_pskip=0 / chroma_qp_offset=-3 / threads=10 / lookahead_threads=2 / sliced_threads=0 / nr=0 / decimate=1 / interlaced=0 / bluray_compat=0 / constrained_intra=0 / bframes=11 / b_pyramid=2 / b_adapt=2 / b_bias=0 / direct=3 / weightb=1 / open_gop=0 / weightp=2 / keyint=250 / keyint_min=23 / scenecut=40 / intra_refresh=0 / rc=2pass / mbtree=0 / bitrate=2186 / ratetol=1.0 / qcomp=0.70 / qpmin=0 / qpmax=69 / qpstep=4 / cplxblur=20.0 / qblur=0.5 / ip_ratio=1.40 / pb_ratio=1.30 / aq=1:0.80 Язык : English Default : Да Forced : Нет

Аудио #1 Идентификатор : 2 Формат : AC-3 Формат/Информация : Audio Coding 3 Расширение режима : CM (complete main) Параметр Endianness формата : Big Идентификатор кодека : A_AC3 Продолжительность : 1 ч. 41 м. Вид битрейта : Постоянный Битрейт : 448 Кбит/сек Каналы : 6 каналов Расположение каналов : Front: L C R, Side: L R, LFE Частота : 48,0 КГц Метод сжатия : С потерями Задержка видео : 27 мс. Размер потока : 324 Мбайт (15%) Заголовок : MVO | DD 5.1 @ 448 kbps - Blu-Ray CEE Язык : Russian Default : Да Forced : Нет

Аудио #2 Идентификатор : 3 Формат : AC-3 Формат/Информация : Audio Coding 3 Расширение режима : CM (complete main) Параметр Endianness формата : Big Идентификатор кодека : A_AC3 Продолжительность : 1 ч. 41 м. Вид битрейта : Постоянный Битрейт : 448 Кбит/сек Каналы : 6 каналов Расположение каналов : Front: L C R, Side: L R, LFE Частота : 48,0 КГц Метод сжатия : С потерями Задержка видео : 27 мс. Размер потока : 324 Мбайт (15%) Заголовок : Original | DD 5.1 @ 448 kbps Язык : English Default : Нет Forced : Нет

Текст #1 Идентификатор : 4 Формат : UTF-8 Идентификатор кодека : S_TEXT/UTF8 Идентификатор кодека/Информация : UTF-8 Plain Text Заголовок : Перевод: platonych Язык : Russian Default : Нет Forced : Нет

Текст #2 Идентификатор : 5 Формат : UTF-8 Идентификатор кодека : S_TEXT/UTF8 Идентификатор кодека/Информация : UTF-8 Plain Text Заголовок : Blu-Ray Язык : Russian Default : Нет Forced : Нет

Текст #3 Идентификатор : 6 Формат : UTF-8 Идентификатор кодека : S_TEXT/UTF8 Идентификатор кодека/Информация : UTF-8 Plain Text Заголовок : Full Язык : English Default : Нет Forced : Нет

Текст #4 Идентификатор : 7 Формат : UTF-8 Идентификатор кодека : S_TEXT/UTF8 Идентификатор кодека/Информация : UTF-8 Plain Text Заголовок : SDH Язык : English Default : Нет Forced : Нет

Меню 00:00:00.000 : en:Chapter 01 00:04:40.697 : en:Chapter 02 00:11:03.245 : en:Chapter 03 00:15:37.894 : en:Chapter 04 00:21:34.666 : en:Chapter 05 00:28:51.061 : en:Chapter 06 00:36:54.545 : en:Chapter 07 00:43:54.840 : en:Chapter 08 00:49:39.518 : en:Chapter 09 00:58:20.246 : en:Chapter 10 01:05:08.862 : en:Chapter 11 01:11:36.000 : en:Chapter 12 01:16:38.885 : en:Chapter 13 01:20:02.171 : en:Chapter 14 01:27:08.847 : en:Chapter 15 01:30:08.944 : en:Chapter 16

piratbit.ru

Скачать фильм Всё ещё Элис через торрент в хорошем качестве бесплатно 720p] MVO

Format                                   : MatroskaFormat version                           : Version 2File size                                : 4.25 GiBDuration                                 : 1h 41mnOverall bit rate                         : 6 011 KbpsMovie name                               : Vsjo eshhjo Jelis.(2014).BDRip.720p.[denis100]Encoded date                             : UTC 2015-05-27 15:33:25Writing application                      : mkvmerge v5.8.0 ('No Sleep / Pillow') built on Sep  2 2012 15:37:04Writing library                          : libebml v1.2.3 + libmatroska v1.3.0Attachment                               : Yes

VideoID                                       : 1Format                                   : AVCFormat/Info                              : Advanced Video CodecFormat profile                           : [email protected] settings, CABAC                   : YesFormat settings, ReFrames                : 9 framesCodec ID                                 : V_MPEG4/ISO/AVCDuration                                 : 1h 41mnBit rate                                 : 4 669 KbpsWidth                                    : 1 280 pixelsHeight                                   : 688 pixelsDisplay aspect ratio                     : 1.860Frame rate                               : 23.976 fpsColor space                              : YUVChroma subsampling                       : 4:2:0Bit depth                                : 8 bitsScan type                                : ProgressiveBits/(Pixel*Frame)                       : 0.221Stream size                              : 3.22 GiB (76%)Title                                    : Vsjo eshhjo Jelis.(2014).BDRip.720p.[denis100]Writing library                          : x264 core 129 r2245 bc13772Encoding settings                        : cabac=1 / ref=9 / deblock=1:-3:-3 / analyse=0x3:0x133 / me=umh / subme=11 / psy=1 / psy_rd=1.05:0.05 / mixed_ref=1 / me_range=32 / chroma_me=1 / trellis=2 / 8x8dct=1 / cqm=0 / deadzone=21,11 / fast_pskip=0 / chroma_qp_offset=-3 / threads=12 / lookahead_threads=2 / sliced_threads=0 / nr=0 / decimate=1 / interlaced=0 / bluray_compat=0 / constrained_intra=0 / bframes=8 / b_pyramid=2 / b_adapt=2 / b_bias=0 / direct=3 / weightb=1 / open_gop=0 / weightp=2 / keyint=250 / keyint_min=23 / scenecut=40 / intra_refresh=0 / rc_lookahead=60 / rc=2pass / mbtree=1 / bitrate=4669 / ratetol=1.0 / qcomp=0.60 / qpmin=0 / qpmax=69 / qpstep=4 / cplxblur=20.0 / qblur=0.5 / vbv_maxrate=40000 / vbv_bufsize=30000 / nal_hrd=none / ip_ratio=1.40 / aq=1:0.80Language                                 : EnglishDefault                                  : YesForced                                   : No

Audio #1ID                                       : 2Format                                   : AC-3Format/Info                              : Audio Coding 3Mode extension                           : CM (complete main)Codec ID                                 : A_AC3Duration                                 : 1h 41mnBit rate mode                            : ConstantBit rate                                 : 384 KbpsChannel(s)                               : 6 channelsChannel positions                        : Front: L C R, Side: L R, LFESampling rate                            : 48.0 KHzBit depth                                : 16 bitsCompression mode                         : LossyStream size                              : 278 MiB (6%)Title                                    : MVO (Лицензия)Language                                 : RussianDefault                                  : YesForced                                   : No

Audio #2ID                                       : 3Format                                   : AC-3Format/Info                              : Audio Coding 3Mode extension                           : CM (complete main)Codec ID                                 : A_AC3Duration                                 : 1h 41mnBit rate mode                            : ConstantBit rate                                 : 320 KbpsChannel(s)                               : 6 channelsChannel positions                        : Front: L C R, Side: L R, LFESampling rate                            : 48.0 KHzBit depth                                : 16 bitsCompression mode                         : LossyStream size                              : 232 MiB (5%)Title                                    : AVO (Kotov)Language                                 : RussianDefault                                  : NoForced                                   : No

Audio #3ID                                       : 4Format                                   : AC-3Format/Info                              : Audio Coding 3Mode extension                           : CM (complete main)Codec ID                                 : A_AC3Duration                                 : 1h 41mnBit rate mode                            : ConstantBit rate                                 : 640 KbpsChannel(s)                               : 6 channelsChannel positions                        : Front: L C R, Side: L R, LFESampling rate                            : 48.0 KHzBit depth                                : 16 bitsCompression mode                         : LossyStream size                              : 463 MiB (11%)Language                                 : EnglishDefault                                  : NoForced                                   : No

Text #1ID                                       : 5Format                                   : UTF-8Codec ID                                 : S_TEXT/UTF8Codec ID/Info                            : UTF-8 Plain TextLanguage                                 : RussianDefault                                  : NoForced                                   : No

Text #2ID                                       : 6Format                                   : UTF-8Codec ID                                 : S_TEXT/UTF8Codec ID/Info                            : UTF-8 Plain TextLanguage                                 : EnglishDefault                                  : NoForced                                   : No

Menu00:00:00.000                             : en:00:00:00.00000:04:40.697                             : en:00:04:40.69700:11:03.246                             : en:00:11:03.24600:15:37.895                             : en:00:15:37.89500:21:34.668                             : en:00:21:34.66800:28:51.063                             : en:00:28:51.06300:36:54.546                             : en:00:36:54.54600:43:54.841                             : en:00:43:54.84100:49:39.518                             : en:00:49:39.51800:58:20.247                             : en:00:58:20.24701:05:08.863                             : en:01:05:08.86301:11:36.000                             : en:01:11:36.00001:16:38.886                             : en:01:16:38.88601:20:02.172                             : en:01:20:02.17201:27:08.849                             : en:01:27:08.84901:30:08.945                             : en:01:30:08.945

piratbit.ru

Скачать фильм Всё ещё Элис (2014) через торрент

21 апреля 2016 13:47 Всё ещё Элис / Still Alice (2014) Blu-Ray | P | Лицензия .torrent   [Информация о файле (нажмите для просмотра)] Перевод: Профессиональный (многоголосый, закадровый)Кодек: MPEG-4 AVCКачество: Blu-Ray 1080pВидео: 1920x1080 ~ 24932 kbps / 23,976 fps /Аудио#6: RussianСубтитры: Английский, Арабский, Болгарский, Чешский, Эстонский, Французский, Хинди, Венгерский, Польский, Португальский, Румынский,Русский, Словацкий 30,11 Gb 3 3 21 апреля 2016 13:47 Все еще Элис / Still Alice (2014) HDRip | КПК | Лицензия .torrent   [Информация о файле (нажмите для просмотра)] Перевод: Профессиональный (многоголосый, закадровый) [Лицензия]Качество: HDRipФормат: MP4 457,29 Mb 11 2 21 апреля 2016 13:47 Всё ещё Элис / Still Alice (2014) BDRip-AVC от New-Team | P | Лицензия .torrent   [Информация о файле (нажмите для просмотра)] Перевод: Профессиональный (многоголосый закадровый) [Лицензия]Видео: 965 Кбит/сек, 808*436 (1,853), в 23,976 кадр/сек, AVCАудио: Russian, 64,0 Кбит/сек, 48,0 КГц / 24,0 КГц, 2 канала(ов), AAC (HE-AAC / LC)Видео: Идентификатор : 1 Формат : AVC Формат/Информация : Advanced Video Codec Профиль формата : [email protected] Параметр CABAC формата : Да Параметр ReFrames формата : 14 кадры Идентификатор кодека : V_MPEG4/ISO/AVC Продолжительность : 1 ч. 41 м. Номинальный битрейт : 965 Кбит/сек Ширина : 808 пикс. Высота : 436 пикс. Соотношение сторон : 1,853 Частота кадров : 23,976 кадр/сек Цветовое пространство : YUV Подвыборка цветности : 4:2:0 Битовая глубина : 8 бит Тип развёртки : Прогрессивная Бит/(Пиксели*Кадры) : 0.114 Библиотека кодирования : x264 core 146 r2538kMod 121396c Настройки программы : cabac=1 / ref=14 / deblock=1:-3:-3 / analyse=0x3:0x133 / me=umh / subme=11 / psy=1 / fade_compensate=0.00 / psy_rd=1.00:0.10 / mixed_ref=1 / me_range=48 / chroma_me=1 / trellis=2 / 8x8dct=1 / cqm=0 / deadzone=21,11 / fast_pskip=0 / chroma_qp_offset=-3 / threads=12 / lookahead_threads=3 / sliced_threads=0 / nr=0 / decimate=0 / interlaced=0 / bluray_compat=0 / constrained_intra=0 / fgo=0 / bframes=16 / b_pyramid=2 / b_adapt=2 / b_bias=0 / direct=3 / weightb=1 / open_gop=0 / weightp=2 / keyint=240 / keyint_min=23 / scenecut=40 / intra_refresh=0 / rc_lookahead=40 / rc=2pass / mbtree=0 / bitrate=965 / ratetol=1.0 / qcomp=0.65 / qpmin=0 / qpmax=69 / qpstep=4 / cplxblur=20.0 / qblur=0.5 / vbv_maxrate=50000 / vbv_bufsize=62500 / nal_hrd=none / filler=0 / ip_ratio=1.30 / pb_ratio=1.20 / aq=3:1.00Аудио: Идентификатор : 2 Формат : AAC Формат/Информация : Advanced Audio Codec Профиль формата : HE-AAC / LC Идентификатор кодека : A_AAC Продолжительность : 1 ч. 41 м. Канал(ы) : 2 канала(ов) Расположение каналов : Front: L R Частота : 48,0 КГц / 24,0 КГц Метод сжатия : С потерями Задержка видео : 31 мс. Язык : Russian 745,66 Mb 15 4 21 апреля 2016 13:47 Всё ещё Элис / Still Alice (2014) BDRip от HQCLUB | P | Лицензия .torrent   [Информация о файле (нажмите для просмотра)] Перевод: Профессиональный (многоголосый, закадровый)BD EURСубтитры: русские (полные), английские (полные)Формат: AVIКачество: BDRip (источник / Blu-ray EUR [STILL_ALICE_HDCLUB] / 1080p)Видео: 704x384 (1.83:1), 23.976 fps, XviD build 65 ~2182 kbps avg, 0.34 bit/pixelАудио #1: 48 kHz, AC3 Dolby Digital, 3/2 (L,C,R,l,r) + LFE ch, ~448 kbps avg (MVO)Аудио #2: 48 kHz, AC3 Dolby Digital, 3/2 (L,C,R,l,r) + LFE ch, ~448 kbps avg (ENG) 2,18 Gb 4 2 21 апреля 2016 13:47 Всё ещё Элис / Still Alice (2014) BDRemux 1080p от ExKinoRay | Р, A | Лицензия .torrent   [Информация о файле (нажмите для просмотра)] Качество: Blu-Ray Remux (1080p)Видео: MPEG-4 AVC, 24932 Кбит/с, 1920x1080, 23.976 кадр/сАудио: Русский (AC3, 6 ch, 640 Кбит/с), (DTS-HD MA, 6 ch, 2946 Кбит/c), английский (DTS-HD MA, 6 ch, 2824 Кбит/c)Перевод: Профессиональный многоголосый, авторскийСубтитры: Русские, aнглийскиeВидео: Идентификатор : 1 Формат : AVC Формат/Информация : Advanced Video Codec Профиль формата : [email protected] Параметр CABAC формата : Да Параметр ReFrames формата : 2 кадра Параметр GOP формата : M=1, N=10 Идентификатор кодека : V_MPEG4/ISO/AVC Продолжительность : 1 ч. 41 м. Вид битрейта : Переменный Ширина : 1920 пикселей Высота : 1080 пикселей Соотношение сторон : 16:9 Режим частоты кадров : Постоянный Частота кадров : 23,976 кадра/сек Цветовое пространство : YUV Субдискретизация насыщенности : 4:2:0 Битовая глубина : 8 бит Тип развёртки : Прогрессивная Default : Да Forced : НетАудио #1: Идентификатор : 2 Формат : AC-3 Формат/Информация : Audio Coding 3 Расширение режима : CM (complete main) Параметр Endianness формата : Big Идентификатор кодека : A_AC3 Продолжительность : 1 ч. 41 м. Вид битрейта : Постоянный Битрейт : 640 Кбит/сек Каналы : 6 каналов Расположение каналов : Front: L C R, Side: L R, LFE Частота : 48,0 КГц Битовая глубина : 16 бит Метод сжатия : С потерями Размер потока : 463 Мбайт (2%) Заголовок : Профессиональный многоголосый (Лицензия) Язык : Russian Default : Да Forced : НетАудио #2: Идентификатор : 3 Формат : AC-3 Формат/Информация : Audio Coding 3 Расширение режима : CM (complete main) Параметр Endianness формата : Big Идентификатор кодека : A_AC3 Продолжительность : 1 ч. 41 м. Вид битрейта : Постоянный Битрейт : 640 Кбит/сек Каналы : 6 каналов Расположение каналов : Front: L C R, Side: L R, LFE Частота : 48,0 КГц Битовая глубина : 16 бит Метод сжатия : С потерями Размер потока : 463 Мбайт (2%) Заголовок : Авторский (В.Котов) Язык : Russian Default : Нет Forced : НетАудио #3: Идентификатор : 4 Формат : DTS Формат/Информация : Digital Theater Systems Профиль формата : MA / Core Режим : 16 Параметр Endianness формата : Big Идентификатор кодека : A_DTS Продолжительность : 1 ч. 41 м. Вид битрейта : Переменный Битрейт : Неизвестно / 1509 Кбит/сек Каналы : 6 каналов Расположение каналов : Front: L C R, Side: L R, LFE Частота : 48,0 КГц Битовая глубина : 24 бит Метод сжатия : Без потерь / Lossy Заголовок : Авторский (В.Котов) Язык : Russian Default : Нет Forced : НетАудио #4: Идентификатор : 5 Формат : DTS Формат/Информация : Digital Theater Systems Профиль формата : MA / Core Режим : 16 Параметр Endianness формата : Big Идентификатор кодека : A_DTS Продолжительность : 1 ч. 41 м. Вид битрейта : Переменный Битрейт : Неизвестно / 1509 Кбит/сек Каналы : 6 каналов Расположение каналов : Front: L C R, Side: L R, LFE Частота : 48,0 КГц Битовая глубина : 24 бит Метод сжатия : Без потерь / Lossy Язык : English Default : Нет Forced : Нет 22,62 Gb 4 4 21 апреля 2016 13:47 Всё ещё Элис / Still Alice (2014) BDRip 1080p | Лицензия .torrent   [Информация о файле (нажмите для просмотра)] Перевод: Профессиональный многоголосый закадровый (лицензия)Кодек: x264Качество: BDRip (источник: Blu-ray Disc)Видео: 1920x1038 (1,85:1), 23.976 fps, 9690 kbpsАудио #1: AC-3, 6 ch, 640 kbps (Rus)Аудио #2: AC-3, 6 ch, 640 kbps (Eng)Субтитры: Русские, Английские 7,75 Gb 4 3 21 апреля 2016 13:47 Все еще Элис / Still Alice (2014) HDRip от Scarabey | P | Лицензия .torrent   [Информация о файле (нажмите для просмотра)] Перевод: Профессиональный (многоголосый, закадровый) [Лицензия]Видео: 624x336 (1.86:1), 23.976 fps, XviD build 73 ~891 kbps avg, 0.18 bit/pixelАудио: 48 kHz, MPEG Layer 3, 2 ch, ~128.00 kbps avg 745,28 Mb 6 3 21 апреля 2016 13:47 Все еще Элис / Still Alice (2014) HDRip от Scarabey | P | Лицензия .torrent   [Информация о файле (нажмите для просмотра)] Перевод: Профессиональный (многоголосый, закадровый) [Лицензия]Видео: 688x368 (1.87:1), 23.976 fps, XviD build 73 ~1671 kbps avg, 0.28 bit/pixelАудио: 48 kHz, AC3 Dolby Digital, 3/2 (L,C,R,l,r) + LFE ch, ~384 kbps 1,46 Gb 31 7 21 апреля 2016 13:47 Всё ещё Элис / Still Alice (2014) BDRip 720p от ExKinoRay | Р, A | Лицензия .torrent   [Информация о файле (нажмите для просмотра)] Перевод: Профессиональный (многоголосый, закадровый) Blu-ray CEE + Авторский (Вячеслав Котов)Кодек: MPEG-4 AVCКачество: BDRip 720pВидео: 1280x692 at 23.976 fps, [email protected], ~7461 kbps avgСубтитры: Russian (Blu-ray CEE), English 8,49 Gb 3 3 21 апреля 2016 13:47 Всё ещё Элис / Still Alice (2014) BDRip 1080p от ExKinoRay | Р, A | Лицензия .torrent   [Информация о файле (нажмите для просмотра)] Перевод: Профессиональный (многоголосый, закадровый) Blu-ray CEE + Авторский (Вячеслав Котов)Формат: MatroskaВидео: 1920x1038 at 23.976 fps, [email protected], ~13100 kbps avgАудио#3: Russian: 48 kHz, DTS, 3/2 (L,C,R,l,r) + LFE ch, ~1509 kbps avg |Авторский, В. Котов|Аудио#4: English: 48 kHz, DTS, 3/2 (L,C,R,l,r) + LFE ch, ~1509 kbps avgСубтитры: Russian (Blu-ray CEE), English 12,55 Gb 4 1 21 апреля 2016 13:47 Все еще Элис / Still Alice (2014) BDRip 1080p | Лицензия .torrent   [Информация о файле (нажмите для просмотра)] Перевод: Профессиональный (многоголосый закадровый)Контейнер: MKVВидео: MPEG-4 AVC, 13.1 Mбит/с, 1920x1038, 23,976 fpsАудио: Rus, AC3, 640 kb/s (6 ch), 48 kHzАудио 2: Eng, DTS, 1510 kb/s (6 ch), 48 kHz 11,02 Gb 3 3 21 апреля 2016 13:47 Все еще Элис / Still Alice (2014) BDRip 720p | Лицензия .torrent   [Информация о файле (нажмите для просмотра)] Перевод: Профессиональный (многоголосый закадровый)Контейнер: MKVВидео: MPEG-4 AVC, 7520 Кбит/с, 1280x692, 23,976 fpsАудио: Rus, AC3, 640 kb/s (6 ch), 48 kHzАудио 2: Eng, AC3, 640 kb/s (6 ch), 48 kHz 6,35 Gb 7 2 21 апреля 2016 13:47 Всё ещё Элис / Still Alice (2014) BDRip 720p от NNNB .torrent   [Информация о файле (нажмите для просмотра)] Перевод: Профессиональный многоголосый (Лицензия), Авторский (одноголосый)Качество: BDRip 720pФормат: AVC (библиотека кодирования x.264)Видео: 1280x688, 4669 Кбит/сек, 23,976 кадр/сек, 0,221 Бит/[Пиксели*Кадры]Аудио №1: русский / AC3 / 5.1 / 48 kHz / 384 kbps /|Профессиональный многоголосый| Аудио №2: русский / AC3 / 5.1 / 48 kHz / 320 kbps /|Авторский, В. Котов| Аудио №3: английский / AC3 / 5.1 / 48 kHz / 640 kbps /Субтитры: русские, английские 4,25 Gb 5 3 21 апреля 2016 13:46 Все еще Элис / Still Alice (2014) BDRip-AVC | P | Лицензия .torrent   [Информация о файле (нажмите для просмотра)] Перевод: Профессиональный многоголосый [лицензия]Кодек: x264Качество: BDRip-AVCВидео: 720x388 (1,85:1), 23.976 fps, AVC (x264), [email protected] ~605 kbps avgЗвук: 48 kHz, AC3 Dolby Digital, 2/0 (L,R) ch, ~128.00 kbps avg 541,83 Mb 4 3 21 апреля 2016 13:46 Все еще Элис / Still Alice (2014) HDRip | P | Лицензия .torrent   [Информация о файле (нажмите для просмотра)] Перевод: Профессиональный (многоголосый закадровый) лицензияФормат: AVIКачество: HDRipВидео: 1539 kb/s, 720x384Аудио: Russian: AC3, 384 kb/s (6 ch)Субтитры: нет 1,37 Gb 26 11 21 апреля 2016 13:46 Все еще Элис / Still Alice (2014) HDRip | Лицензия .torrent   [Информация о файле (нажмите для просмотра)] Кодек: XviDКачество: HDRipВидео: 829 Кбит/с, 640x352Звук: AC3, 2 ch, 128 Кбит/cСубтитры: Отсутствуют 699,75 Mb 9 1 21 апреля 2016 13:46 Все еще Элис / Still Alice (2014) BDRip 1080p | Р, A | Лицензия .torrent   [Информация о файле (нажмите для просмотра)] Качество: BDRip (1080p)Видео: MPEG-4 AVC, 13.1 Мбит/с, 1920x1038Аудио: Русский (AC3, 6 ch, 384 Кбит/с, Профессиональный многоголосый [лицензия]), (AC3, 6 ch, 448 Кбит/с, авторский одноголосый закадровый [Вячеслав Котов]), английский (DTS, 6 ch, 1510 Кбит/с)Перевод: Профессиональный многоголосый [лицензия], авторский одноголосый закадровый [Вячеслав Котов]Субтитры: Русские, английскиеВидео: Идентификатор : 1 Формат : AVC Формат/Информация : Advanced Video Codec Профиль формата : [email protected] Параметр CABAC формата : Да Параметр ReFrames формата : 4 кадра Идентификатор кодека : V_MPEG4/ISO/AVC Продолжительность : 1 ч. 41 м. Битрейт : 13,1 Мбит/сек Ширина : 1920 пикселей Высота : 1038 пикселей Соотношение сторон : 1,85:1 Режим частоты кадров : Постоянный Частота кадров : 23,976 кадра/сек Цветовое пространство : YUV Субдискретизация насыщенности : 4:2:0 Битовая глубина : 8 бит Тип развёртки : Прогрессивная Бит/(Пиксели*Кадры) : 0.275 Размер потока : 9,28 Гбайт (83%) Библиотека кодирования : x264 core 146 r2538 121396c Настройки программы : cabac=1 / ref=4 / deblock=1:-3:-3 / analyse=0x3:0x113 / me=umh / subme=11 / psy=1 / psy_rd=1.00:0.00 / mixed_ref=1 / me_range=24 / chroma_me=1 / trellis=2 / 8x8dct=1 / cqm=0 / deadzone=21,11 / fast_pskip=0 / chroma_qp_offset=-2 / threads=12 / lookahead_threads=2 / sliced_threads=0 / nr=0 / decimate=1 / interlaced=0 / bluray_compat=0 / constrained_intra=0 / bframes=8 / b_pyramid=2 / b_adapt=2 / b_bias=0 / direct=1 / weightb=1 / open_gop=0 / weightp=2 / keyint=240 / keyint_min=23 / scenecut=40 / intra_refresh=0 / rc_lookahead=40 / rc=crf / mbtree=0 / crf=17.5 / qcomp=0.65 / qpmin=0 / qpmax=69 / qpstep=4 / vbv_maxrate=62500 / vbv_bufsize=78125 / crf_max=0.0 / nal_hrd=none / filler=0 / ip_ratio=1.30 / pb_ratio=1.20 / aq=1:0.70 Язык : English Default : Да Forced : ДаАудио #1: Идентификатор : 2 Формат : AC-3 Формат/Информация : Audio Coding 3 Расширение режима : CM (complete main) Параметр Endianness формата : Big Идентификатор кодека : A_AC3 Продолжительность : 1 ч. 41 м. Вид битрейта : Постоянный Битрейт : 384 Кбит/сек Каналы : 6 каналов Расположение каналов : Front: L C R, Side: L R, LFE Частота : 48,0 КГц Битовая глубина : 16 бит Метод сжатия : С потерями Размер потока : 278 Мбайт (2%) Заголовок : R5 Язык : Russian Default : Да Forced : НетАудио #2: Идентификатор : 3 Формат : AC-3 Формат/Информация : Audio Coding 3 Расширение режима : CM (complete main) Параметр Endianness формата : Big Идентификатор кодека : A_AC3 Продолжительность : 1 ч. 41 м. Вид битрейта : Постоянный Битрейт : 448 Кбит/сек Каналы : 6 каналов Расположение каналов : Front: L C R, Side: L R, LFE Частота : 48,0 КГц Битовая глубина : 16 бит Метод сжатия : С потерями Размер потока : 324 Мбайт (3%) Заголовок : Котов Язык : Russian Default : Нет Forced : НетАудио #3: Идентификатор : 4 Формат : DTS Формат/Информация : Digital Theater Systems Режим : 16 Параметр Endianness формата : Big Идентификатор кодека : A_DTS Продолжительность : 1 ч. 41 м. Вид битрейта : Постоянный Битрейт : 1509 Кбит/сек Каналы : 6 каналов Расположение каналов : Front: L C R, Side: L R, LFE Частота : 48,0 КГц Битовая глубина : 24 бит Метод сжатия : С потерями Размер потока : 1,07 Гбайт (10%) Язык : English Default : Нет Forced : Нет 11,16 Gb 3 1 21 апреля 2016 13:46 Все еще Элис / Still Alice (2014) BDRip-AVC | Лицезия | P, A .torrent   [Информация о файле (нажмите для просмотра)] Перевод: Профессиональное многоголосное, авторскийФормат: MKVКачество: BDRip AVCВидео: MPEG-4 AVC, 2147 Кбит/с, 1024x552Аудио #1: Русский (AC3, 6 ch, 384 Кбит/с) Многоголосное(Лицензия)Аудио #2: Русский (AC3, 6 ch, 384 Кбит/с) Авторский(В. Котов)Аудио #3: Английский (AC3, 6 ch, 384 Кбит/с)ОригиналСубтитры: Русский, английскийВидео: Идентификатор : 1 Формат : AVC Формат/Информация : Advanced Video Codec Профиль формата : [email protected] Параметр CABAC формата : Да Параметр ReFrames формата : 9 кадров Идентификатор кодека : V_MPEG4/ISO/AVC Продолжительность : 1 ч. 41 м. Битрейт : 2139 Кбит/сек Ширина : 1024 пикселя Высота : 552 пикселя Соотношение сторон : 1,85:1 Режим частоты кадров : Постоянный Частота кадров : 23,976 кадра/сек Цветовое пространство : YUV Субдискретизация насыщенности : 4:2:0 Битовая глубина : 8 бит Тип развёртки : Прогрессивная Бит/(Пиксели*Кадры) : 0.158 Размер потока : 1,51 Гбайт (65%) Заголовок : Still Alice (2014) Библиотека кодирования : x264 core 146 r2538 121396c Настройки программы : cabac=1 / ref=9 / deblock=1:-3:-3 / analyse=0x3:0x133 / me=umh / subme=10 / psy=1 / psy_rd=1.00:0.15 / mixed_ref=1 / me_range=32 / chroma_me=1 / trellis=2 / 8x8dct=1 / cqm=0 / deadzone=21,11 / fast_pskip=0 / chroma_qp_offset=-3 / threads=12 / lookahead_threads=2 / sliced_threads=0 / nr=0 / decimate=0 / interlaced=0 / bluray_compat=0 / constrained_intra=0 / bframes=9 / b_pyramid=2 / b_adapt=2 / b_bias=0 / direct=3 / weightb=1 / open_gop=0 / weightp=2 / keyint=250 / keyint_min=23 / scenecut=40 / intra_refresh=0 / rc_lookahead=48 / rc=crf / mbtree=1 / crf=17.5 / qcomp=0.65 / qpmin=0 / qpmax=69 / qpstep=4 / vbv_maxrate=17500 / vbv_bufsize=17500 / crf_max=0.0 / nal_hrd=none / filler=0 / ip_ratio=1.40 / aq=3:0.90 Язык : English Default : Да Forced : Нет Основные цвета : BT.709 Характеристики трансфера : BT.709 Коэффициенты матрицы : BT.709 _STATISTICS_WRITING_APP : mkvmerge v7.8.0 ('River Man') 64bit built on Mar 27 2015 16:31:37 _STATISTICS_WRITING_DATE_UTC : 2015-04-26 10:40:52 _STATISTICS_TAGS : BPS DURATION NUMBER_OF_FRAMES NUMBER_OF_BYTES DURATION : 01:41:15.069000000 NUMBER_OF_FRAMES : 145656 NUMBER_OF_BYTES : 1672526426 Аудио #1: Идентификатор : 2 Формат : AC-3 Формат/Информация : Audio Coding 3 Расширение режима : CM (complete main) Параметр Endianness формата : Big Идентификатор кодека : A_AC3 Продолжительность : 1 ч. 41 м. Вид битрейта : Постоянный Битрейт : 384 Кбит/сек Каналы : 6 каналов Расположение каналов : Front: L C R, Side: L R, LFE Частота : 48,0 КГц Битовая глубина : 16 бит Метод сжатия : С потерями Размер потока : 278 Мбайт (12%) Заголовок : MVO (Лицензия) Язык : Russian Default : Да Forced : Нет Аудио #2: Идентификатор : 3 Формат : AC-3 Формат/Информация : Audio Coding 3 Расширение режима : CM (complete main) Параметр Endianness формата : Big Идентификатор кодека : A_AC3 Продолжительность : 1 ч. 41 м. Вид битрейта : Постоянный Битрейт : 320 Кбит/сек Каналы : 6 каналов Расположение каналов : Front: L C R, Side: L R, LFE Частота : 48,0 КГц Битовая глубина : 16 бит Метод сжатия : С потерями Размер потока : 232 Мбайт (10%) Заголовок : AVO (Kotov) Язык : Russian Default : Нет Forced : Нет Аудио #3: Идентификатор : 4 Формат : AC-3 Формат/Информация : Audio Coding 3 Расширение режима : CM (complete main) Параметр Endianness формата : Big Идентификатор кодека : A_AC3 Продолжительность : 1 ч. 41 м. Вид битрейта : Постоянный Битрейт : 384 Кбит/сек Каналы : 6 каналов Расположение каналов : Front: L C R, Side: L R, LFE Частота : 44,1 КГц Битовая глубина : 16 бит Метод сжатия : С потерями Размер потока : 278 Мбайт (12%) Заголовок : Original Язык : English Default : Нет Forced : Нет 2,33 Gb 4 3 21 апреля 2016 13:46 Все еще Элис / Still Alice (2014) HDRip | P | Лицезия .torrent   [Информация о файле (нажмите для просмотра)] Перевод: Профессиональный многоголосый [лицензия]Кодек: XviDКачество: HDRipВидео: 2030 Кбит/с, 720x384Звук: Русский (AC3, 6 ch, 384 Кбит/c), английский (AC3, 6 ch, 448 Кбит/c) 2,04 Gb 6 1 21 апреля 2016 13:46 Все еще Элис / Still Alice (2014) BDRip 720p | Лицезия .torrent   [Информация о файле (нажмите для просмотра)] Перевод: Профессиональное многоголосное, авторскийФормат: MKVКачество: BDRip 720pВидео: MPEG-4 AVC, 4666 Кбит/с, 1280x688Аудио #1: Русский (AC3, 6 ch, 384 Кбит/с) Многоголосное(Лицензия)Аудио #2: Русский (AC3, 6 ch, 384 Кбит/с) Авторский(В. Котов)Аудио #3: Английский (DTS, 6 ch, 1510 Кбит/с)ОригиналСубтитры: Русский, английскийВидео: Идентификатор : 1 Формат : AVC Формат/Информация : Advanced Video Codec Профиль формата : [email protected] Параметр CABAC формата : Да Параметр ReFrames формата : 5 кадров Идентификатор кодека : V_MPEG4/ISO/AVC Продолжительность : 1 ч. 41 м. Битрейт : 4666 Кбит/сек Ширина : 1280 пикселей Высота : 688 пикселей Соотношение сторон : 1,85:1 Режим частоты кадров : Постоянный Частота кадров : 23,976 кадра/сек Цветовое пространство : YUV Субдискретизация насыщенности : 4:2:0 Битовая глубина : 8 бит Тип развёртки : Прогрессивная Бит/(Пиксели*Кадры) : 0.221 Размер потока : 3,20 Гбайт (66%) Библиотека кодирования : x264 core 144 r2525 40bb568 Настройки программы : cabac=1 / ref=5 / deblock=1:0:0 / analyse=0x3:0x133 / me=umh / subme=7 / psy=1 / psy_rd=1.00:0.00 / mixed_ref=1 / me_range=16 / chroma_me=1 / trellis=1 / 8x8dct=1 / cqm=0 / deadzone=21,11 / fast_pskip=0 / chroma_qp_offset=-2 / threads=18 / lookahead_threads=3 / sliced_threads=0 / nr=0 / decimate=1 / interlaced=0 / bluray_compat=0 / constrained_intra=0 / bframes=3 / b_pyramid=2 / b_adapt=1 / b_bias=0 / direct=1 / weightb=1 / open_gop=0 / weightp=2 / keyint=250 / keyint_min=23 / scenecut=40 / intra_refresh=0 / rc_lookahead=40 / rc=2pass / mbtree=1 / bitrate=4666 / ratetol=1.0 / qcomp=0.60 / qpmin=0 / qpmax=69 / qpstep=4 / cplxblur=20.0 / qblur=0.5 / ip_ratio=1.40 / aq=1:1.00 Язык : English Default : Да Forced : Нет Аудио #1: Идентификатор : 2 Формат : AC-3 Формат/Информация : Audio Coding 3 Расширение режима : CM (complete main) Параметр Endianness формата : Big Идентификатор кодека : A_AC3 Продолжительность : 1 ч. 41 м. Вид битрейта : Постоянный Битрейт : 384 Кбит/сек Каналы : 6 каналов Расположение каналов : Front: L C R, Side: L R, LFE Частота : 48,0 КГц Битовая глубина : 16 бит Метод сжатия : С потерями Размер потока : 278 Мбайт (6%) Заголовок : MVO (Лицензия) Язык : Russian Default : Нет Forced : Нет Аудио #2: Идентификатор : 3 Формат : AC-3 Формат/Информация : Audio Coding 3 Расширение режима : CM (complete main) Параметр Endianness формата : Big Идентификатор кодека : A_AC3 Продолжительность : 1 ч. 41 м. Вид битрейта : Постоянный Битрейт : 320 Кбит/сек Каналы : 6 каналов Расположение каналов : Front: L C R, Side: L R, LFE Частота : 48,0 КГц Битовая глубина : 16 бит Метод сжатия : С потерями Задержка видео : 8 мс. Размер потока : 232 Мбайт (5%) Заголовок : AVO (Котов) Язык : Russian Default : Нет Forced : Нет Аудио #3: Идентификатор : 4 Формат : DTS Формат/Информация : Digital Theater Systems Режим : 16 Параметр Endianness формата : Big Идентификатор кодека : A_DTS Продолжительность : 1 ч. 41 м. Вид битрейта : Постоянный Битрейт : 1509 Кбит/сек Каналы : 6 каналов Расположение каналов : Front: L C R, Side: L R, LFE Частота : 48,0 КГц Битовая глубина : 24 бит Метод сжатия : С потерями Размер потока : 1,07 Гбайт (22%) Заголовок : Original Язык : English Default : Нет Forced : Нет 4,87 Gb 7 2 21 апреля 2016 13:46 Все еще Элис / Still Alice (2014) BDRip 1080p | A .torrent   [Информация о файле (нажмите для просмотра)] Перевод: Авторский одноголосый(Вячеслав Котов)Кодек: MPEG-4 AVCКачество: BDRip 1080pВидео: 9305 Кбит/с, 1920x1040Звук: Русский (AC3, 6 ch, 320 Кбит/с), английский (DTS, 6 ch, 1510 Кбит/с)Субтитры: Отсутствуют 7,87 Gb 3 5

gig-torrent.net


Смотрите также