Скачать восстание планеты обезьян 1 через торрент в хорошем качестве


Восстание планеты обезьян через торрент

piratbit.ru

Раздают: 3 [ 0 KB/s ]
Размер: 1.47 GB | Добавлен: 5 лет 10 мес. назад | Торрент скачан:2233 раза
Реклама Дарим 3000 рублей за регистрацию, не упусти свой шанс получить шикарный бонус!!!

04-12-2011 18:25 Восстание планеты обезьян Скачать торрент  

Восстание планеты обезьян / Rise of the Planet of the Apes Год выпуска: 2011Страна: США / Twentieth Century Fox Film CorporationЖанр: фантастика, боевик, триллер, драмаПродолжительность: 01:44:56Перевод: Профессиональный (многоголосый, закадровый)(студия «Омикрон» )Режиссер: Руперт УайаттПродюссер: Дилан Кларк, Рик Джаффа, Аманда СильверСценарий: Рик Джаффа, Аманда Сильвер, Пьер БульБюджет: $93 000 000Премьера в мире: 3 августа 2011Премьера (РФ): 4 августа 2011, «Двадцатый Век Фокс СНГ» Релиз на DVD: 15 декабря 2011, «Двадцатый Век Фокс СНГ» Релиз на Blu-Ray: 15 декабря 2011, «Двадцатый Век Фокс СНГ» детям до 13 лет просмотр не желателенМировой рейтинг IMDB 7.80 (89 979) В ролях: Джеймс Франко, Джон Литгоу, Фрида Пинто, Тайлер Лэбин, Брайан Кокс, Том Фелтон, Дэвид Ойелоуо, Джэми Харрис, Дэвид Хьюлетт, Ти Олссон, Алексей Чадов, Виктор Костецкий, Наталья Виноградова, Алексей Макрецкий, Сергей ДьячковОписание: Молодой ученый испытывает на обезьянах новое лекарство от болезни Альцгеймера. У препарата обнаруживается удивительный побочный эффект: он повышает в несколько раз интеллект приматов.

• Шимпанзе Цезаря (зачинщика обезьяньего бунта) изобразил Энди Серкис, ранее подаривший пластику и мимику Голлуму и Кинг Конгу.• «Восстание…» – первый фильм «обезьяньей» франшизы, в котором четверорукие приматы представляют собой CG-модели. В римейке «Планеты обезьян» Тима Бертона обезьян играли актеры в сложном гриме.• У картины было три рабочих названия: «Цезарь» (Caesar), «Цезарь: Восстание обезьян» (Caesar: Rise of the Apes) и «Восстание обезьян» (Rise of the Apes). Окончательным названием – «Восстание планеты обезьян» (Rise of the Planet of the Apes) создатели фильма решили подчеркнуть связь с франшизой «Планета обезьян» (Planet of the Apes).• Цезарь использует связку палок, чтобы объяснить Морису, как одна обезьяна слаба, а обезьяны вместе - сильны. Так же связка палок, или Фа́сции, была символом власти в древнем Риме, происхождении имени Цезаря. Образ Цезаря также напоминает о Бенито Муссолини, который принял Фа́сции как символ его итальянской Фашистской стороны.• На роль Уилла, которого сыграл Джеймс Франко, рассматривался также Тоби Магуайр.

Качество: BDRip (Рип с BD-Remux 1080p)Формат: AVIВидео кодек: XviDАудио кодек: AC3Видео: 720x304 (2.37:1), 23.976 fps, XviD build 50 ~1676 kbps avg, 0.32 bit/pixelАудио: 48 kHz, AC3 Dolby Digital, 2/0 (L,R) ch, ~320 kbpsРелиз от: Скачать Восстание планеты обезьян через торрент http://i28.fastpic.ru/big/2011/1204/a3/5b52d0d480f7721641dd1e937528d0a3.jpg Скачать фильм Восстание планеты обезьян через торрент бесплантно в хорошем качестве Описание: Молодой ученый испытывает на обезьянах новое лекарство от болезни Альцгеймера. У препарата обнаруживается удивительный побочный ... 2011-12-04 18:25 9.7 10 44

Loading...

Loading...

Рекламный пират

04-12-2011 18:30 Восстание планеты обезьян Скачать торрент  

04-12-2011 18:36 Восстание планеты обезьян Скачать торрент  

ОСТАВЛЯЕМ СВОИ КОММЕНТАРИИ ДАМЫ И ГОСПОДА , МНЕ ИНТЕРЕСНО ВАШЕ МНЕНИЕ

11-12-2011 18:43 Восстание планеты обезьян Скачать торрент  

12-12-2011 13:43 Восстание планеты обезьян Скачать торрент  

у меня качаеться как музыка что делать

13-12-2011 15:06 Восстание планеты обезьян Скачать торрент  

какая то беда со звуком :(

07-03-2013 11:52 Восстание планеты обезьян Скачать торрент  

встанте а раздаче, дайте скачать)))))))))))))))

14-03-2013 23:06 Восстание планеты обезьян Скачать торрент  

Интересно осмелятса на продолжение .

Фильм силён !!!!!!!!!!

Дорогой пользователь! Огромная просьба, поблагодарите релизера, оцените раздачу и оставьте свои комментарий, если Вы скачали Восстание планеты обезьян через торрент бесплатно! Внесите свою лепту в развитие PiratBit!

Комментировать посты могут только пользователи прошедшие не сложную регистрацию

Восстание планеты обезьян через торрент Скачать бесплатно Восстание планеты обезьян Восстание планеты обезьян скачать торрент Восстание планеты обезьян смотреть онлайн Cкачать фильм Восстание планеты обезьян бесплатно Восстание планеты обезьян скачать торрент в хорошем качестве Восстание планеты обезьян смотреть онлайн бесплатно в хорошем качестве

Вы не можете начинать темыВы не можете отвечать на сообщенияВы не можете редактировать свои сообщенияВы не можете удалять свои сообщенияВы не можете голосовать в опросахВы не можете прикреплять файлы к сообщениямВы можете скачивать файлы

Восстание планеты обезьян через торрент

ОбщееУникальный идентификатор : 176553349107819556353971373758473941133 (0x84D2F02CC07EB906B02EEC65095DB08D)Полное имя : E:\Восстание планеты обезьян ~ Rise of the Planet of the Apes (2011) BDRip-1080p.mkvФормат : MatroskaВерсия формата : Version 2Размер файла : 14,3 ГбайтПродолжительность : 1 ч. 44 м.Общий поток : 19,5 Мбит/секНазвание фильма : Rise of the Planet of the Apes (2011)Дата кодирования : UTC 2011-12-08 05:02:25Программа кодирования : mkvmerge v5.0.0 ('Die Wahre Liebe') built on Sep 25 2011 20:33:49Библиотека кодирования : libebml v1.2.2 + libmatroska v1.3.0

ВидеоИдентификатор : 1Формат : AVCФормат/Информация : Advanced Video CodecПрофиль формата : [email protected]Параметр CABAC формата : ДаПараметр ReFrames формата : 5 кадровИдентификатор кодека : V_MPEG4/ISO/AVCПродолжительность : 1 ч. 44 м.Битрейт : 15,6 Мбит/секШирина : 1920 пикселейВысота : 816 пикселейСоотношение сторон : 2,35:1Режим частоты кадров : ПостоянныйЧастота кадров : 23,976 кадра/секЦветовое пространство : YUVСубдискретизация насыщенности : 4:2:0Битовая глубина : 8 битТип развёртки : ПрогрессивнаяБит/(Пиксели*Кадры) : 0.415Размер потока : 11,1 Гбайт (78%)Заголовок : x264Библиотека кодирования : x264 core 119 r2106 07efeb4Настройки программы : cabac=1 / ref=5 / deblock=1:-3:-3 / analyse=0x3:0x113 / me=tesa / subme=11 / psy=1 / psy_rd=1.10:0.00 / mixed_ref=1 / me_range=48 / chroma_me=1 / trellis=2 / 8x8dct=1 / cqm=0 / deadzone=21,11 / fast_pskip=0 / chroma_qp_offset=-2 / threads=6 / sliced_threads=0 / nr=0 / decimate=0 / interlaced=0 / bluray_compat=0 / constrained_intra=0 / bframes=7 / b_pyramid=2 / b_adapt=2 / b_bias=0 / direct=3 / weightb=1 / open_gop=0 / weightp=2 / keyint=250 / keyint_min=23 / scenecut=40 / intra_refresh=0 / rc_lookahead=250 / rc=2pass / mbtree=1 / bitrate=15585 / ratetol=1.0 / qcomp=0.70 / qpmin=0 / qpmax=69 / qpstep=4 / cplxblur=20.0 / qblur=0.5 / vbv_maxrate=38000 / vbv_bufsize=30000 / nal_hrd=none / ip_ratio=1.40 / aq=1:0.80Язык : EnglishDefault : НетForced : Нет

Аудио #1Идентификатор : 2Формат : DTSФормат/Информация : Digital Theater SystemsРежим : 16Параметр Endianness формата : BigИдентификатор кодека : A_DTSПродолжительность : 1 ч. 44 м.Вид битрейта : ПостоянныйБитрейт : 768 Кбит/секКаналы : 6 каналовРасположение каналов : Front: L C R, Side: L R, LFEЧастота : 48,0 КГцБитовая глубина : 24 битМетод сжатия : С потерямиРазмер потока : 576 Мбайт (4%)Заголовок : DTS 5.1 @ 768 Kbps - Дубляж, Blu-Ray CEEЯзык : RussianDefault : ДаForced : Нет

Аудио #2Идентификатор : 3Формат : DTSФормат/Информация : Digital Theater SystemsРежим : 16Параметр Endianness формата : BigИдентификатор кодека : A_DTSПродолжительность : 1 ч. 44 м.Вид битрейта : ПостоянныйБитрейт : 1509 Кбит/секКаналы : 6 каналовРасположение каналов : Front: L C R, Side: L R, LFEЧастота : 48,0 КГцБитовая глубина : 24 битМетод сжатия : С потерямиРазмер потока : 1,11 Гбайт (8%)Заголовок : DTS 5.1 @ 1510 Kbps - Многоголосый закадровый, студия «Омикрон»Язык : RussianDefault : НетForced : Нет

Аудио #3Идентификатор : 4Формат : DTSФормат/Информация : Digital Theater SystemsРежим : 16Параметр Endianness формата : BigИдентификатор кодека : A_DTSПродолжительность : 1 ч. 44 м.Вид битрейта : ПостоянныйБитрейт : 1509 Кбит/секКаналы : 6 каналовРасположение каналов : Front: L C R, Side: L R, LFEЧастота : 48,0 КГцБитовая глубина : 24 битМетод сжатия : С потерямиРазмер потока : 1,11 Гбайт (8%)Заголовок : DTS 5.1 @ 1510 Kbps - OriginalЯзык : EnglishDefault : НетForced : Нет

Аудио #4Идентификатор : 5Формат : MPEG AudioВерсия формата : Version 2Профиль формата : Layer 3Режим : Joint stereoРасширение режима : MS StereoИдентификатор кодека : A_MPEG/L3Идентификатор кодека/Подсказка : MP3Продолжительность : 1 ч. 44 м.Вид битрейта : ПостоянныйБитрейт : 64,0 Кбит/секКаналы : 2 каналаЧастота : 24,0 КГцМетод сжатия : С потерямиРазмер потока : 48,0 Мбайт (0%)Заголовок : MPEG 2.0 @ 64 Kbps - Commentary by Director Rupert WyattБиблиотека кодирования : L3.99r1Настройки программы : -m j -V 4 -q 2 -lowpass 11 -b 64Язык : EnglishDefault : НетForced : Нет

Аудио #5Идентификатор : 6Формат : MPEG AudioВерсия формата : Version 2Профиль формата : Layer 3Режим : Joint stereoРасширение режима : MS StereoИдентификатор кодека : A_MPEG/L3Идентификатор кодека/Подсказка : MP3Продолжительность : 1 ч. 44 м.Вид битрейта : ПостоянныйБитрейт : 64,0 Кбит/секКаналы : 2 каналаЧастота : 24,0 КГцМетод сжатия : С потерямиРазмер потока : 48,0 Мбайт (0%)Заголовок : MPEG 2.0 @ 64 Kbps - Commentary by Writers Rick Jaffa and Amanda SilverБиблиотека кодирования : L3.99r1Настройки программы : -m j -V 4 -q 2 -lowpass 11 -b 64Язык : EnglishDefault : НетForced : Нет

Текст #1Идентификатор : 7Формат : UTF-8Идентификатор кодека : S_TEXT/UTF8Идентификатор кодека/Информация : UTF-8 Plain TextЗаголовок : ForcedЯзык : RussianDefault : ДаForced : Нет

Текст #2Идентификатор : 8Формат : UTF-8Идентификатор кодека : S_TEXT/UTF8Идентификатор кодека/Информация : UTF-8 Plain TextЯзык : RussianDefault : НетForced : Нет

Текст #3Идентификатор : 9Формат : UTF-8Идентификатор кодека : S_TEXT/UTF8Идентификатор кодека/Информация : UTF-8 Plain TextЗаголовок : ForcedЯзык : EnglishDefault : НетForced : Нет

Текст #4Идентификатор : 10Формат : UTF-8Идентификатор кодека : S_TEXT/UTF8Идентификатор кодека/Информация : UTF-8 Plain TextЯзык : EnglishDefault : НетForced : Нет

Текст #5Идентификатор : 11Формат : UTF-8Идентификатор кодека : S_TEXT/UTF8Идентификатор кодека/Информация : UTF-8 Plain TextЯзык : CzechDefault : НетForced : Нет

Текст #6Идентификатор : 12Формат : UTF-8Идентификатор кодека : S_TEXT/UTF8Идентификатор кодека/Информация : UTF-8 Plain TextЯзык : FinnishDefault : НетForced : Нет

Текст #7Идентификатор : 13Формат : UTF-8Идентификатор кодека : S_TEXT/UTF8Идентификатор кодека/Информация : UTF-8 Plain TextЯзык : SwedishDefault : НетForced : Нет

Текст #8Идентификатор : 14Формат : UTF-8Идентификатор кодека : S_TEXT/UTF8Идентификатор кодека/Информация : UTF-8 Plain TextЯзык : RomanianDefault : НетForced : Нет

Текст #9Идентификатор : 15Формат : UTF-8Идентификатор кодека : S_TEXT/UTF8Идентификатор кодека/Информация : UTF-8 Plain TextЯзык : GreekDefault : НетForced : Нет

Текст #10Идентификатор : 16Формат : UTF-8Идентификатор кодека : S_TEXT/UTF8Идентификатор кодека/Информация : UTF-8 Plain TextЯзык : PolishDefault : НетForced : Нет

Текст #11Идентификатор : 17Формат : UTF-8Идентификатор кодека : S_TEXT/UTF8Идентификатор кодека/Информация : UTF-8 Plain TextЯзык : SpanishDefault : НетForced : Нет

Текст #12Идентификатор : 18Формат : UTF-8Идентификатор кодека : S_TEXT/UTF8Идентификатор кодека/Информация : UTF-8 Plain TextЯзык : TurkmenDefault : НетForced : Нет

Меню00:00:00.000 : en:Chapter 0100:05:24.407 : en:Chapter 0200:09:17.974 : en:Chapter 0300:14:19.067 : en:Chapter 0400:18:07.545 : en:Chapter 0500:20:03.786 : en:Chapter 0600:22:38.148 : en:Chapter 0700:25:17.015 : en:Chapter 0800:29:42.656 : en:Chapter 0900:33:38.266 : en:Chapter 1000:38:29.098 : en:Chapter 1100:41:12.595 : en:Chapter 1200:45:19.008 : en:Chapter 1300:48:50.177 : en:Chapter 1400:52:56.632 : en:Chapter 1500:57:30.280 : en:Chapter 1600:59:26.730 : en:Chapter 1701:01:30.145 : en:Chapter 1801:05:03.608 : en:Chapter 1901:06:20.268 : en:Chapter 2001:09:34.962 : en:Chapter 2101:11:15.688 : en:Chapter 2201:15:44.123 : en:Chapter 2301:18:29.204 : en:Chapter 2401:23:09.276 : en:Chapter 2501:27:50.390 : en:Chapter 2601:33:00.366 : en:Chapter 2701:37:08.948 : en:Chapter 28

piratbit.ru

Скачать фильм Восстание планеты обезьян (2011) через торрент

gig-torrent.net

18 января 2016 07:22 Восстание планеты обезьян / Rise of the Planet of the Apes (2011) HDRip от Scarabey | D .torrent   [Информация о файле (нажмите для просмотра)] Перевод: Профессиональный (полное дублирование)Видео: 720x304 (2.37:1), 23.976 fps, XviD build 50 ~2016 kbps avg, 0.38 bit/pixelАудио: 48 kHz, AC3 Dolby Digital, 3/2 (L,C,R,l,r) + LFE ch, ~448.00 kbps avg - дубляжАудио: 48 kHz, AC3 Dolby Digital, 3/2 (L,C,R,l,r) + LFE ch, ~448.00 kbps avg - оригинал 2,14 Gb 27 14
18 января 2016 07:22 Восстание планеты обезьян / Rise of the Planet of the Apes (2011) BDRip-AVC от HELLYWOOD | Лицензия .torrent   [Информация о файле (нажмите для просмотра)] Перевод: Профессиональный (полное дублирование) [лицензия BD CEE]Субтитры: Русские (полные + форс.), украинские (полные + форс.), английские (Forced + Full + SDH)Качество: BDRip-AVCФормат: MKVВидео: х.264, 1040x442 (2,35:1), 23,976 fps, 2078 kbps, 0.189 bit/pixelАудио#1: 48 kHz, AC3 Dolby Digital, 3/2 (L,C,R,l,r) + LFE ch, 448.00 kbps |RUSАудио#2: 48 kHz, AC3 Dolby Digital, 3/2 (L,C,R,l,r) + LFE ch, 448.00 kbps |ENG 2,18 Gb 54 5
18 января 2016 07:22 Восстание планеты обезьян / Rise of the Planet of the Apes (2011) BDRip 720p от Leonardo and Scarabey | Лицензия .torrent   [Информация о файле (нажмите для просмотра)] Перевод: Профессиональный (полное дублирование) ЛицензияФормат: MKVВидео кодек: MPEG-4 AVC Аудио кодек: AC3Видео: AVC, 1280x544 (2.35:1) at 23.976 fps, AVC at 5462 Kbps avg, 0.327 bit/pixelАудио: Russian; AC3; 448 Kbps; CBR; 6 ch; 16 bitСубтитры: Русские, английские 4,42 Gb 51 4
18 января 2016 07:22 Восстание планеты обезьян / Rise of the Planet of the Apes (2011) BDRip 1080p от Leonardo and Scarabey | Лицензия .torrent   [Информация о файле (нажмите для просмотра)] Перевод: Профессиональный (полное дублирование) ЛицензияФормат: MKVВидео кодек: MPEG-4 AVC Аудио кодек: AC3Видео: AVC, 1920x816 (2.35:1) at 23.976 fps, AVC at 14.1 Mbps avg, 0.375 bit/pixelАудио: Russian; AC3; 448 Kbps; CBR; 6 ch; 16 bitСубтитры: Русские, английские 10,88 Gb 21 8
18 января 2016 07:22 Восстание планеты обезьян / Rise of the Planet of the Apes (2011) BDRip-AVC от HQCLUB | Лицензия .torrent   [Информация о файле (нажмите для просмотра)] Перевод: Профессиональный (полное дублирование)Blu-ray CEE + Профессиональный (многоголосый, закадровый) Омикрон + Оригинальная звуковая дорожкаСубтитры: Русские (форсированные, полные), Украинские (форсированные, полные), Английские SDH спасибо vinalord (*.srt, внешние)Формат: MKVКачество: BDRip-AVC (источник:Видео: 1024x436 (2,35:1), 23.976 fps,, 2pass ~2610 kbps avg, 0.24 bit/pixelАудио #1: 48 kHz, AC3, 3/2 (L,C,R,l,r) + LFE ch, ~448.00 kbps avg (RUS)DUBАудио #2: 48 kHz, AC3, 3/2 (L,C,R,l,r) + LFE ch, ~448.00 kbps avg (RUS)MVOАудио #3: 48 kHz, AC3, 3/2 (L,C,R,l,r) + LFE ch, ~448.00 kbps avg (ENG)Видео: Идентификатор : 1 Формат : AVC Формат/Информация : Advanced Video Codec Профиль формата : [email protected] Параметр CABAC формата : Да Параметр ReFrames формата : 9 кадров Режим смешивания : Header stripping Идентификатор кодека : V_MPEG4/ISO/AVC Продолжительность : 1 ч. 44 м. Битрейт : 2610 Кбит/сек Ширина : 1024 пикселя Высота : 436 пикселей Соотношение сторон : 2,35:1 Частота кадров : 23,976 кадра/сек Цветовое пространство : YUV Субдискретизация насыщенности : 4:2:0 Битовая глубина : 8 бит Тип развёртки : Прогрессивная Бит/(Пиксели*Кадры) : 0.244 Размер потока : 1,85 Гбайт (64%) Заголовок : Восстание планеты обезьян (2011) BDRip-AVC by Sky™ | HQCLUB Библиотека кодирования : x264 core 116 r2074 2641b9e Настройки программы : cabac=1 / ref=9 / deblock=1:-2:-1 / analyse=0x3:0x113 / me=umh / subme=10 / psy=1 / psy_rd=1.15:0.15 / mixed_ref=1 / me_range=32 / chroma_me=1 / trellis=2 / 8x8dct=1 / cqm=0 / deadzone=21,11 / fast_pskip=1 / chroma_qp_offset=-5 / threads=3 / sliced_threads=0 / nr=0 / decimate=1 / interlaced=0 / bluray_compat=0 / constrained_intra=0 / bframes=9 / b_pyramid=2 / b_adapt=2 / b_bias=0 / direct=1 / weightb=1 / open_gop=0 / weightp=2 / keyint=250 / keyint_min=23 / scenecut=40 / intra_refresh=0 / rc_lookahead=40 / rc=2pass / mbtree=0 / bitrate=2610 / ratetol=1.0 / qcomp=0.60 / qpmin=10 / qpmax=51 / qpstep=4 / cplxblur=20.0 / qblur=0.5 / vbv_maxrate=62500 / vbv_bufsize=50000 / nal_hrd=none / ip_ratio=1.40 / pb_ratio=1.30 / aq=1:0.90 Язык : English Аудио #1: Идентификатор : 2 Формат : AC-3 Формат/Информация : Audio Coding 3 Расширение режима : CM (complete main) Режим смешивания : Header stripping Идентификатор кодека : A_AC3 Продолжительность : 1 ч. 44 м. Вид битрейта : Постоянный Битрейт : 448 Кбит/сек Каналы : 6 каналов Расположение каналов : Front: L C R, Side: L R, LFE Частота : 48,0 КГц Битовая глубина : 16 бит Метод сжатия : С потерями Размер потока : 336 Мбайт (11%) Заголовок : Дубляж (Blu-Ray CEE) AC3 5.1 @ 448 kbps Язык : Russian Аудио #2: Идентификатор : 3 Формат : AC-3 Формат/Информация : Audio Coding 3 Расширение режима : CM (complete main) Режим смешивания : Header stripping Идентификатор кодека : A_AC3 Продолжительность : 1 ч. 44 м. Вид битрейта : Постоянный Битрейт : 448 Кбит/сек Каналы : 6 каналов Расположение каналов : Front: L C R, Side: L R, LFE Частота : 48,0 КГц Битовая глубина : 16 бит Метод сжатия : С потерями Размер потока : 336 Мбайт (11%) Заголовок : Многоголосый (Омикрон) AC3 5.1 @ 448 kbps Язык : Russian Аудио #3: Идентификатор : 4 Формат : AC-3 Формат/Информация : Audio Coding 3 Расширение режима : CM (complete main) Режим смешивания : Header stripping Идентификатор кодека : A_AC3 Продолжительность : 1 ч. 44 м. Вид битрейта : Постоянный Битрейт : 448 Кбит/сек Каналы : 6 каналов Расположение каналов : Front: L C R, Side: L R, LFE Частота : 48,0 КГц Битовая глубина : 16 бит Метод сжатия : С потерями Размер потока : 336 Мбайт (11%) Заголовок : Оригинал AC3 5.1 @ 448 kbps Язык : English 2,9 Gb 153 7
18 января 2016 07:21 Восстание планеты обезьян / Rise of the Planet of the Apes (2011) BDRip 1080p от NNNB | D,P .torrent   [Информация о файле (нажмите для просмотра)] Перевод: Дублированный (с Blu-ray CEE), профессиональный многоголосый (Студия "Омикрон")Качество: BDRip 1080p (исходник Blu-ray)Видео: 1920x816, 8 668 Кбит/сек, 23.976 кадр/сек, AVC, x264, [email protected], 0.231 Бит/[Пиксели*Кадры], 2passАудио 1: AC3 5.1 48 kHz 640 kbps -ДублированныйАудио 2: AC3 5.1 48 kHz 640 kbps -Многоголосый закадровый, студия «Омикрон»Аудио 3: AC3 5.1 48 kHz 640 kbps -EnglishСубтитры: Russian (Full,Forced) 7,76 Gb 29 3
18 января 2016 07:21 Восстание планеты обезьян / Rise of the Planet of the Apes (2011) BDRip-AVC от MediaClub | D, P, A .torrent   [Информация о файле (нажмите для просмотра)] Кодек: x264Качество: BDRip-AVCВидео: MPEG-4 AVC, 3200 Кбит/с, 1024x436, 23.976 кадр/сАудио #1: Русский (AC3, 6 ch, 448 Кбит/с) / ДублированныйАудио #2: Русский (AC3, 6 ch, 448 Кбит/с) / Профессиональный многоголосый (Омикрон)Аудио #3: Русский (AC3, 6 ch, 448 Кбит/с) / Авторский одноголосый (Юрий Живов)Аудио #4: Русский (AC3, 6 ch, 448 Кбит/с) / Авторский одноголосый (Василий Горчаков)Аудио #5: Английский (AC3, 6 ch, 448 Кбит/с)Аудио #6: Английский (AC3, 2 ch, 224 Кбит/с) / Комментарии режиссера Руперта УайаттАудио #7: Английский (AC3, 2 ch, 224 Кбит/с) / Комментарии сценаристов Рика Джаффа, Аманды СильверСубтитры: Русские, английскиеВидео: Формат : AVC Формат/Информация : Advanced Video Codec Профайл формата : [email protected] Настройка CABAC формата : Да Настройка ReFrames формата : 8 кадры Режим смешивания : Container [email protected] Идентификатор кодека : V_MPEG4/ISO/AVC Продолжительность : 1ч 44мин Битрейт : 2 935 Кбит/сек Номинальный битрейт : 3 200 Кбит/сек Ширина : 1 024 пикс. Высота : 436 пикс. Соотношение кадра : 2.35 Частота кадров : 23,976 кадр/сек Разрешение : 24 бит Колориметрия : 4:2:0 Тип развёртки : Прогрессивная Бит/(Пиксели*Кадры) : 0.299 Библиотека кодирования : x264 core 125 r2200 999b753 Настройки программы : cabac=1 / ref=8 / deblock=1:-3:-3 / analyse=0x3:0x113 / me=umh / subme=11 / psy=1 / psy_rd=1.00:0.20 / mixed_ref=1 / me_range=48 / chroma_me=1 / trellis=2 / 8x8dct=1 / cqm=0 / deadzone=21,11 / fast_pskip=0 / chroma_qp_offset=-3 / threads=3 / lookahead_threads=1 / sliced_threads=0 / nr=0 / decimate=0 / interlaced=0 / bluray_compat=0 / constrained_intra=0 / bframes=8 / b_pyramid=2 / b_adapt=2 / b_bias=0 / direct=3 / weightb=1 / open_gop=1 / weightp=2 / keyint=240 / keyint_min=23 / scenecut=40 / intra_refresh=0 / rc=2pass / mbtree=0 / bitrate=3200 / ratetol=1.0 / qcomp=0.60 / qpmin=0 / qpmax=69 / qpstep=4 / cplxblur=20.0 / qblur=0.5 / ip_ratio=1.40 / pb_ratio=1.30 / aq=1:1.00Аудио #1: Формат : AC-3 Формат/Информация : Audio Coding 3 Идентификатор кодека : A_AC3 Продолжительность : 1ч 44мин Режим расчёта битрейта : Постоянный Битрейт : 448 Кбит/сек Канал(ы) : 6 канала(ов) Расположение каналов : Front: L C R, Rear: L R, LFE Частота : 48,0 КГц Заголовок : Дублированный Язык : RussianАудио #2: Формат : AC-3 Формат/Информация : Audio Coding 3 Идентификатор кодека : A_AC3 Продолжительность : 1ч 44мин Режим расчёта битрейта : Постоянный Битрейт : 448 Кбит/сек Канал(ы) : 6 канала(ов) Расположение каналов : Front: L C R, Rear: L R, LFE Частота : 48,0 КГц Заголовок : Профессиональный многоголосый (Омикрон) Язык : RussianАудио #3: Формат : AC-3 Формат/Информация : Audio Coding 3 Идентификатор кодека : A_AC3 Продолжительность : 1ч 44мин Режим расчёта битрейта : Постоянный Битрейт : 448 Кбит/сек Канал(ы) : 6 канала(ов) Расположение каналов : Front: L C R, Rear: L R, LFE Частота : 48,0 КГц Заголовок : Авторский одноголосый (Ю.Живов) Язык : RussianАудио #4: Формат : AC-3 Формат/Информация : Audio Coding 3 Идентификатор кодека : A_AC3 Продолжительность : 1ч 44мин Режим расчёта битрейта : Постоянный Битрейт : 448 Кбит/сек Канал(ы) : 6 канала(ов) Расположение каналов : Front: L C R, Rear: L R, LFE Частота : 48,0 КГц Заголовок : Авторский одноголосый (В.Горчаков)Аудио #5: Формат : AC-3 Формат/Информация : Audio Coding 3 Идентификатор кодека : A_AC3 Продолжительность : 1ч 44мин Режим расчёта битрейта : Постоянный Битрейт : 448 Кбит/сек Канал(ы) : 6 канала(ов) Расположение каналов : Front: L C R, Rear: L R, LFE Частота : 48,0 КГц Заголовок : ОригиналАудио #6: Формат : AC-3 Формат/Информация : Audio Coding 3 Идентификатор кодека : A_AC3 Продолжительность : 1ч 44мин Режим расчёта битрейта : Постоянный Битрейт : 224 Кбит/сек Канал(ы) : 2 канала(ов) Расположение каналов : L R Частота : 48,0 КГц Заголовок : Комментарии режиссера Руперта УайаттАудио #7: Формат : AC-3 Формат/Информация : Audio Coding 3 Идентификатор кодека : A_AC3 Продолжительность : 1ч 44мин Режим расчёта битрейта : Постоянный Битрейт : 224 Кбит/сек Канал(ы) : 2 канала(ов) Расположение каналов : L R Частота : 48,0 КГц Заголовок : Комментарии сценаристов Рика Джаффа, Аманды Сильвер 4,31 Gb 18 2
18 января 2016 07:21 Восстание планеты обезьян / Rise of the Planet of the Apes (2011) BDRip 1080p от New-Team .torrent   [Информация о файле (нажмите для просмотра)] Перевод: Русский дубляж + украинский дубляж[Лицензия, BD CEE] + Многоголосый закадровый [студия «Омикрон»]Контейнер: MKVВидео: AVC / [email protected] /2 pass / 23,976 fps / 1920x816p / 14,8 Mbps / 0.394Аудио 1: AC3 / 5.1 ch / 640 kbps /Русский дубляж, [Лицензия, BD CEE]Аудио 2: AC3 / 5.1 ch / 640 kbps /Русский MVO, [Омикрон]Аудио 3: AC3 / 5.1 ch / 448 kbps /Украинский дубляж, [Лицензия, BD CEE]Аудио 4: AC3 / 5.1 ch / 640 kbps /Английский original, BD CEEСубтитры: [softsub SRT]Видео: Идентификатор : 1 Формат : AVC Формат/Информация : Advanced Video Codec Профиль формата : [email protected] Параметр CABAC формата : Да Параметр ReFrames формата : 5 кадров Идентификатор кодека : V_MPEG4/ISO/AVC Продолжительность : 1 ч. 44 м. Битрейт : 14,8 Мбит/сек Ширина : 1920 пикселей Высота : 816 пикселей Соотношение сторон : 2,35:1 Режим частоты кадров : Постоянный Частота кадров : 23,976 кадра/сек Цветовое пространство : YUV Субдискретизация насыщенности : 4:2:0 Битовая глубина : 8 бит Тип развёртки : Прогрессивная Бит/(Пиксели*Кадры) : 0.394 Размер потока : 10,6 Гбайт (84%) Заголовок : Rise of the Planet of the Apes (2011) Библиотека кодирования : x264 core 116 r2074 2641b9e Настройки программы : cabac=1 / ref=5 / deblock=1:-3:-3 / analyse=0x3:0x113 / me=tesa / subme=11 / psy=1 / psy_rd=1.05:0.05 / mixed_ref=0 / me_range=24 / chroma_me=1 / trellis=2 / 8x8dct=1 / cqm=0 / deadzone=21,11 / fast_pskip=0 / chroma_qp_offset=-3 / threads=12 / sliced_threads=0 / nr=0 / decimate=1 / interlaced=0 / bluray_compat=0 / constrained_intra=0 / bframes=8 / b_pyramid=2 / b_adapt=2 / b_bias=0 / direct=3 / weightb=1 / open_gop=0 / weightp=2 / keyint=250 / keyint_min=23 / scenecut=40 / intra_refresh=0 / rc_lookahead=90 / rc=2pass / mbtree=1 / bitrate=14800 / ratetol=1.0 / qcomp=0.60 / qpmin=10 / qpmax=69 / qpstep=4 / cplxblur=20.0 / qblur=0.5 / ip_ratio=1.40 / aq=2:0.70 Язык : English Default : Да Forced : НетАудио #1: Идентификатор : 2 Формат : AC-3 Формат/Информация : Audio Coding 3 Расширение режима : CM (complete main) Параметр Endianness формата : Big Идентификатор кодека : A_AC3 Продолжительность : 1 ч. 44 м. Вид битрейта : Постоянный Битрейт : 640 Кбит/сек Каналы : 6 каналов Расположение каналов : Front: L C R, Side: L R, LFE Частота : 48,0 КГц Битовая глубина : 16 бит Метод сжатия : С потерями Размер потока : 480 Мбайт (4%) Заголовок : AC3 / 5.1 ch / 640 kbps / Русский дубляж, BD CEE Язык : Russian Default : Да Forced : НетАудио #2: Идентификатор : 3 Формат : AC-3 Формат/Информация : Audio Coding 3 Расширение режима : CM (complete main) Параметр Endianness формата : Big Идентификатор кодека : A_AC3 Продолжительность : 1 ч. 44 м. Вид битрейта : Постоянный Битрейт : 640 Кбит/сек Каналы : 6 каналов Расположение каналов : Front: L C R, Side: L R, LFE Частота : 48,0 КГц Битовая глубина : 16 бит Метод сжатия : С потерями Размер потока : 480 Мбайт (4%) Заголовок : AC3 / 5.1 ch / 640 kbps / Русский MVO, Омикрон Язык : Russian Default : Нет Forced : НетАудио #3: Идентификатор : 4 Формат : AC-3 Формат/Информация : Audio Coding 3 Расширение режима : CM (complete main) Параметр Endianness формата : Big Идентификатор кодека : A_AC3 Продолжительность : 1 ч. 44 м. Вид битрейта : Постоянный Битрейт : 448 Кбит/сек Каналы : 6 каналов Расположение каналов : Front: L C R, Side: L R, LFE Частота : 48,0 КГц Битовая глубина : 16 бит Метод сжатия : С потерями Размер потока : 336 Мбайт (3%) Заголовок : AC3 / 5.1 ch / 448 kbps / Украинский дубляж, BD CEE Язык : Ukrainian Default : Нет Forced : НетАудио #4: Идентификатор : 5 Формат : AC-3 Формат/Информация : Audio Coding 3 Расширение режима : CM (complete main) Параметр Endianness формата : Big Идентификатор кодека : A_AC3 Продолжительность : 1 ч. 44 м. Вид битрейта : Постоянный Битрейт : 640 Кбит/сек Каналы : 6 каналов Расположение каналов : Front: L C R, Side: L R, LFE Частота : 48,0 КГц Битовая глубина : 16 бит Метод сжатия : С потерями Размер потока : 480 Мбайт (4%) Заголовок : AC3 / 5.1 ch / 640 kbps / Английский original, BD CEE Язык : English Default : Нет Forced : Нет 12,58 Gb 16 3
18 января 2016 07:21 Восстание планеты обезьян / Rise of the Planet of the Apes (2011) HDRip-AVC .torrent   [Информация о файле (нажмите для просмотра)] Перевод: Полное дублирование + (Оригинал)Кодек: x264Качество: HDRip-AVC (исх. BDRip 1080p)Видео: 720x304 (2.35:1), 23.976 fps, ~ 851 Kbps avg, 0.162 bit/pixelЗвук: Аудио 1: 48 kHz, AAC-HE, 2 channels, ~ 76 kbps [Rus] Аудио 2: 48 kHz, AAC-HE, 2 channels, ~ 64 kbps [Eng]Субтитры: русские, английские 745,43 Mb 21 2
18 января 2016 07:21 Восстание планеты обезьян / Rise of the Planet of the Apes (2011) HDRip от Scarabey | P .torrent   [Информация о файле (нажмите для просмотра)] Перевод: Профессиональный (многоголосый, закадровый) студия «Омикрон»Видео: 720x304 (2.37:1), 23.976 fps, XviD build 50 ~1538 kbps avg, 0.29 bit/pixelАудио: 48 kHz, AC3 Dolby Digital, 3/2 (L,C,R,l,r) + LFE ch, ~448.00 kbps avg 1,46 Gb 118 9
18 января 2016 07:21 Восстание планеты обезьян / Rise of the Planet of the Apes (2011) BDRip 1080p .torrent   [Информация о файле (нажмите для просмотра)] Перевод: ДубляжКодек: h364Качество: BDRip 1080pВидео: 1920x816, 5508 Kbps, 23.976 fpsЗвук: 48 kHz, AC3, 6c, 448 kbpsСубтитры: Русские, АнглийскиеВидео: Идентификатор : 1 Формат : AVC Формат/Информация : Advanced Video Codec Профиль формата : [email protected] Параметр CABAC формата : Да Параметр ReFrames формата : 5 кадров Идентификатор кодека : V_MPEG4/ISO/AVC Продолжительность : 1 ч. 44 м. Битрейт : 5508 Кбит/сек Ширина : 1920 пикселей Высота : 816 пикселей Соотношение сторон : 2,35:1 Частота кадров : 23,976 кадра/сек Цветовое пространство : YUV Субдискретизация насыщенности : 4:2:0 Битовая глубина : 8 бит Тип развёртки : Прогрессивная Бит/(Пиксели*Кадры) : 0.147 Размер потока : 3,94 Гбайт (90%) Библиотека кодирования : x264 core 92 r1510 33d382a Настройки программы : cabac=1 / ref=5 / deblock=1:0:0 / analyse=0x3:0x133 / me=umh / subme=10 / psy=1 / psy_rd=1.00:0.10 / mixed_ref=1 / me_range=32 / chroma_me=1 / trellis=2 / 8x8dct=1 / cqm=0 / deadzone=21,11 / fast_pskip=0 / chroma_qp_offset=-3 / threads=6 / sliced_threads=0 / nr=0 / decimate=1 / interlaced=0 / constrained_intra=0 / bframes=6 / b_pyramid=2 / b_adapt=2 / b_bias=0 / direct=3 / wpredb=1 / wpredp=2 / keyint=240 / keyint_min=24 / scenecut=40 / intra_refresh=0 / rc_lookahead=60 / rc=2pass / mbtree=1 / bitrate=5508 / ratetol=1.0 / qcomp=0.60 / qpmin=10 / qpmax=51 / qpstep=4 / cplxblur=20.0 / qblur=0.5 / ip_ratio=1.40 / aq=1:1.00 Язык : EnglishАудио: Идентификатор : 2 Формат : AC-3 Формат/Информация : Audio Coding 3 Расширение режима : CM (complete main) Идентификатор кодека : A_AC3 Продолжительность : 1 ч. 44 м. Вид битрейта : Постоянный Битрейт : 448 Кбит/сек Каналы : 6 каналов Расположение каналов : Front: L C R, Side: L R, LFE Частота : 48,0 КГц Битовая глубина : 16 бит Метод сжатия : С потерями Размер потока : 336 Мбайт (8%) Заголовок : Дубляж Язык : Russian 4,36 Gb 20 3
18 января 2016 07:21 Восстание планеты обезьян / Rise of the Planet of the Apes (2011) DVD5 .torrent   [Информация о файле (нажмите для просмотра)] Формат: DVD VideoКачество: DVDВидео: PAL 16:9 () ~5214 kb/sАудио: Russian ( AC3, 6 ch, 448 kb/s ) 4,37 Gb 6 1
18 января 2016 07:21 Восстание планеты обезьян / Rise of the Planet of the Apes (2011) Blu-Ray .torrent   [Информация о файле (нажмите для просмотра)] Перевод: ДублированныйФормат: BDMVКачество: Blu-RayВидео: 1920x1080p / 23,976 fps / 16:9 / High Profile 4.1, H.264, ~ 25975 kbpsЗвук: Codec Language Bitrate Deion ----- -------- ------- ----------- 1. DTS-HD Master Audio English 4008 kbps 5.1 / 48 kHz / 4008 kbps / 24-bit (DTS Core: 5.1 / 48 kHz / 1509 kbps / 24-bit) 2. DTS-HD Master Audio Russian 4044 kbps 5.1 / 48 kHz / 4044 kbps / 24-bit (DTS Core: 5.1 / 48 kHz / 1509 kbps / 24-bit) (MVO - "Омикрон") 3. DTS Audio Russian 768 kbps 5.1 / 48 kHz / 768 kbps / 24-bit (DUB) 4. Dolby Digital Audio Czech 448 kbps 5.1 / 48 kHz / 448 kbps 5. Dolby Digital Audio Hungarian 448 kbps 5.1 / 48 kHz / 448 kbps 6. Dolby Digital Audio Ukrainian 448 kbps 5.1 / 48 kHz / 448 kbps (DUB) 7. Dolby Digital Audio English 224 kbps 2.0 / 48 kHz / 224 kbps 8. Dolby Digital Audio English 224 kbps 2.0 / 48 kHz / 224 kbpsСубтитры: (PGS): English, Bulgarian, Croatian, Czech, Danish, Estonian, Finnish, Hungarian, Icelandic, Italian, Latvian, Lithuanian, Norwegian, Portuguese, Serbian, Slovenian, Swedish, Ukrainian, Russian (Full-length), Russian (Commentary #1), Russian (Commentary #2), SpanishНа диске: (переведено субтитрами) • Удаленные сцены; • Мифология о обезьянах; • Гений Энди Серкиса; • Новое поколение обезьян; • Альтернативные сцены и различия между начальными и конечными сценами; • Концепт-арт галлерея персонажей; • Съемки фильма; • Создание музыки; • Великие обезьяны; • Аудио-комментарии режиссера; • Аудио-комментарии писателей; • Театральные трейлеры.BDInfoDISC INFO: 42,46 Gb 2 2
18 января 2016 07:21 Восстание планеты обезьян / Rise of the Planet of the Apes (2011) BDRip 1080p .torrent   [Информация о файле (нажмите для просмотра)] Перевод: Дублированный (Лицензия Blu-ray, полный перевод!!!)Контейнер: .mkvКачество: BDRip (Рип с Блю-рей, subme 10)Видео: MPEG-4 AVC, 10,0 мбит/сек, 1920x816, 23.976 кадр/сАудио: Русский / Украинский (AC3, 6 ch, 448 Кбит/c, 48,0 КГц), английский (AC3, 2 ch, 192 Кбит/c, 48,0 КГц)Субтитры: Русские (только надписи + полные с Блю-рей диска), украинские, английские (SDH + forced) 8,13 Gb 10 5
18 января 2016 07:21 Восстание планеты обезьян / Rise of the Planet of the Apes (2011) BDRip 720p .torrent   [Информация о файле (нажмите для просмотра)] Перевод: Дублированный (Лицензия Blu-ray, полный перевод!!!)Контейнер: .mkvКачество: BDRip (Рип с Блю-рей, subme 10)Видео: MPEG-4 AVC, 4864 Кбит/с, 1280x544, 23.976 кадр/сАудио: Русский / Украинский (AC3, 6 ch, 448 Кбит/c, 48,0 КГц), английский (AC3, 2 ch, 192 Кбит/c, 48,0 КГц)Субтитры: Русские (только надписи + полные с Блю-рей диска), украинские, английские (SDH + forced) 4,37 Gb 7 3
18 января 2016 07:21 Восстание планеты обезьян / Rise of the Planet of the Apes (2011) BDRip от HQ-ViDEO | Лицензия .torrent   [Информация о файле (нажмите для просмотра)] Перевод: Русский дублированный (Лицензия CEE) + Оригинальная дорожка (Английская)Субтитры: Русские (форс. + полные), АнглийскиеВидео: XviD / 720 x 304 / 2.37:1 / 2195 kbps / 23,976 fpsАудио 1: Русский / AC3 Dolby Digital / 48 KHz / 384 kbps / 3/2 (L,C,R,l,r) + LFE chАудио 2: Английский / AC3 Dolby Digital / 48 KHz / 384 kbps / 3/2 (L,C,R,l,r) + LFE ch 2,18 Gb 7 1
18 января 2016 07:21 Восстание планеты обезьян / Rise of the Planet of the Apes (2011) BDRemux .torrent   [Информация о файле (нажмите для просмотра)] Перевод: Дублированный (с Blu-ray CEE) / Профессиональный многоголосый (Студия "Омикрон")Формат: MKVКачество: BDRemuxВидео: 1920x1080 at 23.976 fps, MPEG-4 AVC, ~25975 kbps avgАудио #1: DTS 5.1 / 48 kHz / 768 kbps / 24-bit) Дубляж CEEАудио #2: 48 kHz/24-bit, DTS-HD MA 5.1, ~4019.00 kbps avg |Многоголосый закадровый, студия «Омикрон»|Аудио #3: 48 kHz/24-bit, DTS-HD MA 5.1, ~4008.00 kbps avg |Оригинал, BluRay US|Аудио #4: 48 kHz, AC3, 2/0 (L,R) ch, ~224.00 kbps avg |Commentary by Director Rupert Wyatt|Аудио #5: 48 kHz, AC3, 2/0 (L,R) ch, ~224.00 kbps avg |Commentary by Writers Rick Jaffa and Amanda Silver|Субтитры: Русские, английскиеMediaInfoGeneral Unique ID : 178967499246883019052395419078942488471 (0x86A3E2F7606836FBB4A11F6632F77797) Complete name : D:HDRise.of.the.Planet.of.the.Apes.2011.1080p.BDRemux.DTS.Rus.Eng.mkv Format : Matroska File size : 25.7 GiB Duration : 1h 44mn Overall bit rate : 35.1 Mbps Movie name : Rise of the Planet of the Apes (2011) - Released by IRONCLUB Encoded date : UTC 2011-12-04 19:18:09 Writing application : mkvmerge v4.4.0 ('Die Wiederkehr') сборка от Oct 31 2010 21:52:48 Writing library : libebml v1.0.0 + libmatroska v1.0.0 25,71 Gb 7 4
18 января 2016 07:21 Восстание планеты обезьян / Rise of the Planet of the Apes (2011) HDRip | Лицензия .torrent   [Информация о файле (нажмите для просмотра)] Формат: AVI (XviD)Качество: HDRip [Рип с BDRip 1080p]Видео: 801 kb/s, 640x272Аудио: MP3, 128 kb/s (2 ch) 704,69 Mb 11 4
18 января 2016 07:21 Восстание планеты обезьян / Rise of the Planet of the Apes (2011) HDRip | Лицензия .torrent   [Информация о файле (нажмите для просмотра)] Перевод: Дублированный [лицензия]Кодек: XviDКачество: HDRip [Рип с BDRip 1080p]Видео: 1413 kb/s, 720x304Звук: AC3, 448 kb/s (6 ch) 1,37 Gb 215 11

Восстание планеты обезьян через торрент

Код:

raw [info]: 988x420p 1:1 @ 24000/1001 fps (cfr)x264 [info]: using SAR=1/1x264 [info]: using cpu capabilities: MMX2 SSE2Fast SSSE3 FastShuffle SSE4.2 AVXx264 [info]: profile High, level 4.1x264 [info]: frame I:1407  Avg QP:18.89  size: 60770x264 [info]: frame P:35957 Avg QP:21.92  size: 19890x264 [info]: frame B:113599 Avg QP:22.69  size:  8251x264 [info]: consecutive B-frames:  3.7%  3.4%  9.7% 22.6% 19.1% 33.4%  4.3%  1.3%  1.2%  0.7%  0.6%x264 [info]: mb I  I16..4:  7.8% 68.4% 23.8%x264 [info]: mb P  I16..4:  1.6% 11.0%  2.8%  P16..4: 37.5% 23.1% 13.1%  0.0%  0.0%    skip:10.9%x264 [info]: mb B  I16..4:  0.1%  1.2%  0.5%  B16..8: 38.3% 11.4%  3.7%  direct: 6.2%  skip:38.7%  L0:40.7% L1:44.4% BI:14.9%x264 [info]: 8x8 transform intra:70.1% inter:61.1%x264 [info]: direct mvs  spatial:96.7% temporal:3.3%x264 [info]: coded y,uvDC,uvAC intra: 81.7% 78.5% 55.0% inter: 27.4% 20.2% 8.3%x264 [info]: i16 v,h,dc,p: 35% 19%  9% 36%x264 [info]: i8 v,h,dc,ddl,ddr,vr,hd,vl,hu: 14%  9%  6%  9% 13% 12% 13% 11% 12%x264 [info]: i4 v,h,dc,ddl,ddr,vr,hd,vl,hu: 29%  8%  4%  7% 12% 10% 11%  8% 10%x264 [info]: i8c dc,h,v,p: 40% 24% 20% 16%x264 [info]: Weighted P-Frames: Y:3.6% UV:1.2%x264 [info]: ref P L0: 51.6% 12.7% 15.6%  5.2%  4.1%  2.9%  2.5%  1.3%  1.2%  1.0%  0.9%  0.9%  0.2%  0.0%x264 [info]: ref B L0: 76.3% 10.9%  4.8%  2.4%  1.7%  1.3%  1.0%  0.6%  0.5%  0.3%  0.2%x264 [info]: ref B L1: 93.0%  7.0%x264 [info]: kb/s:2208.26

GeneralUnique ID : 232652982179032287641656476683979379396 (0xAF0755A1FC648F1D9C077B8F6EAED2C4)Complete name : I:\Other\Vosstanie.Planety.Obezyan.2011.MVO.BDRip-AVC.AC3.-Vaippp.mkvFormat : MatroskaFormat version : Version 2File size : 2.18 GiBDuration : 1h 44mnOverall bit rate : 2 978 KbpsMovie name : Vosstanie Planety Obezyan / 2011 / Release by VaipppEncoded date : UTC 2011-11-18 05:27:17Writing application : mkvmerge v5.0.1 ('Es ist Sommer') built on Oct 9 2011 11:55:43Writing library : libebml v1.2.2 + libmatroska v1.3.0VideoID : 1Format : AVCFormat/Info : Advanced Video CodecFormat profile : [email protected] settings, CABAC : YesFormat settings, ReFrames : 12 framesCodec ID : V_MPEG4/ISO/AVCDuration : 1h 44mnBit rate : 2 209 KbpsWidth : 988 pixelsHeight : 420 pixelsDisplay aspect ratio : 2.35:1Frame rate : 23.976 fpsColor space : YUVChroma subsampling : 4:2:0Bit depth : 8 bitsScan type : ProgressiveBits/(Pixel*Frame) : 0.222Stream size : 1.58 GiB (72%)Title : BDRip 18/11/2011Writing library : x264 core 119 r2106 07efeb4Encoding settings : cabac=1 / ref=12 / deblock=1:-1:-1 / analyse=0x3:0x113 / me=umh / subme=10 / psy=1 / psy_rd=0.95:0.00 / mixed_ref=1 / me_range=32 / chroma_me=1 / trellis=2 / 8x8dct=1 / cqm=0 / deadzone=21,11 / fast_pskip=0 / chroma_qp_offset=-2 / threads=12 / sliced_threads=0 / nr=0 / decimate=0 / interlaced=0 / bluray_compat=0 / constrained_intra=0 / bframes=10 / b_pyramid=2 / b_adapt=2 / b_bias=0 / direct=3 / weightb=1 / open_gop=0 / weightp=2 / keyint=250 / keyint_min=23 / scenecut=40 / intra_refresh=0 / rc_lookahead=40 / rc=2pass / mbtree=0 / bitrate=2209 / ratetol=1.0 / qcomp=0.75 / qpmin=0 / qpmax=69 / qpstep=4 / cplxblur=20.0 / qblur=0.5 / vbv_maxrate=40000 / vbv_bufsize=30000 / nal_hrd=none / ip_ratio=1.30 / pb_ratio=1.35 / aq=2:0.80 / zones=141576,143612,b=0.5/143613,150962,q=35Language : EnglishDefault : YesForced : NoMatrix coefficients : BT.709-5, BT.1361, IEC 61966-2-4 709, SMPTE RP177Audio #1ID : 2Format : AC-3Format/Info : Audio Coding 3Mode extension : CM (complete main)Codec ID : A_AC3Duration : 1h 44mnBit rate mode : ConstantBit rate : 384 KbpsChannel(s) : 6 channelsChannel positions : Front: L C R, Side: L R, LFESampling rate : 48.0 KHzBit depth : 16 bitsCompression mode : LossyStream size : 288 MiB (13%)Title : MVO @ OmikronLanguage : RussianDefault : YesForced : YesAudio #2ID : 3Format : AC-3Format/Info : Audio Coding 3Mode extension : CM (complete main)Codec ID : A_AC3Duration : 1h 44mnBit rate mode : ConstantBit rate : 384 KbpsChannel(s) : 6 channelsChannel positions : Front: L C R, Side: L R, LFESampling rate : 48.0 KHzBit depth : 16 bitsCompression mode : LossyStream size : 288 MiB (13%)Title : ORGLanguage : EnglishDefault : NoForced : NoText #1ID : 4Format : UTF-8Codec ID : S_TEXT/UTF8Codec ID/Info : UTF-8 Plain TextLanguage : RussianDefault : NoForced : NoText #2ID : 5Format : UTF-8Codec ID : S_TEXT/UTF8Codec ID/Info : UTF-8 Plain TextLanguage : EnglishDefault : NoForced : NoMenu00:00:00.000 : en:00:00:00.00000:05:24.407 : en:00:05:24.40700:09:17.974 : en:00:09:17.97400:14:19.067 : en:00:14:19.06700:18:07.545 : en:00:18:07.54500:20:03.786 : en:00:20:03.78600:22:38.148 : en:00:22:38.14800:25:17.015 : en:00:25:17.01500:29:42.656 : en:00:29:42.65600:33:38.266 : en:00:33:38.26600:38:29.098 : en:00:38:29.09800:41:12.595 : en:00:41:12.59500:45:19.008 : en:00:45:19.00800:48:50.177 : en:00:48:50.17700:52:56.632 : en:00:52:56.63200:57:30.280 : en:00:57:30.28000:59:26.730 : en:00:59:26.73001:01:30.145 : en:01:01:30.14501:05:03.608 : en:01:05:03.60801:06:20.268 : en:01:06:20.26801:09:34.962 : en:01:09:34.96201:11:15.688 : en:01:11:15.68801:15:44.123 : en:01:15:44.12301:18:29.204 : en:01:18:29.20401:23:09.276 : en:01:23:09.27601:27:50.390 : en:01:27:50.39001:33:00.366 : en:01:33:00.36601:37:08.948 : en:01:37:08.948

piratbit.ru

Восстание планеты обезьян через торрент

piratbit.ru

Раздают: 1 [ 5 KB/s ]
Размер: 1.18 GB | Добавлен: 5 лет 10 мес. назад | Торрент скачан:605 раз
Реклама Дарим 3000 рублей за регистрацию, не упусти свой шанс получить шикарный бонус!!!

25-12-2011 01:27 Восстание планеты обезьян Скачать торрент  

Восстание планеты обезьян«Evolution Becomes Revolution» Год выпуска: 2011Страна: США / Twentieth Century Fox Film CorporationЖанр: Фантастика, боевик, триллер, драмаБюджет: $93 000 000 Продолжительность: 01:39:50 (01:44:56) - Титры урезаны! (Концовка присутствует)Перевод: Дублированный (Лицензия) + Проф. многоголосый "Омикрон", Оригинал (Отдельно) Субтитры: Русские (Полные + форс.), Украинские (Полные + форс.), Английские (Полные)Режиссер: Руперт УайаттВ ролях: Джеймс Франко, Джон Литгоу, Фрида Пинто, Тайлер Лэбин, Брайан Кокс, Том Фелтон, Дэвид Ойелоуо, Джэми Харрис, Дэвид Хьюлетт, Ти ОлссонОписание: Молодой ученый испытывает на обезьянах новое лекарство от болезни Альцгеймера. У препарата обнаруживается удивительный побочный эффект: он повышает в несколько раз интеллект приматов.Инфо: # Шимпанзе Цезаря (зачинщика обезьяньего бунта) изобразил Энди Серкис, ранее подаривший пластику и мимику Голлуму и Кинг Конгу.# «Восстание…» – первый фильм «обезьяньей» франшизы, в котором четверорукие приматы представляют собой CG-модели. В римейке «Планеты обезьян» Тима Бертона обезьян играли актеры в сложном гриме.# У картины было три рабочих названия: «Цезарь» (Caesar), «Цезарь: Восстание обезьян» (Caesar: Rise of the Apes) и «Восстание обезьян» (Rise of the Apes). Окончательным названием – «Восстание планеты обезьян» (Rise of the Planet of the Apes) создатели фильма решили подчеркнуть связь с франшизой «Планета обезьян» (Planet of the Apes).# Цезарь использует связку палок, чтобы объяснить Морису, как одна обезьяна слаба, а обезьяны вместе - сильны. Так же связка палок, или Фа́сции, была символом власти в древнем Риме, происхождении имени Цезаря. Образ Цезаря также напоминает о Бенито Муссолини, который принял Фа́сции как символ его итальянской Фашистской стороны.# На роль Уилла, которого сыграл Джеймс Франко, рассматривался также Тоби Магуайр.Качество: HDRip-AVC (BDRip 1080p)Формат: MKV Видео кодек: H.264 / AVCАудио кодек: AAC-HE Видео: 768x328, 23,976 fps, 1496 kbps, 0.248 bit/pixelЗвук #1: Русский, AAC-HE, 2 chnls, 64 kbpsЗвук #2,3: Русский "Омикрон", Английский, AAC-HE, 2 chnls, 64 kbps - Отдельно Скачать Восстание планеты обезьян через торрент http://2.firepic.org/2/images/2011-12/23/wg0e8zv1egjo.jpg Скачать фильм Восстание планеты обезьян через торрент бесплантно в хорошем качестве Описание: Молодой ученый испытывает на обезьянах новое лекарство от болезни Альцгеймера. У препарата обнаруживается удивительный побочный ... 2011-12-25 01:27 10 10 13

Loading...

Loading...

Рекламный пират

Дорогой пользователь! Огромная просьба, поблагодарите релизера, оцените раздачу и оставьте свои комментарий, если Вы скачали Восстание планеты обезьян через торрент бесплатно! Внесите свою лепту в развитие PiratBit!

Комментировать посты могут только пользователи прошедшие не сложную регистрацию

Восстание планеты обезьян через торрент Скачать бесплатно Восстание планеты обезьян Восстание планеты обезьян скачать торрент Восстание планеты обезьян смотреть онлайн Cкачать фильм Восстание планеты обезьян бесплатно Восстание планеты обезьян скачать торрент в хорошем качестве Восстание планеты обезьян смотреть онлайн бесплатно в хорошем качестве

Вы не можете начинать темыВы не можете отвечать на сообщенияВы не можете редактировать свои сообщенияВы не можете удалять свои сообщенияВы не можете голосовать в опросахВы не можете прикреплять файлы к сообщениямВы можете скачивать файлы


Смотрите также