Скачать власть страха торрент в хорошем качестве


Власть страха 1999 - скачать бесплатно через торрент в хорошем качестве. Без регистрации

Название: Власть страха / The Bone Collector (1999) WEB-DLRip | D | Open Matte
Перевод: Профессиональный (дублированный)
Формат видео: AVI
Видео: 720x400 at 23.976 fps, XviD 67, ~1366 kbps
Аудио: 48 kHz, AC3, 3/2 (L,C,R,l,r) + LFE ch, ~384 kbps
Скачать

Загрузка начнется в течение 5 сек.

1.45 GB

Название: Власть страха / The Bone Collector (1999) WEB-DLRip 720p | D | Open Matte
Перевод: Профессиональный (дублированный)
Формат видео: MKV
Видео: 1280x720 at 23.976 fps, [email protected], ~3967 kbps
Аудио: 48 kHz, AC3, 3/2 (L,C,R,l,r) + LFE ch, ~640 kbps
Скачать

Загрузка начнется в течение 5 сек.

3.88 GB

Название: Власть страха / The Bone Collector (1999) WEB-DL 1080p | D, P, P2, A | Open Matte
Перевод: Профессиональный (дублированный) + Профессиональный (многоголосый закадровый) + Профессиональный (двухголосый закадровый) + Авторский (одноголосый закадровый)
Формат видео: MKV
Видео: 1920x1080 at 23.976 fps, MPEG-4 AVC, ~12800 kbps avg
Аудио: 48 kHz, AC3, 3/2 (L,C,R,l,r) + LFE ch, ~640 kbps avg |Дубляж|48 kHz, AC3, 3/2 (L,C,R,l,r) + LFE ch, ~640 kbps avg |Многоголосый закадровый, R5|48 kHz, AC3, 2/0 (L,R) ch, ~256 kbps avg |Двухголосый закадровый, GarsuPasaulis|48 kHz, DTS, 3/2 (L,C,R,l,r) + LFE ch, ~1509 kbps avg |Одноголосый закадровый, Андрей Гаврилов|48 kHz, DTS, 3/2 (L,C,R,l,r) + LFE ch, ~1509 kbps avg |Одноголосый закадровый, Сергей Визгунов|48 kHz, AC3, 2/0 (L,R) ch, ~192 kbps avg |Многоголосый закадровый|48 kHz, AC3, 2/0 (L,R) ch, ~192 kbps avg |Многоголосый закадровый, МОВА|48 kHz, DTS, 3/2 (L,C,R,l,r) + LFE ch, ~1509 kbps avg48 kHz, AC3, 2/0 (L,R) ch, ~256 kbps avg |Commentary|
Скачать

Загрузка начнется в течение 5 сек.

16.09 GB

Название: Власть страха / Собиратель костей / The Bone collector (1999) BDRip от HQ-ViDEO
Качество видео: BDRip (источник: [email protected] / BD-Remux / 1080p)
Перевод: Дублированный |BD CEE| + Оригинал (Английский)
Формат видео: AVI
Видео: XviD, build 73 codec 720 x 304; 23.976 fps; 1866 kbps; 0.356 bit/pixel
Аудио: AC3 Dolby Digital; 384 Kbps; 6 channels; 48 KHz |все дорожки|
Скачать

Загрузка начнется в течение 5 сек.

2.18 GB

Название: Власть страха / Собиратель костей / The Bone collector (1999) BDRip от HQCLUB | ReRip
Качество видео: BDRip (источник: [email protected] / BD-Remux / 1080p)
Перевод: Профессиональный (полное дублирование) CEE + Оригинальная звуковая дорожка + Профессиональный (многоголосый, закадровый) R5 (отдельно, http) + Авторский одноголосый С.Визгунов (отдельно, http) + Автор
Формат видео: AVI
Видео: 720x304 (2.37:1), 23.976 fps, XviD build 65 ~1749 kbps avg, 0.33 bit/pixel
Аудио: 48 kHz, AC3 Dolby Digital, 3/2 (L,C,R,l,r) + LFE ch, ~448.00 kbps avg48 kHz, AC3 Dolby Digital, 3/2 (L,C,R,l,r) + LFE ch, ~448.00 kbps avg48 kHz, AC3 Dolby Digital, 3/2 (L,C,R,l,r) + LFE ch, ~384.00 kbps avg (отдельно, http)48 kHz, AC3 Dolby Digital, 3/2 (L,C,R,l,r) + LFE ch, ~448.00 kbps avg (отдельно, http)48 kHz, AC3 Dolby Digital, 3/2 (L,C,R,l,r) + LFE ch, ~384.00 kbps avg (отдельно, http)
Скачать

Загрузка начнется в течение 5 сек.

2.19 GB

Название: Власть страха / Собиратель костей / The Bone Collector (1999) Blu-Ray | D, P
Качество видео: Blu-ray
Перевод: Дублированный, профессиональный многоголосый
Формат видео: m2ts
Видео: 1920x1080, H.264, 23.976, 22060 kbps
Аудио: Russian Dolby Digital 5.1 48 kHz 384 kbps - закадровый (R5)Russian Dolby Digital 5.1 48 kHz 640 kbps - дублированный (BD)English Dolby TrueHD 5.1 48 kHz 1429 kbps 16-bit (AC3 Embedded: 5.1 48 kHz 640 kbps)German Dolby TrueHD 5.1 48 kHz 1519 kbps 16-bit (AC3 Embedded: 5.1 48 kHz 640 kbps)Italian Dolby TrueHD 5.1 48 kHz 1523 kbps 16-bit (AC3 Embedded: 5.1 48 kHz 640 kbps)Czech Dolby Digital 5.1English Dolby Digital 2.0 48 kHz 192 kbps - комментарий
Скачать

Загрузка начнется в течение 5 сек.

35.08 GB

Название: Власть страха / The Bone Collector (1999) BDRip-AVC от Leonardo and Scarabey | D
Качество видео: BDRip-AVC Исходник: Blu-ray
Перевод: Профессиональный (полное дублирование)
Формат видео: MKV Видео кодек: MPEG-4 AVC Аудио кодек: AAC
Видео: AVC, 960x400 (2.40:1) at 23.976 fps, AVC at 1728 kbps avg, 0.182 bit/pixel
Аудио: AAC LC-SBR, 2ch, 48 kHz, 80 kbps - Дубляж
Скачать

Загрузка начнется в течение 5 сек.

1.49 GB

Название: Власть страха / The Bone Collector (1999) BDRip-AVC от olegek70 | D, P, A
Качество видео: BDRip-AVC (Blu-Ray Remux (1080р))
Перевод: Дублированный, профессиональный многоголосый, авторский одноголосый
Видео: MKV, H.264 MPEG-4 AVC, 2480 Кбит/с, 1024х424
Аудио: Русский (АС3, 6 ch, 448 Кбит/с), (АС3, 6 ch, 384 Кбит/с), английский (АС3, 6 ch, 448 Кбит/с)
Скачать

Загрузка начнется в течение 5 сек.

4.21 GB

Название: Власть страха / Собиратель костей / The Bone Collector (1999) BDRip 720p | D, P, A
Качество видео: BDRip 720p
Видео: MPEG-4 AVC, 4590 Kбит/с, 1280x534
Аудио: английский, 48 kHz, AC3, 2 ch, 192 kbps avg, [Комментарий]
Скачать

Загрузка начнется в течение 5 сек.

6.10 GB

Название: Власть страха / Собиратель костей / The Bone Collector (1999) BDRip 1080p | D, P, A
Качество видео: BDRip 1080p
Видео: MPEG-4 AVC, 11.8 Mбит/с, 1920x800
Аудио: русский, 48 kHz, AC3, 6 ch, 640 kbps avg, [Дублированный]русский, 48 kHz, AC3, 6 ch, 448 kbps avg, [Профессиональный многоголосый]русский, 48 kHz, AC3, 6 ch, 384 kbps avg, Сергей Визгунов [Авторский]русский, 48 kHz, AC3, 6 ch, 384 kbps avg, Андрей Гаврилов [Авторский]
Скачать

Загрузка начнется в течение 5 сек.

11.97 GB

Название: Власть страха / Собиратель костей / The Bone Collector (1999) HDRip | КПК от Generalfilm
Качество видео: HDRip | КПК
Видео: кодек: x264, формат: mp4, размер кадра: 480x208, битрейт: 350 кб/с
Аудио: язык: русский, перевод: дублированный (дубляж), кодек: AAC LC 2.0, битрейт: 102 кб/с
Скачать

Загрузка начнется в течение 5 сек.

383.53 MB

Название: Власть страха / The Bone Collector (1999) BDRip 1080p
Качество видео: BDRip 1080p
Перевод: Дублированный
Видео: x264 1920x800, 7283 Kbps, 23.976 fps
Аудио: Russian: 48 kHz, AC3, 3/2 (L,C,R,l,r) + LFE ch, ~640.00 kbps avg |Дубляж, Blu-ray|
Скачать

Загрузка начнется в течение 5 сек.

7.15 GB

www.kinovit.net

Скачать фильм Власть страха через торрент в хорошем качестве бесплатно 1080p

ОбщееУникальный идентификатор : 251144634336325589858007691884038613536 (0xBCF0B27957DFF2CC88F4542AF00E6A20)Полное имя : D:\The.Bone.Collector.1999.WEB-DL.1080p.5xRus.2xUkr.2xEng.OpenMatte.mkvФормат : MatroskaВерсия формата : Version 4 / Version 2Размер файла : 16,1 ГбайтПродолжительность : 1 ч. 58 м.Режим общего битрейта : ПеременныйОбщий поток : 19,5 Мбит/секДата кодирования : UTC 2017-09-05 11:42:43Программа кодирования : mkvmerge v15.0.0 ('Duel with the Devil') 64-bitБиблиотека кодирования : libebml v1.3.5 + libmatroska v1.4.5

ВидеоИдентификатор : 1Формат : AVCФормат/Информация : Advanced Video CodecПрофиль формата : [email protected]Параметр CABAC формата : ДаПараметр ReFrames формата : 4 кадраИдентификатор кодека : V_MPEG4/ISO/AVCПродолжительность : 1 ч. 58 м.Вид битрейта : ПеременныйБитрейт : 12,8 Мбит/секМаксимальный битрейт : 15,0 Мбит/секШирина : 1920 пикселейВысота : 1080 пикселейСоотношение сторон : 16:9Режим частоты кадров : ПостоянныйЧастота кадров : 23,976 (24000/1001) кадра/секЦветовое пространство : YUVСубдискретизация насыщенности : 4:2:0Битовая глубина : 8 битТип развёртки : ПрогрессивнаяБит/(Пиксели*Кадры) : 0.257Размер потока : 10,5 Гбайт (65%)Язык : EnglishDefault : ДаForced : НетЦветовой диапазон : LimitedОсновные цвета : BT.709Характеристики трансфера : BT.709Коэффициенты матрицы : BT.709

Аудио #1Идентификатор : 2Формат : AC-3Формат/Информация : Audio Coding 3Расширение режима : CM (complete main)Параметр Endianness формата : BigИдентификатор кодека : A_AC3Продолжительность : 1 ч. 58 м.Вид битрейта : ПостоянныйБитрейт : 640 Кбит/секКаналы : 6 каналовРасположение каналов : Front: L C R, Side: L R, LFEЧастота : 48,0 КГцЧастота кадров : 31,250 кадров/сек (1536 spf)Метод сжатия : С потерямиРазмер потока : 541 Мбайт (3%)Заголовок : ДубляжЯзык : RussianDefault : ДаForced : Нет

Аудио #2Идентификатор : 3Формат : AC-3Формат/Информация : Audio Coding 3Расширение режима : CM (complete main)Параметр Endianness формата : BigИдентификатор кодека : A_AC3Продолжительность : 1 ч. 58 м.Вид битрейта : ПостоянныйБитрейт : 640 Кбит/секКаналы : 6 каналовРасположение каналов : Front: L C R, Side: L R, LFEЧастота : 48,0 КГцЧастота кадров : 31,250 кадров/сек (1536 spf)Метод сжатия : С потерямиРазмер потока : 541 Мбайт (3%)Заголовок : MVOЯзык : RussianDefault : НетForced : Нет

Аудио #3Идентификатор : 4Формат : AC-3Формат/Информация : Audio Coding 3Расширение режима : CM (complete main)Параметр Endianness формата : BigИдентификатор кодека : A_AC3Продолжительность : 1 ч. 58 м.Вид битрейта : ПостоянныйБитрейт : 256 Кбит/секКаналы : 2 каналаРасположение каналов : Front: L RЧастота : 48,0 КГцЧастота кадров : 31,250 кадров/сек (1536 spf)Метод сжатия : С потерямиРазмер потока : 216 Мбайт (1%)Заголовок : GarsuPasaulisЯзык : RussianDefault : НетForced : Нет

Аудио #4Идентификатор : 5Формат : DTSФормат/Информация : Digital Theater SystemsРежим : 16Параметр Endianness формата : BigИдентификатор кодека : A_DTSПродолжительность : 1 ч. 58 м.Вид битрейта : ПостоянныйБитрейт : 1510 Кбит/секКаналы : 6 каналовРасположение каналов : Front: L C R, Side: L R, LFEЧастота : 48,0 КГцЧастота кадров : 93,750 кадра/сек (512 spf)Битовая глубина : 24 битМетод сжатия : С потерямиРазмер потока : 1,25 Гбайт (8%)Заголовок : Андрей ГавриловЯзык : RussianDefault : НетForced : Нет

Аудио #5Идентификатор : 6Формат : DTSФормат/Информация : Digital Theater SystemsРежим : 16Параметр Endianness формата : BigИдентификатор кодека : A_DTSПродолжительность : 1 ч. 58 м.Вид битрейта : ПостоянныйБитрейт : 1510 Кбит/секКаналы : 6 каналовРасположение каналов : Front: L C R, Side: L R, LFEЧастота : 48,0 КГцЧастота кадров : 93,750 кадра/сек (512 spf)Битовая глубина : 24 битМетод сжатия : С потерямиРазмер потока : 1,25 Гбайт (8%)Заголовок : Сергей ВизгуновЯзык : RussianDefault : НетForced : Нет

Аудио #6Идентификатор : 7Формат : AC-3Формат/Информация : Audio Coding 3Расширение режима : CM (complete main)Параметр Endianness формата : BigИдентификатор кодека : A_AC3Продолжительность : 1 ч. 58 м.Вид битрейта : ПостоянныйБитрейт : 192 Кбит/секКаналы : 2 каналаРасположение каналов : Front: L RЧастота : 48,0 КГцЧастота кадров : 31,250 кадров/сек (1536 spf)Метод сжатия : С потерямиРазмер потока : 162 Мбайт (1%)Язык : UkrainianDefault : НетForced : Нет

Аудио #7Идентификатор : 8Формат : AC-3Формат/Информация : Audio Coding 3Расширение режима : CM (complete main)Параметр Endianness формата : BigИдентификатор кодека : A_AC3Продолжительность : 1 ч. 58 м.Вид битрейта : ПостоянныйБитрейт : 192 Кбит/секКаналы : 2 каналаРасположение каналов : Front: L RЧастота : 48,0 КГцЧастота кадров : 31,250 кадров/сек (1536 spf)Метод сжатия : С потерямиРазмер потока : 162 Мбайт (1%)Заголовок : МОВАЯзык : UkrainianDefault : НетForced : Нет

Аудио #8Идентификатор : 9Формат : DTSФормат/Информация : Digital Theater SystemsРежим : 16Параметр Endianness формата : BigИдентификатор кодека : A_DTSПродолжительность : 1 ч. 58 м.Вид битрейта : ПостоянныйБитрейт : 1510 Кбит/секКаналы : 6 каналовРасположение каналов : Front: L C R, Side: L R, LFEЧастота : 48,0 КГцЧастота кадров : 93,750 кадра/сек (512 spf)Битовая глубина : 24 битМетод сжатия : С потерямиРазмер потока : 1,25 Гбайт (8%)Язык : EnglishDefault : НетForced : Нет

Аудио #9Идентификатор : 10Формат : AC-3Формат/Информация : Audio Coding 3Расширение режима : CM (complete main)Параметр Endianness формата : BigИдентификатор кодека : A_AC3Продолжительность : 1 ч. 58 м.Вид битрейта : ПостоянныйБитрейт : 256 Кбит/секКаналы : 2 каналаРасположение каналов : Front: L RЧастота : 48,0 КГцЧастота кадров : 31,250 кадров/сек (1536 spf)Метод сжатия : С потерямиРазмер потока : 216 Мбайт (1%)Заголовок : CommentaryЯзык : EnglishDefault : НетForced : Нет

Текст #1Идентификатор : 11Формат : PGSРежим смешивания : zlibИдентификатор кодека : S_HDMV/PGSИдентификатор кодека/Информация : Picture based subtitle format used on BDs/HD-DVDsПродолжительность : 1 ч. 50 м.Битрейт : 21,5 Кбит/секCount of elements : 2502Размер потока : 17,0 Мбайт (0%)Язык : RussianDefault : НетForced : Нет

Текст #2Идентификатор : 12Формат : PGSРежим смешивания : zlibИдентификатор кодека : S_HDMV/PGSИдентификатор кодека/Информация : Picture based subtitle format used on BDs/HD-DVDsПродолжительность : 1 ч. 49 м.Битрейт : 28,7 Кбит/секCount of elements : 2498Размер потока : 22,4 Мбайт (0%)Язык : EnglishDefault : НетForced : Нет

Текст #3Идентификатор : 13Формат : PGSРежим смешивания : zlibИдентификатор кодека : S_HDMV/PGSИдентификатор кодека/Информация : Picture based subtitle format used on BDs/HD-DVDsПродолжительность : 1 ч. 54 м.Битрейт : 23,7 Кбит/секCount of elements : 2962Размер потока : 19,5 Мбайт (0%)Язык : EnglishDefault : НетForced : Нет

piratbit.ru

Скачать фильм Власть страха через торрент в хорошем качестве бесплатно 720p

Размер: 5.23 GB | Добавлен: 6 лет 10 мес. назад | Торрент скачан:14 раз
Реклама Дарим 3000 рублей за регистрацию, не упусти свой шанс получить шикарный бонус!!!

10-12-2010 10:14 Власть страха Скачать торрент  

Власть страха / The Bone Collector«Serial killer vs. forensic genius» Год выпуска: 1999Страна: СШАЖанр: триллер, драма, мистикаПродолжительность: 01:58:02Перевод: Профессиональный (полное дублирование)Режиссер: Филлип НойсСценарий: Джеффри Дивер, Джереми ИэкоунПродюсер: Мартин Брегман, Майкл Скотт Брегман, Бо ДитлОператор: Дин СемлерКомпозитор: Крэйг АрмстронгБюджет: $73 000 000 | Сборы в США: $66 518 655 | Сборы в мире: $151 493 655IMDB: 6.3 (47,985) | КиноПоиск: 7.6 (4 302)КиноПоиск.Ru | IMDb.comВ ролях: Дензел Вашингтон, Анджелина Джоли, Квин Латифа, Майкл Рукер, Mike McGlone, Луис Гузман, Лелэнд Орсер, Джон Бенжамин Хикки, Бобби Каннавейл, Эд О`НейллОписание:Линкольн Райм - знаменитый криминалист, автор множества книг, навсегда прикованный к больничной постели. Амелия Донаги - начинающий полицейский, делающий первые неуверенные шаги по кровавым мостовым. Когда в городе появляется страшный маньяк, она становится глазами и ушами Райма на обезумевших от ужаса улицах. С ее помощью гений криминалистики пытается разгадать тайный шифр, скрытый в непредсказуемых убийствах. Но Линкольн не подозревает, что в дьявольской книге, которую маньяк пишет кровью своих жертв, место главного героя отведено именно ему, и этот роман смерти уже подходит к страшному эпилогу...Качество: BDRip | | Формат: MKVВидео кодек: h.264 | Аудио кодек: AC-3,DTSВидео: 1280x528, 23.976 fps, 4619 KbpsАудио № 1: Русский AC3 5.1 448 kbps (дубляж)Аудио № 2: Русский AC3 5.1 640 kbps (закадровый)Аудио № 3: Английский AC3 5.1 640 kbpsCэмпл: СкачатьОбщееПолное имя : D:\torrent\tor\The Bone Collector Blu-ray 720p x264.mkvФормат : MatroskaРазмер файла : 5,23 ГиБПродолжительность : 1 ч. 58 м.Общий поток : 6347 Кбит/секДата кодирования : UTC 2008-08-03 19:55:06Программа кодирования : mkvmerge v2.2.0 ('Turn It On Again') built on Mar 4 2008 12:58:26Библиотека кодирования : libebml v0.7.7 + libmatroska v0.8.1

ВидеоИдентификатор : 1Формат : AVCФормат/Информация : Advanced Video CodecПрофайл формата : [email protected]Параметры CABAC формата : ДаПараметры ReFrames формата : 5 кадрыРежим смешивания : Container [email protected]Идентификатор кодека : V_MPEG4/ISO/AVCПродолжительность : 1 ч. 58 м.Битрейт : 4619 Кбит/секШирина : 1280 пикс.Высота : 528 пикс.Соотношение кадра : 2,40:1Оригинальное соотношение сторон : 2,40:1Частота кадров : 23,976 кадр/секColorSpace : YUVChromaSubsampling : 4:2:0BitDepth/String : 8 битТип развёртки : ПрогрессивнаяБит/(Пиксели*Кадры) : 0.285Размер потока : 3,70 ГиБ (71%)Библиотека кодирования : x264 core 60Настройки программы : cabac=1 / ref=5 / deblock=1:0:0 / analyse=0x3:0x113 / me=umh / subme=6 / psy_rd=1.000000 / brdo=1 / mixed_ref=1 / me_range=16 / chroma_me=1 / trellis=0 / 8x8dct=1 / cqm=0 / deadzone=21,11 / chroma_qp_offset=0 / threads=3 / nr=0 / decimate=1 / mbaff=0 / bframes=3 / b_pyramid=1 / b_adapt=1 / b_bias=0 / direct=3 / wpredb=1 / bime=1 / keyint=250 / keyint_min=25 / scenecut=40(pre) / rc=2pass / bitrate=4619 / ratetol=1.0 / rceq='blurCplx^(1-qComp)' / qcomp=1.00 / qpmin=10 / qpmax=51 / qpstep=4 / cplxblur=20.0 / qblur=0.5 / ip_ratio=1.40 / pb_ratio=1.30 / aq=2:1.00Язык : English

Аудио #1Идентификатор : 2Формат : AC-3Формат/Информация : Audio Coding 3Format_Settings_ModeExtension : CM (complete main)Идентификатор кодека : A_AC3Продолжительность : 1 ч. 58 м.Вид битрейта : ПостоянныйБитрейт : 448 Кбит/секКанал(ы) : 6 канала(ов)Расположение каналов : Front: L C R, Side: L R, LFEЧастота : 48,0 КГцBitDepth/String : 16 битРазмер потока : 378 МиБ (7%)Заголовок : AC3 5.1 448 kbpsЯзык : Russian

Аудио #2Идентификатор : 3Формат : AC-3Формат/Информация : Audio Coding 3Format_Settings_ModeExtension : CM (complete main)Идентификатор кодека : A_AC3Продолжительность : 1 ч. 58 м.Вид битрейта : ПостоянныйБитрейт : 640 Кбит/секКанал(ы) : 6 канала(ов)Расположение каналов : Front: L C R, Side: L R, LFEЧастота : 48,0 КГцBitDepth/String : 16 битРазмер потока : 540 МиБ (10%)Заголовок : AC3 5.1 640 kbpsЯзык : Russian

Аудио #3Идентификатор : 4Формат : AC-3Формат/Информация : Audio Coding 3Format_Settings_ModeExtension : CM (complete main)Идентификатор кодека : A_AC3Продолжительность : 1 ч. 58 м.Вид битрейта : ПостоянныйБитрейт : 640 Кбит/секКанал(ы) : 6 канала(ов)Расположение каналов : Front: L C R, Side: L R, LFEЧастота : 48,0 КГцBitDepth/String : 16 битРазмер потока : 540 МиБ (10%)Заголовок : AC3 5.1 640 kbpsЯзык : English

В интервью Джоли рассказывала, что в фильме должна была быть сцена, где она предстает обнаженной, но Нойс при монтаже её вырезал.Фильм является экранизацией первого из восьми романов Джеффри Дивера о детективе Линкольне Райме.

Скачать Власть страха через торрент http://i13.fastpic.ru/big/2010/1210/d4/31a5758762a3b0efe51f72cb331c5ed4.jpg Скачать фильм Власть страха через торрент бесплантно в хорошем качестве Описание:Линкольн Райм - знаменитый криминалист, автор множества книг, навсегда прикованный к больничной постели. Амелия Донаги - ... 2010-12-10 10:14 5 10 3

Loading...

Loading...

Рекламный пират

13-09-2017 15:37 Власть страха Скачать торрент  

Дорогой пользователь! Огромная просьба, поблагодарите релизера, оцените раздачу и оставьте свои комментарий, если Вы скачали Власть страха через торрент бесплатно! Внесите свою лепту в развитие PiratBit!

Комментировать посты могут только пользователи прошедшие не сложную регистрацию

Власть страха через торрент Скачать бесплатно Власть страха Власть страха скачать торрент Власть страха смотреть онлайн Cкачать фильм Власть страха бесплатно Власть страха скачать торрент в хорошем качестве Власть страха смотреть онлайн бесплатно в хорошем качестве

Вы не можете начинать темыВы не можете отвечать на сообщенияВы не можете редактировать свои сообщенияВы не можете удалять свои сообщенияВы не можете голосовать в опросахВы не можете прикреплять файлы к сообщениямВы можете скачивать файлы

piratbit.ru

Власть страха (1999) скачать торрент в хорошем качестве бесплатно

Описание фильма "Власть страха"

"Власть страха", Филлипа Нойса, с блистательными Дэнзелом Вашингтоном и Анджелиной Джоли - это динамичный и зрелищный триллер в манере современного квеста, наполненный страшными загадками и бесконечной гонкой за жизни. Триллер представляет собой экранизацию первого романа Джеффри Дивера "Собиратель костей" из потрясающей серии его книг о детективе Линкольне Райме и его помощнице Амелии. Оригинальная версия фильма также сохранила название книги - "Собиратель костей" и оно действительно подходит намного больше, учитывая необъяснимую манеру убийств, происходящих в течении сюжета.

Центральной линией "Власти страха" выступают повторяющиеся нападения, на абсолютно разных и не связанных между собой жителей города, маньяком, который непреодолимо одержим костями, именно человеческими костями. Кости - это единственное, на что он обращает внимание при виде любого человека, сразу оценивая череп, ключицы и тому подобное. Кости представляют его страсть и в то же время, убивая очередную жертву, он оставляет на месте убийства подсказки и зацепки, с помощью которых можно определить место следующего преступления и сделать попытку предотвращения. Собиратель костей играет с тем, кто его ловит, соревнуется с ним в интеллектуальном уровне.

Это в высшей степени неординарное дело просят расследовать Линкольна Райма, детектива в отставке, который к тому же парализован после несчастного случая, произошедшего во время одного из расследований. Потеряв интерес к жизни без работы Райм думает о ее прекращении, но это безумное соревнование с изворотливым маньяком и решение бесконечных интеллектуальных задач возвращает ему то возбуждение, которое он обычно испытывал разоблачая очередного преступника. Линкольн осуществляет весь процесс умозаключений, однако из-за неспособности передвигаться он сделал Амелию, молодого полицейского, своей помощницей, которая собирала все улики с места убийства, следуя его указаниям по рации. Написав ряд книг по криминалистике, Райм считает улики единственным, что имеет ценность и разработал собственную методику из сбора, а также проникновения в мозг преступника. Сначала его методы кажутся Амелии дикими, что приводит к напряженному противостоянию их личностей и характеров, но впоследствии они превращаются в идеальных напарников.

"Власть страха" доставляет удовольствие не только предвкушением взрывной развязки всех загадок, но и самим процессом их распутывания, которое мастерски шаг за шагом осуществляют нестандартно и остро мыслящий Линкольн Райм и очаровательная, смелая и умная Амелия.

Скачать Власть страха через торрент

Сиды Качество Перевод Размер Видео Аудио
Скачать Загрузка... BDRip1080 Профессиональный (дублированный) + Профессиональный (многоголосый закадровый) + Профессиональный (двухголосый закадровый) + Авторский (одноголосый закадровый) 17,28 Гб 1920x1080 at 23.976 fps, MPEG-4 AVC, ~12800 kbps avg 48 kHz, AC3, 2/0 (L,R) ch, ~256 kbps avg |Commentary|
Скачать Загрузка... BDRip720 Профессиональный (дублированный) 4,17 Гб 1280x720 at 23.976 fps, [email protected], ~3967 kbps 48 kHz, AC3, 3/2 (L,C,R,l,r) + LFE ch, ~640 kbps
Скачать Загрузка... WEB-DL Профессиональный (дублированный) 1,56 Гб 720x400 at 23.976 fps, XviD 67, ~1366 kbps 48 kHz, AC3, 3/2 (L,C,R,l,r) + LFE ch, ~384 kbps
Скачать Загрузка... WEB-DL Профессиональный (дублированный) 784,52 Мб 754x424 at 23.976 fps, [email protected], ~819 kbps AAC, 2 ch, ~64 kbps

У нас вы можете легко скачать Власть страха через торрент бесплатно в хорошем качестве, оставляйте комментарии и делитесь впечатлениями!

kino.kak.to

Скачать фильм Власть страха через торрент в хорошем качестве бесплатно 720p

Размер: 6.1 GB | Добавлен: 4 года 3 мес. назад | Торрент скачан:68 раз
Реклама Дарим 3000 рублей за регистрацию, не упусти свой шанс получить шикарный бонус!!!

07-07-2013 01:29 Власть страха Скачать торрент  

Власть страха / The Bone Collector

«Serial killer vs. forensic genius» Год выпуска: 1999Страна: США Жанр: триллер, драма, криминал, детективПродолжительность: 01:57:57Перевод: Дубляж, ЛицензияТип релиза: ЛицензияСубтитры: Есть

Режиссер: Филлип НойсПродюссер: Мартин Брегман, Майкл Брегман, Луис А. СтроллерСценарий: Джереми Иэкоун, Джеффри Дивер

Бюджет: $73 000 000Премьера в мире: 29 августа 1999

В ролях: Дензел Вашингтон, Анджелина Джоли, Куин Латифа, Майкл Рукер, Майк МакГлоун, Луис Гузман, Лиленд Орсер, Джон Бенжамин Хикки, Бобби Каннавейл, Эд О’Нил, Ричард Биман, Оливия Бирклунд, Гэри Суонсон, Джеймс Буллейт, Фрэнк Фонтейн, Зена Грэй, Дэниэл Брошу, Десмонд Кэмпбелл, Кристиан Велиз, Мерседес Гомез, Мэри Хеммет, Аманда Гэй, Стив Адамс, Ларри Дэй, Бурк Лоуренс, Терри Симпсон, Эрик Дэвис, Артур Холден, Ясмин Давио, Кинэн Макуильям, Дэвид Уоршофски, Матео Гомез, Тед Уиттэлл, Питер Майкл Диллон, Джонатан Старк, Фульвио Чечере, Хэл Шерман, Расселл Юэнь, Андерсон С. Брэдшоу,

Описание: Линкольн Райм — знаменитый криминалист, автор множества книг, навсегда прикованный к больничной постели. Амелия Донаги — начинающий полицейский, делающий первые неуверенные шаги по кровавым мостовым. Когда в городе появляется страшный маньяк, она становится глазами и ушами Райма на обезумевших от ужаса улицах.

С ее помощью гений криминалистики пытается разгадать тайный шифр, скрытый в непредсказуемых убийствах…

Качество: BDRip 720pФормат: MKVВидео кодек: H.264Аудио кодек: AC3Видео: 1280x534 (2.35:1), 23.976 fps, 4 590 Kbps (0.280 bit/pixel)Аудио 1: русский, 48 kHz, AC3, 6 ch, 640 kbps avg, [Дублированный]Аудио 2: русский, 48 kHz, AC3, 6 ch, 448 kbps avg, [Профессиональный многоголосый]Аудио 3: русский, 48 kHz, AC3, 6 ch, 384 kbps avg, Сергей Визгунов [Авторский]Аудио 4: русский, 48 kHz, AC3, 6 ch, 384 kbps avg, Андрей Гаврилов [Авторский]

Внешние файлы

Аудио: английский, 48 kHz, AC3, 6 ch, 640 kbps avg, [Оригинал]Аудио: английский, 48 kHz, AC3, 2 ch, 192 kbps avg, [Комментарий]Субтитры: русскиеСубтитры: английские

ОбщееУникальный идентификатор : 195395483075966650873171396421859842894 (0x92FFCD1A7C88D8B0BBC08C4A8CFE9B4E)Полное имя : F:Власть страха.1999.x264.BDRip.720pVlast.straha.1999.x264.BDRip.720p.mkvФормат : MatroskaВерсия формата : Version 4 / Version 2Размер файла : 5,42 ГбайтПродолжительность : 1 ч. 57 м.Общий поток : 6577 Кбит/секНазвание фильма : Власть страха / The Bone Collector / 1999 / BDRip Дата кодирования : UTC 2010-02-22 21:41:31Программа кодирования : mkvmerge v5.9.0 ('On The Loose') built on Dec 9 2012 15:37:01Библиотека кодирования : libebml v1.3.0 + libmatroska v1.4.0

ВидеоИдентификатор : 1Формат : AVCФормат/Информация : Advanced Video CodecПрофиль формата : [email protected]Параметр CABAC формата : ДаПараметр ReFrames формата : 9 кадровИдентификатор кодека : V_MPEG4/ISO/AVCПродолжительность : 1 ч. 57 м.Битрейт : 4590 Кбит/секШирина : 1280 пикселейВысота : 534 пикселяСоотношение сторон : 2,40:1Режим частоты кадров : ПостоянныйЧастота кадров : 23,976 кадра/секЦветовое пространство : YUVСубдискретизация насыщенности : 4:2:0Битовая глубина : 8 битТип развёртки : ПрогрессивнаяБит/(Пиксели*Кадры) : 0.280Размер потока : 3,78 Гбайт (70%)Библиотека кодирования : x264 core 133 r2334 a3ac64bНастройки программы : cabac=1 / ref=9 / deblock=1:-1:-1 / analyse=0x3:0x113 / me=umh / subme=10 / psy=1 / psy_rd=1.00:0.15 / mixed_ref=1 / me_range=24 / chroma_me=1 / trellis=2 / 8x8dct=1 / cqm=0 / deadzone=21,11 / fast_pskip=0 / chroma_qp_offset=-3 / threads=6 / lookahead_threads=1 / sliced_threads=0 / nr=0 / decimate=1 / interlaced=0 / bluray_compat=0 / constrained_intra=0 / bframes=8 / b_pyramid=2 / b_adapt=2 / b_bias=0 / direct=1 / weightb=0 / open_gop=0 / weightp=2 / keyint=230 / keyint_min=23 / scenecut=40 / intra_refresh=0 / rc_lookahead=60 / rc=crf / mbtree=0 / crf=18.0 / qcomp=0.60 / qpmin=0 / qpmax=69 / qpstep=4 / vbv_maxrate=50000 / vbv_bufsize=62500 / crf_max=0.0 / nal_hrd=none / ip_ratio=1.40 / pb_ratio=1.30 / aq=1:0.80Язык : EnglishDefault : ДаForced : Нет

Аудио #1Идентификатор : 2Формат : AC-3Формат/Информация : Audio Coding 3Расширение режима : CM (complete main)Параметр Endianness формата : BigИдентификатор кодека : A_AC3Продолжительность : 1 ч. 57 м.Вид битрейта : ПостоянныйБитрейт : 640 Кбит/секКаналы : 6 каналовРасположение каналов : Front: L C R, Side: L R, LFEЧастота : 48,0 КГцБитовая глубина : 16 битМетод сжатия : С потерямиРазмер потока : 540 Мбайт (10%)Заголовок : DUBЯзык : RussianDefault : ДаForced : Нет

Аудио #2Идентификатор : 3Формат : AC-3Формат/Информация : Audio Coding 3Расширение режима : CM (complete main)Параметр Endianness формата : BigИдентификатор кодека : A_AC3Продолжительность : 1 ч. 57 м.Вид битрейта : ПостоянныйБитрейт : 448 Кбит/секКаналы : 6 каналовРасположение каналов : Front: L C R, Side: L R, LFEЧастота : 48,0 КГцБитовая глубина : 16 битМетод сжатия : С потерямиРазмер потока : 378 Мбайт (7%)Заголовок : MVOЯзык : RussianDefault : НетForced : Нет

Аудио #3Идентификатор : 4Формат : AC-3Формат/Информация : Audio Coding 3Расширение режима : CM (complete main)Параметр Endianness формата : BigИдентификатор кодека : A_AC3Продолжительность : 1 ч. 57 м.Вид битрейта : ПостоянныйБитрейт : 384 Кбит/секКаналы : 6 каналовРасположение каналов : Front: L C R, Side: L R, LFEЧастота : 48,0 КГцБитовая глубина : 16 битМетод сжатия : С потерямиРазмер потока : 324 Мбайт (6%)Заголовок : AVO (Юрий Визгунов)Язык : RussianDefault : НетForced : Нет

Аудио #4Идентификатор : 5Формат : AC-3Формат/Информация : Audio Coding 3Расширение режима : CM (complete main)Параметр Endianness формата : BigИдентификатор кодека : A_AC3Продолжительность : 1 ч. 57 м.Вид битрейта : ПостоянныйБитрейт : 384 Кбит/секКаналы : 6 каналовРасположение каналов : Front: L C R, Side: L R, LFEЧастота : 48,0 КГцБитовая глубина : 16 битМетод сжатия : С потерямиРазмер потока : 324 Мбайт (6%)Заголовок : AVO (Андрей Гаврилов)Язык : RussianDefault : НетForced : Нет

Внешние Аудио дороги

ОбщееПолное имя : F:Власть страха.1999.x264.BDRip.720pVlast.straha.1999.Commentary.eng.ac3Формат : AC-3Формат/Информация : Audio Coding 3Размер файла : 162 МбайтПродолжительность : 1 ч. 57 м.Режим общего битрейта : ПостоянныйОбщий поток : 192 Кбит/сек

Аудио 1Формат : AC-3Формат/Информация : Audio Coding 3Профиль формата : Dolby DigitalРасширение режима : CM (complete main)Параметр Endianness формата : BigПродолжительность : 1 ч. 57 м.Вид битрейта : ПостоянныйБитрейт : 192 Кбит/секКаналы : 2 каналаРасположение каналов : Front: L RЧастота : 48,0 КГцБитовая глубина : 16 битМетод сжатия : С потерямиРазмер потока : 162 Мбайт (100%)

ОбщееПолное имя : F:Власть страха.1999.x264.BDRip.720pVlast.straha.1999.Original.eng.ac3Формат : AC-3Формат/Информация : Audio Coding 3Размер файла : 540 МбайтПродолжительность : 1 ч. 57 м.Режим общего битрейта : ПостоянныйОбщий поток : 640 Кбит/сек

Аудио 2Формат : AC-3Формат/Информация : Audio Coding 3Расширение режима : CM (complete main)Параметр Endianness формата : BigПродолжительность : 1 ч. 57 м.Вид битрейта : ПостоянныйБитрейт : 640 Кбит/секКаналы : 6 каналовРасположение каналов : Front: L C R, Side: L R, LFEЧастота : 48,0 КГцБитовая глубина : 16 битМетод сжатия : С потерямиРазмер потока : 540 Мбайт (100%)

Скачать Власть страха через торрент http://pic.pb.wtf/images/3/xdcrxem3vc.gif Скачать фильм Власть страха через торрент бесплантно в хорошем качестве Описание: Линкольн Райм — знаменитый криминалист, автор множества книг, навсегда прикованный к больничной постели. Амелия Донаги — ... 2013-07-07 01:29 8.8 10 13

Loading...

Loading...

Рекламный пират

07-07-2013 18:08 Власть страха Скачать торрент  

Неплохой триллер с еще не анорексичной Джоли.

Дорогой пользователь! Огромная просьба, поблагодарите релизера, оцените раздачу и оставьте свои комментарий, если Вы скачали Власть страха через торрент бесплатно! Внесите свою лепту в развитие PiratBit!

Комментировать посты могут только пользователи прошедшие не сложную регистрацию

Власть страха через торрент Скачать бесплатно Власть страха Власть страха скачать торрент Власть страха смотреть онлайн Cкачать фильм Власть страха бесплатно Власть страха скачать торрент в хорошем качестве Власть страха смотреть онлайн бесплатно в хорошем качестве

Вы не можете начинать темыВы не можете отвечать на сообщенияВы не можете редактировать свои сообщенияВы не можете удалять свои сообщенияВы не можете голосовать в опросахВы не можете прикреплять файлы к сообщениямВы можете скачивать файлы

piratbit.ru


Смотрите также