Скачать владение 18 в хорошем качестве торрент


Скачать фильм Владение 18 через торрент в хорошем качестве бесплатно HDRip

Размер: 1.46 GB | Добавлен: 3 года 6 мес. назад | Торрент скачан:1065 раз
Реклама Дарим 3000 рублей за регистрацию, не упусти свой шанс получить шикарный бонус!!!

11-04-2014 19:34 Владение 18 Скачать торрент  

Владение 18 «Зло живёт по соседству» Год выпуска: 2013Страна: Россия / Люксор, Про100 Фильм, ВершинаЖанр: ужасы, детектив, триллерПродолжительность: 01:28:46Перевод: Оригинал [лицензия]Субтитры: нетВ ролях:Ольга Приходько, Борис Полунин, Виктория Райкова, Мария Фомина, Дмитрий Ендальцев, Юрий Филатов, Сергей Холмогоров

Режиссёр:Святослав Подгаевский

Сиреневые Холмы, Владение 18 - адрес обычной многоэтажки на окраине города. Скоро здесь будет новый цветущий микрорайон, но пока вокруг царит девственное запустение. Сейчас цены на квартиры в этом доме так заманчиво низки... И продают их, оказывается, только по специальной благотворительной программе инвесторов! Когда ещё небогатым молодожёнам Свете и Максиму представится такой удивительный шанс переехать из крохотной коммуналки в собственную просторную квартиру?..

Качество: HDRipФормат: AVIВидео кодек: XviDАудио кодек: AC3Видео: 720x304 (2.37:1), 24 fps, XviD build 50 ~1796 kbps avg, 0.34 bit/pixel Аудио: 48 kHz, AC3 Dolby Digital, 3/2 (L,C,R,l,r) + LFE ch, ~448 kbps Скачать Владение 18 через торрент http://6.firepic.org/6/images/2014-04/11/oqeve9gyeu9h.jpg Скачать фильм Владение 18 через торрент бесплантно в хорошем качестве В ролях:Ольга Приходько, Борис Полунин, Виктория Райкова, Мария Фомина, Дмитрий Ендальцев, Юрий Филатов, Сергей Холмогоров ... 2014-04-11 19:34 9.2 10 25

Loading...

Loading...

Рекламный пират

12-04-2014 06:15 Владение 18 Скачать торрент  

Спасибо) Хотел на него в кино идти) Но выбрал Красавицу и Чудовище, кстати фильм отличный. Скорее выкладывайте.

12-04-2014 14:08 Владение 18 Скачать торрент  

то что снят в россии меня уже отталкивает

12-04-2014 14:40 Владение 18 Скачать торрент  

анти реклама _ Люди не въезжайте в новостройки )))

Дорогой пользователь! Огромная просьба, поблагодарите релизера, оцените раздачу и оставьте свои комментарий, если Вы скачали Владение 18 через торрент бесплатно! Внесите свою лепту в развитие PiratBit!

Комментировать посты могут только пользователи прошедшие не сложную регистрацию

Владение 18 через торрент Скачать бесплатно Владение 18 Владение 18 скачать торрент Владение 18 смотреть онлайн Cкачать фильм Владение 18 бесплатно Владение 18 скачать торрент в хорошем качестве Владение 18 смотреть онлайн бесплатно в хорошем качестве

Вы не можете начинать темыВы не можете отвечать на сообщенияВы не можете редактировать свои сообщенияВы не можете удалять свои сообщенияВы не можете голосовать в опросахВы не можете прикреплять файлы к сообщениямВы можете скачивать файлы

piratbit.ru

Скачать фильм Владение 18 через торрент в хорошем качестве бесплатно DVDRip

Размер: 1.37 GB | Добавлен: 3 года 6 мес. назад | Торрент скачан:748 раз
Реклама Дарим 3000 рублей за регистрацию, не упусти свой шанс получить шикарный бонус!!!

11-04-2014 15:32 Владение 18 Скачать торрент  

Владение 18 «Зло живёт по соседству» Год выпуска: 2013Страна: Россия / Люксор, Про100 Фильм, ВершинаЖанр: ужасы, детектив, триллерПродолжительность: 01:28:46Перевод: Оригинал [лицензия]Субтитры: нетВ ролях:Ольга Приходько, Борис Полунин, Виктория Райкова, Мария Фомина, Дмитрий Ендальцев, Юрий Филатов, Сергей Холмогоров

Режиссёр:Святослав Подгаевский

Сиреневые Холмы, Владение 18 - адрес обычной многоэтажки на окраине города. Скоро здесь будет новый цветущий микрорайон, но пока вокруг царит девственное запустение. Сейчас цены на квартиры в этом доме так заманчиво низки... И продают их, оказывается, только по специальной благотворительной программе инвесторов! Когда ещё небогатым молодожёнам Свете и Максиму представится такой удивительный шанс переехать из крохотной коммуналки в собственную просторную квартиру?..

Качество: DVDRipФормат: AVIВидео кодек: XviDАудио кодек: AC3Видео: 720x304 (2.37:1), 25 fps, XviD build 73 ~1746 kbps avg, 0.32 bit/pixel Аудио: 48 kHz, AC3 Dolby Digital, 3/2 (L,C,R,l,r) + LFE ch, ~448 kbps Скачать Владение 18 через торрент http://6.firepic.org/6/images/2014-04/11/oqeve9gyeu9h.jpg Скачать фильм Владение 18 через торрент бесплантно в хорошем качестве В ролях:Ольга Приходько, Борис Полунин, Виктория Райкова, Мария Фомина, Дмитрий Ендальцев, Юрий Филатов, Сергей Холмогоров ... 2014-04-11 15:32 9.5 10 20

Loading...

Loading...

Последний раз редактировалось: haizenberg (2014-04-11 18:17), всего редактировалось 1 раз

Рекламный пират

11-04-2014 16:25 Владение 18 Скачать торрент  

Полагаю, будет трэшатина, но фильм ждал. Спасибо за релиз.

11-04-2014 17:41 Владение 18 Скачать торрент  

как кино -стоит внимания :clock: :сonn:

11-04-2014 18:42 Владение 18 Скачать торрент  

Скачали 165, кто посмотрел как кино?!

11-04-2014 19:05 Владение 18 Скачать торрент  

Ну хоть кто-нибудь отпишитесь! Как начало, или как фильм? :ireful:ППЦ придётся Трафик портить! А был бы народ нормальный.......

12-04-2014 05:26 Владение 18 Скачать торрент  

gembird писал(а):

Ну хоть кто-нибудь отпишитесь! Как начало, или как фильм? :ireful:ППЦ придётся Трафик портить! А был бы народ нормальный.......

А что с народом??? Все с ним нормально, скачали, может быть потом посмотрят. Это же не значит, что надо тут постоянно сидеть, и отвечать всем на вопросы, не служба поддержки. И есть кинопоиск, посмотри там трейлер. Посмотри тут ссылку на рейтинг, все понятно станет.

12-04-2014 19:27 Владение 18 Скачать торрент  

получше вия думаю ушел смотреть как ник аши ужасы смотреть на данный момент нечег овсе посомтрел и в кино сходил на капитана америку жду саботаж

13-04-2014 20:43 Владение 18 Скачать торрент  

пилотная серия ходячих мертвецов - :curtsey: :curtsey: :curtsey: начало сьёмок в россии -страшилка для пенсионеров и пионеров :sensored:не стоит потраченного времени

17-08-2014 19:24 Владение 18 Скачать торрент  

как не странно но смотреть можно

Pекламный агент PB

Дорогой пользователь! Огромная просьба, поблагодарите релизера, оцените раздачу и оставьте свои комментарий, если Вы скачали Владение 18 через торрент бесплатно! Внесите свою лепту в развитие PiratBit!

Комментировать посты могут только пользователи прошедшие не сложную регистрацию

Владение 18 через торрент Скачать бесплатно Владение 18 Владение 18 скачать торрент Владение 18 смотреть онлайн Cкачать фильм Владение 18 бесплатно Владение 18 скачать торрент в хорошем качестве Владение 18 смотреть онлайн бесплатно в хорошем качестве

Вы не можете начинать темыВы не можете отвечать на сообщенияВы не можете редактировать свои сообщенияВы не можете удалять свои сообщенияВы не можете голосовать в опросахВы не можете прикреплять файлы к сообщениямВы можете скачивать файлы

piratbit.ru

Владение 18 скачать торрент в хорошем качестве бесплатно

DVDRipПодробнееРусский фильм1.37 ГБскачать Формат: AVI Видео кодек: XviD Аудио кодек: AC3 Видео: 1746 kb/s, 720x304 Аудио: AC3, 448 kb/s (6 ch) Blu-Ray (hd)ПодробнееРусский фильм20.53 ГБскачать Формат: M2TS Видео кодек: H.26x Аудио кодек: PCM Wave Видео: 1920x1080, MPEG-4 AVC Video 25425 kbps 1080p / 24 fps / 16:9 / High Profile 4.1 Аудио: LPCM Audio Russian 4608 kbps 5.1 / 48 kHz / 4608 kbps / 16-bit Blu-Ray (hd)ПодробнееРусский фильм19.41 ГБскачать Формат: MKV Видео кодек: H.26x Аудио кодек: PCM Wave Видео: 1920x1080, MPEG-4 AVC Video 25425 kbps 1080p / 24 fps / 16:9 / High Profile 4.1 Аудио: LPCM Audio Russian 4608 kbps 5.1 / 48 kHz / 4608 kbps / 16-bit BDRipПодробнееРусский фильм1.51 ГБскачать Формат: AVI Видео кодек: XviD Аудио кодек: AC3 Видео: 720x304 (2.35:1), 24.000 fps, XViD, ~1875 kbps avg, 0.357 bit/pix Аудио: Russian: 48 kHz, Dolby AC3, 6 ch, 448 kbps Const BDRipПодробнееРусский фильм1.46 ГБскачать Формат: MKV Видео кодек: AVC Аудио кодек: AC3 Видео: 1024x428 (2.40:1), 24.000 fps, MPEG-4 AVC, ~1804 kbps avg, 0.172 bit/pix Аудио: Russian: 48 kHz, Dolby AC3, 6 ch, 448 kbps Const BDRip (hd)ПодробнееРусский фильм7.01 ГБскачать Формат: MKV Видео кодек: AVC Аудио кодек: DTS Видео: MPEG-4 AVC, 8700 Кбит/с, 1920x804, 24.000 кадр/с Аудио: Аудио 1: Русский (DTS, 6 ch, 1509 Кбит/с) Аудио 2: Русский (AC3, 6 ch, 640 Кбит/с) BDRip (hd)ПодробнееРусский фильм MKV2.72 ГБскачатьФормат: MKVВидео кодек: H.26xАудио кодек: AC3Видео: 1280x536 (2,40:1), 24 fps, 3760 kbpsАудио: AC-3, 6 ch, 448 kbpsBDRip (hd)ПодробнееРусский фильм1.89 ГБскачать Формат: MKV Видео кодек: AVC Аудио кодек: AC3 Видео: AVC, 1280x536 (2.40:1) at 24.000 fps, AVC at 2483 kbps avg, 0.147 bit/pixel Аудио: Russian: 48 kHz; AC3 5.1; 448.00 kbps avg; оригинал BDRipПодробнееРусский фильм1.46 ГБскачать Формат: MKV Видео кодек: H.26x Аудио кодек: AC3 Видео: x.264, 1032x432 (2,40:1), 24,000 fps, 1812 Кbps, 0.169 bit/pixel Аудио: 48 kHz, AC3 Dolby Digital, 3/2 (L,C,R,l,r) + LFE ch, 448.00 kbps BDRipПодробнееРусский фильм744.23 МБскачать Формат: MKV Видео кодек: H.26x Аудио кодек: AAC Видео: 768x322 (2.35:1), 24.000 fps, h364 ~ 1 060 Kbps, 0.179 bit/pixel Аудио: 48 KHz / 24 KHz, AAC HE-AAC / LC, 2/0 (L,R) ch, ~64 kbps BDRipПодробнееРусский фильм1.45 ГБскачать Формат: AVI Видео кодек: XviD Аудио кодек: AC3 Видео: 720x304 (2.37:1), 24 fps, XviD build 65 ~1789 kbps avg, 0.34 bit/pixel Аудио: 48 kHz, AC3 Dolby Digital, 3/2 (L,C,R,l,r) + LFE ch, ~448 kbps avg BDRipПодробнееРусский фильм1.99 ГБскачать Формат: AVI Видео кодек: H.26x Аудио кодек: AC3 Видео: 1024x434 (2.35:1), 24.000 fps, [email protected] ~2638 kbps avg, 0.247 bit/pixel Аудио: 48 kHz, AC3 Dolby Digital, 3/2 (L,C,R,l,r) + LFE ch, ~448 kbps avg DVD9ПодробнееРусский фильм4.84 ГБскачать Продолжительность: 01:28:46 Формат: DVD Video Видео кодек: MPEG2 Аудио кодек: AC3 Видео: PAL 16x9 (720х576) VBR, 6000 kbps, Auto Letterboxed Аудио: Аудио 1: 48 kHz, Dolby AC3, 6 ch, 448 kbps, русский

Аудио 2: 48 kHz, DTS, 5 ch, 768 kbps, русский

DVD5ПодробнееРусский фильм3.77 ГБскачать Продолжительность: 01:32:28 Формат: DVD Video Видео кодек: MPEG2 Аудио кодек: AC3 Видео: PAL 16:9 ([email protected]) MPEG Video, ~5006 kbps Аудио: Dolby AC3, 6 ch, 448 kbps BDRipПодробнееРусский фильм661.00 МБскачать Продолжительность: 01:31:34 Формат: AVI Видео кодек: XviD Аудио кодек: MP3 Видео: 720x304 (2.37:1), 24.000 fps, XviD build 73 ~871 kbps avg, 0.17 bit/pixel Аудио: 48 kHz, MPEG Layer 3, 2 ch, ~128.00 kbps avg

torrentskino.info

Скачать фильм Владение 18 через торрент в хорошем качестве бесплатно HDRip-AVC

Размер: 1.46 GB | Добавлен: 3 года 6 мес. назад | Торрент скачан:3378 раз
Реклама Дарим 3000 рублей за регистрацию, не упусти свой шанс получить шикарный бонус!!!

14-04-2014 13:10 Владение 18 Скачать торрент  

Владение 18

«Зло живёт по соседству»Год выпуска: 2014Страна: РоссияЖанр: ужасы, триллер, детективДлительность: 01:32:38Перевод: Оригинал

Режиссер: Святослав Подгаевский

В ролях: Дмитрий Ендальцев, Мария Фомина, Борис Полунин, Виктория Райкова, Юрий Филатов, Сергей Холмогоров, Ольга Приходько

Описание: Сиреневые Холмы, Владение 18 — адрес обычной многоэтажки на окраине города. Скоро здесь будет новый цветущий микрорайон, но пока вокруг царит девственное запустение. Сейчас цены на квартиры в этом доме так заманчиво низки... И продают их, оказывается, только по специальной благотворительной программе инвесторов! Когда ещё небогатым молодожёнам Свете и Максиму представится такой удивительный шанс переехать из крохотной коммуналки в собственную просторную квартиру?..Но вскоре после новоселья они начинают понимать, что с новым домом что-то не так. Странные соседи, с которыми молодожёнам никак не удаётся поговорить, сторож, больше напоминающий надзирателя в концлагере, кошмарные сны и видения, которые совсем не похожи на игру воображения... Но самое ужасное — гости, навещающие их после переезда... Гости-призраки, рассказывающие о том, какой страшной смертью они умерли в этом доме. Удастся ли Свете и Максиму выбраться живыми из дьявольской западни или уже слишком поздно?

Качество: HDRip-AVCФормат: MKVВидео кодек: AVCАудио кодек: AC3Видео: AVC, 1024x426 (2.40:1), 24.000 fps, 1 814 Kbps (0.173 bit/pixel)Аудио: AC-3, 48.0 KHz, 6 ch, 448 Kbps, CBRРелиз от: Рип by White Smoke

Код:

---[Information] [14.04.2014 7:36:31] x264 [info]: frame I:783   Avg QP:12.67  size: 45899  PSNR Mean Y:50.90 U:54.84 V:54.16 Avg:51.75 Global:51.20---[Information] [14.04.2014 7:36:31] x264 [info]: frame P:24441 Avg QP:14.95  size: 17584  PSNR Mean Y:49.29 U:53.07 V:52.21 Avg:50.08 Global:49.42---[Information] [14.04.2014 7:36:31] x264 [info]: frame B:108036 Avg QP:15.94  size:  7338  PSNR Mean Y:48.50 U:52.85 V:51.90 Avg:49.35 Global:48.58---[Information] [14.04.2014 7:36:31] x264 [info]: consecutive B-frames:  1.2%  1.7%  5.0% 10.3% 12.9% 43.8%  7.0%  2.3%  3.8%  1.4%  2.0%  6.6%  2.0%

ОбщееУникальный идентификатор         : 204464672143519173886479513058167091828 (0x99D276A5A54A2A10BF0BB4A1BE6DF274)Полное имя                       : C:\Games\Vladen1e.18.2014. HDRip-AVC.by White Smoke.R.G. PiratFilms.mkvФормат                           : MatroskaРазмер файла                     : 1,46 ГбайтПродолжительность                : 1 ч. 32 м.Общий поток                      : 2263 Кбит/секНазвание фильма                  : Vladen1e.18.2014. HDRip-AVC.by White Smoke.R.G. PiratFilms.mkvДата кодирования                 : UTC 2014-04-14 12:33:49Программа кодирования            : mkvmerge v6.8.0 ('Theme for Great Cities') 64bit built on Mar  2 2014 21:34:26Библиотека кодирования           : libebml v1.3.0 + libmatroska v1.4.1

ВидеоИдентификатор                    : 1Формат                           : AVCФормат/Информация                : Advanced Video CodecПрофиль формата                  : [email protected]Параметр CABAC формата           : ДаПараметр ReFrames формата        : 10 кадрыИдентификатор кодека             : V_MPEG4/ISO/AVCПродолжительность                : 1 ч. 32 м.Битрейт                          : 1814 Кбит/секШирина                           : 1024 пикс.Высота                           : 426 пикс.Соотношение сторон               : 2,40:1Частота кадров                   : 24,000 кадр/секЦветовое пространство            : YUVПодвыборка цветности             : 4:2:0Битовая глубина                  : 8 битТип развёртки                    : ПрогрессивнаяБит/(Пиксели*Кадры)              : 0.173Размер потока                    : 1,14 Гбайт (78%)Библиотека кодирования           : x264 core 138 r2358 9e941d1Настройки программы              : cabac=1 / ref=10 / deblock=1:-3:-3 / analyse=0x3:0x113 / me=umh / subme=9 / psy=1 / psy_rd=1.00:0.00 / mixed_ref=1 / me_range=32 / chroma_me=1 / trellis=2 / 8x8dct=1 / cqm=0 / deadzone=21,11 / fast_pskip=0 / chroma_qp_offset=-2 / threads=6 / lookahead_threads=1 / sliced_threads=0 / nr=0 / decimate=1 / interlaced=0 / bluray_compat=0 / constrained_intra=0 / bframes=12 / b_pyramid=2 / b_adapt=2 / b_bias=12 / direct=1 / weightb=1 / open_gop=0 / weightp=2 / keyint=240 / keyint_min=24 / scenecut=40 / intra_refresh=0 / rc_lookahead=40 / rc=2pass / mbtree=1 / bitrate=1814 / ratetol=1.0 / qcomp=0.70 / qpmin=0 / qpmax=69 / qpstep=4 / cplxblur=20.0 / qblur=0.5 / ip_ratio=1.40 / aq=1:1.00Язык                             : English

АудиоИдентификатор                    : 2Формат                           : AC-3Формат/Информация                : Audio Coding 3Расширение режима                : CM (complete main)Идентификатор кодека             : A_AC3Продолжительность                : 1 ч. 32 м.Вид битрейта                     : ПостоянныйБитрейт                          : 448 Кбит/секКанал(ы)                         : 6 канала(ов)Расположение каналов             : Front: L C R, Side: L R, LFEЧастота                          : 48,0 КГцБитовая глубина                  : 16 битМетод сжатия                     : С потерямиРазмер потока                    : 297 Мбайт (20%)Язык                             : Russian

Скачать Владение 18 через торрент http://pic.pb.wtf/images/6/m9cwk.jpg Скачать фильм Владение 18 через торрент бесплантно в хорошем качестве Описание: Сиреневые Холмы, Владение 18 — адрес обычной многоэтажки на окраине города. Скоро здесь будет новый цветущий микрорайон, но пока ... 2014-04-14 13:10 8.6 10 103

Loading...

Loading...

Рекламный пират

14-04-2014 14:47 Владение 18 Скачать торрент  

Постер очень на "Пункт назначения 3D" похож =)

14-04-2014 15:28 Владение 18 Скачать торрент  

ну че как фильм?)

14-04-2014 16:01 Владение 18 Скачать торрент  

Вроде звук в перед бежит

14-04-2014 16:35 Владение 18 Скачать торрент  

Такая же проблемка звук вперед бежит...

14-04-2014 16:47 Владение 18 Скачать торрент  

Маркус Пофигус

14-04-2014 19:11 Владение 18 Скачать торрент  

ХЗ из-за звука смотреть не стал

14-04-2014 19:43 Владение 18 Скачать торрент  

я смотрел этот фильм на телевизоре всё нормально

15-04-2014 04:11 Владение 18 Скачать торрент  

Pекламный агент PB

15-04-2014 05:39 Владение 18 Скачать торрент  

Фильм очень даже неплох разок посмотреть можно

15-04-2014 09:32 Владение 18 Скачать торрент  

"Страна: Россия"

Даже скачивать не буду :declare:

15-04-2014 17:54 Владение 18 Скачать торрент  

да вроде за рамки уж очень плохого фильма невыходит нормлаьные ужасы если будут стараться то думаю 2 часть с современными технологиями получиться куда лучше всех актеры красивые классные все нормлаьно что вам ненравиться ваше мнение слушать не буду ибо вы в фильмах как быдло разбираетесь а я нет я сценарист

15-04-2014 18:48 Владение 18 Скачать торрент  

звук действительно убегает ставте на плеере задержку 3400м\с и будет норм смотреть

15-04-2014 20:32 Владение 18 Скачать торрент  

соврал задержку аудио на 3550м.\с фильм на 4. для российского фильма ужасов очень неплохо,сюжет хороший не затянут.Главный герой мне знаком по сериалу 'выжить после` кстате тоже ужасы.

16-04-2014 14:01 Владение 18 Скачать торрент  

сейчас пачками киношки печатают одна разовые.так что все они на любителя.

16-04-2014 18:05 Владение 18 Скачать торрент  

Россия может что-то свое придумать? Фильм - отстой

16-04-2014 19:53 Владение 18 Скачать торрент  

Спасибо за фильм. Так редко можно встретить комментарии "сценариста", который фильмом доволен, а про грамматику и пунктуацию вообще не в курсе)))) Если такой комментатор фильм оценил - точно не качать)))

Pекламный агент PB

16-04-2014 20:00 Владение 18 Скачать торрент  

, какого не было еще в РФ.

16-04-2014 20:01 Владение 18 Скачать торрент  

адское кино. сущий ад.

16-04-2014 22:16 Владение 18 Скачать торрент  

Давно разочаровался в Русском кинематографе, и этот фильм тому подтверждение.

23-04-2014 10:35 Владение 18 Скачать торрент  

Фильм полный бред. Со звуком беда. Сценарий- ужас. Ужаснее самой идеи. Не смотрите.

23-04-2014 19:59 Владение 18 Скачать торрент  

coyot писал(а):

Россия может что-то свое придумать? Фильм - отстой

оригинальная оценка фильма, может это политическая оценка страны!Не нравится смотреть российское, смотри пиндосовское, ты дохрена снял и все тебя боготворят?.По теме ты ни чего не написал, так же как и я.

24-04-2014 05:47 Владение 18 Скачать торрент  

звук исправили ?

Дорогой пользователь! Огромная просьба, поблагодарите релизера, оцените раздачу и оставьте свои комментарий, если Вы скачали Владение 18 через торрент бесплатно! Внесите свою лепту в развитие PiratBit!

Комментировать посты могут только пользователи прошедшие не сложную регистрацию

Владение 18 через торрент Скачать бесплатно Владение 18 Владение 18 скачать торрент Владение 18 смотреть онлайн Cкачать фильм Владение 18 бесплатно Владение 18 скачать торрент в хорошем качестве Владение 18 смотреть онлайн бесплатно в хорошем качестве

Вы не можете начинать темыВы не можете отвечать на сообщенияВы не можете редактировать свои сообщенияВы не можете удалять свои сообщенияВы не можете голосовать в опросахВы не можете прикреплять файлы к сообщениямВы можете скачивать файлы

piratbit.ru

Владение 18 2013 - скачать бесплатно через торрент в хорошем качестве. Без регистрации

Название: Владение 18 (2013) HDRip
Качество видео: HDRip
Перевод: Не требуется
Видео: XviD 720x304 (2.37:1), 24.000 fps, XviD build 73 ~871 kbps avg, 0.17 bit/pixel
Аудио: 48 kHz, MPEG Layer 3, 2 ch, ~128.00 kbps avg
Скачать

Загрузка начнется в течение 5 сек.

661.00 MB

Название: Владение 18 (2014) DCPrip | Трейлер
Качество видео: DCPrip 2K
Перевод: Не требуется
Формат видео: MKV
Видео: H.264 55,0 Мбит/сек, 2048х858 (2,40:1), 24,000 кадра/сек
Аудио: PCM, 6 каналов, 6912 Кбит/сек, CBR, 48,0 КГц
Скачать

Загрузка начнется в течение 5 сек.

772.36 MB

Название: Владение 18 (2013) BDRip 1080p от MediaClub | Лицензия
Качество видео: BDRip 1080p
Видео: MPEG-4 AVC, 8700 Кбит/с, 1920x804, 24.000 кадр/с
Аудио: Русский (DTS, 6 ch, 1509 Кбит/с)Русский (AC3, 6 ch, 640 Кбит/с)
Скачать

Загрузка начнется в течение 5 сек.

7.01 GB

Название: Владение 18 (2014) DCPrip | Трейлер
Качество видео: DCPrip 2K
Перевод: Не требуется
Формат видео: MKV
Видео: H.264 55,0 Мбит/сек, 2048х858 (2,40:1), 24,000 кадра/сек
Аудио: PCM, 6 каналов, 6912 Кбит/сек, CBR, 48,0 КГц
Скачать

Загрузка начнется в течение 5 сек.

772.36 MB

www.kinovit.net

Скачать фильм Владение 18 (2013) через торрент

15 февраля 2016 12:49 Владение 18 (2013) HDRip .torrent   [Информация о файле (нажмите для просмотра)] Перевод: Не требуетсяКодек: XviDКачество: HDRipВидео: 720x304 (2.37:1), 24.000 fps, XviD build 73 ~871 kbps avg, 0.17 bit/pixelЗвук: 48 kHz, MPEG Layer 3, 2 ch, ~128.00 kbps avgСубтитры: Нет 661 Mb 22 2 15 февраля 2016 12:49 Владение 18 (2013) DVD5 R5 | Лицензия .torrent   [Информация о файле (нажмите для просмотра)] Перевод: ОригиналЛицензияКодек: DVD VideoКачество: DVD5 R5Видео: PAL 16:9 ([email protected]) MPEG Video, ~5006 kbpsЗвук: Dolby AC3, 6 ch, 448 kbpsСубтитры: нет 3,77 Gb 13 2 15 февраля 2016 12:49 Владение 18 (2013) DVD9 R5 от New-Team | лицензия .torrent   [Информация о файле (нажмите для просмотра)] Перевод: не требуетсяКачество: DVD9 R5Формат: DVD VideoВидео: PAL 16x9 (720х576) VBR, 6000 kbps, Auto LetterboxedАудио 1: 48 kHz, Dolby AC3, 6 ch, 448 kbps,русскийАудио 2: 48 kHz, DTS, 5 ch, 768 kbps,русский 4,84 Gb 4 4 15 февраля 2016 12:49 Владение 18 (2013) BDRip-AVC от New-Team | Лицензия .torrent   [Информация о файле (нажмите для просмотра)] Перевод: не требуетсяКачество: BDRip-AVC [Исходник Blu-Ray 1080p]Формат: MKVВидео: 768x322 (2.35:1), 24.000 fps, h364 ~ 1 060 Kbps, 0.179 bit/pixelАудио: 48 KHz / 24 KHz, AAC HE-AAC / LC, 2/0 (L,R) ch, ~64 kbps 744,23 Mb 10 4 15 февраля 2016 12:49 Владение 18 (2013) BDRip-AVC от HQCLUB | Лицензия .torrent   [Информация о файле (нажмите для просмотра)] Субтитры: нетФормат: AVIКачество: BDRip (источник:Видео: 1024x434 (2.35:1), 24.000 fps, [email protected] ~2638 kbps avg, 0.247 bit/pixelАудио: 48 kHz, AC3 Dolby Digital, 3/2 (L,C,R,l,r) + LFE ch, ~448 kbps avgВидео: Идентификатор : 1 Формат : AVC Формат/Информация : Advanced Video Codec Профиль формата : [email protected] Параметр CABAC формата : Нет Параметр ReFrames формата : 9 кадров Идентификатор кодека : V_MPEG4/ISO/AVC Продолжительность : 1 ч. 32 м. Битрейт : 2638 Кбит/сек Ширина : 1024 пикселя Высота : 434 пикселя Соотношение сторон : 2,35:1 Частота кадров : 24,000 кадра/сек Цветовое пространство : YUV Субдискретизация насыщенности : 4:2:0 Битовая глубина : 8 бит Тип развёртки : Прогрессивная Бит/(Пиксели*Кадры) : 0.247 Размер потока : 1,66 Гбайт (83%) Заголовок : Владение 18 (2013) BDRip-AVC | HQCLUB Библиотека кодирования : x264 core 138 r2358 9e941d1 Настройки программы : cabac=0 / ref=9 / deblock=1:-3:-2 / analyse=0x3:0x113 / me=umh / subme=11 / psy=1 / psy_rd=1.00:0.00 / mixed_ref=1 / me_range=64 / chroma_me=1 / trellis=2 / 8x8dct=1 / cqm=0 / deadzone=21,11 / fast_pskip=1 / chroma_qp_offset=-4 / threads=12 / lookahead_threads=2 / sliced_threads=0 / nr=0 / decimate=1 / interlaced=0 / bluray_compat=0 / constrained_intra=0 / bframes=9 / b_pyramid=2 / b_adapt=2 / b_bias=0 / direct=1 / weightb=1 / open_gop=0 / weightp=2 / keyint=240 / keyint_min=24 / scenecut=40 / intra_refresh=0 / rc_lookahead=40 / rc=2pass / mbtree=0 / bitrate=2638 / ratetol=1.0 / qcomp=0.60 / qpmin=0 / qpmax=69 / qpstep=4 / cplxblur=20.0 / qblur=0.5 / vbv_maxrate=62500 / vbv_bufsize=50000 / nal_hrd=none / ip_ratio=1.40 / pb_ratio=1.30 / aq=1:0.90 Язык : Russian Default : Да Forced : НетАудио: Идентификатор : 2 Формат : AC-3 Формат/Информация : Audio Coding 3 Расширение режима : CM (complete main) Идентификатор кодека : A_AC3 Продолжительность : 1 ч. 32 м. Вид битрейта : Постоянный Битрейт : 448 Кбит/сек Каналы : 6 каналов Расположение каналов : Front: L C R, Side: L R, LFE Частота : 48,0 КГц Битовая глубина : 16 бит Метод сжатия : С потерями Размер потока : 297 Мбайт (15%) Заголовок : Оригинальная звуковая дорожка Язык : Russian Default : Да Forced : Нет 1,99 Gb 20 2 15 февраля 2016 12:49 Владение 18 (2013) BDRip от HQCLUB | Лицензия .torrent   [Информация о файле (нажмите для просмотра)] Субтитры: нетФормат: AVIКачество: BDRip (источник:Видео: 720x304 (2.37:1), 24 fps, XviD build 65 ~1789 kbps avg, 0.34 bit/pixelАудио: 48 kHz, AC3 Dolby Digital, 3/2 (L,C,R,l,r) + LFE ch, ~448 kbps avg 1,45 Gb 32 1 15 февраля 2016 12:48 Владение 18 (2013) BDRip 720p от Leonardo and Scarabey | Лицензия .torrent   [Информация о файле (нажмите для просмотра)] Перевод: Не требуетсяФормат: MKVВидео кодек: MPEG-4 AVC Аудио кодек: AC3Видео: AVC, 1280x536 (2.40:1) at 24.000 fps, AVC at 2483 kbps avg, 0.147 bit/pixelАудио: Russian: 48 kHz; AC3 5.1; 448.00 kbps avg; оригинал 1,89 Gb 25 3 15 февраля 2016 12:48 Владение 18 (2013) BDRip 720p .torrent   [Информация о файле (нажмите для просмотра)] Перевод: Оригинал (лицензия)Кодек: x264Качество: BDRip (источник: Blu-ray Disc)Видео: 1280x536 (2,40:1), 24 fps, 3760 kbpsАудио: AC-3, 6 ch, 448 kbpsВидео: Идентификатор : 1 Формат : AVC Формат/Информация : Advanced Video Codec Профиль формата : [email protected] Параметр CABAC формата : Да Параметр ReFrames формата : 11 кадров Идентификатор кодека : V_MPEG4/ISO/AVC Продолжительность : 1 ч. 32 м. Битрейт : 3764 Кбит/сек Ширина : 1280 пикселей Высота : 536 пикселей Соотношение сторон : 2,40:1 Режим частоты кадров : Постоянный Частота кадров : 24,000 кадра/сек Цветовое пространство : YUV Субдискретизация насыщенности : 4:2:0 Битовая глубина : 8 бит Тип развёртки : Прогрессивная Бит/(Пиксели*Кадры) : 0.229 Размер потока : 2,38 Гбайт (87%) Заголовок : Release by AlexKa Библиотека кодирования : x264 core 142 r2409 d6b4e63 Настройки программы : cabac=1 / ref=11 / deblock=1:-3:-3 / analyse=0x3:0x133 / me=umh / subme=11 / psy=1 / psy_rd=1.00:0.00 / mixed_ref=1 / me_range=32 / chroma_me=1 / trellis=2 / 8x8dct=1 / cqm=0 / deadzone=21,11 / fast_pskip=0 / chroma_qp_offset=-2 / threads=12 / lookahead_threads=2 / sliced_threads=0 / nr=0 / decimate=1 / interlaced=0 / bluray_compat=0 / constrained_intra=0 / bframes=9 / b_pyramid=2 / b_adapt=2 / b_bias=0 / direct=3 / weightb=1 / open_gop=0 / weightp=2 / keyint=240 / keyint_min=24 / scenecut=40 / intra_refresh=0 / rc=2pass / mbtree=0 / bitrate=3764 / ratetol=1.0 / qcomp=0.60 / qpmin=0 / qpmax=69 / qpstep=4 / cplxblur=20.0 / qblur=0.5 / ip_ratio=1.40 / pb_ratio=1.30 / aq=1:1.00 Язык : RussianАудио: Идентификатор : 2 Формат : AC-3 Формат/Информация : Audio Coding 3 Расширение режима : CM (complete main) Параметр Endianness формата : Big Идентификатор кодека : A_AC3 Продолжительность : 1 ч. 32 м. Вид битрейта : Постоянный Битрейт : 448 Кбит/сек Каналы : 6 каналов Расположение каналов : Front: L C R, Side: L R, LFE Частота : 48,0 КГц Битовая глубина : 16 бит Метод сжатия : С потерями Размер потока : 296 Мбайт (11%) Заголовок : Rus Язык : Russian 2,72 Gb 5 3 15 февраля 2016 12:48 Владение 18 (2013) BDRip 1080p от MediaClub | Лицензия .torrent   [Информация о файле (нажмите для просмотра)] Качество: BDRip 1080pВидео: MPEG-4 AVC, 8700 Кбит/с, 1920x804, 24.000 кадр/сАудио #1: Русский (DTS, 6 ch, 1509 Кбит/с)Аудио #2: Русский (AC3, 6 ch, 640 Кбит/с)Видео: Идентификатор : 1 Формат : AVC Формат/Информация : Advanced Video Codec Профиль формата : [email protected] Параметр CABAC формата : Да Параметр ReFrames формата : 5 кадров Идентификатор кодека : V_MPEG4/ISO/AVC Продолжительность : 1 ч. 32 м. Битрейт : 8700 Кбит/сек Ширина : 1920 пикселей Высота : 804 пикселя Соотношение сторон : 2,40:1 Режим частоты кадров : Постоянный Частота кадров : 24,000 кадра/сек Цветовое пространство : YUV Субдискретизация насыщенности : 4:2:0 Битовая глубина : 8 бит Тип развёртки : Прогрессивная Бит/(Пиксели*Кадры) : 0.235 Размер потока : 5,48 Гбайт (78%) Заголовок : -=MediaClub-kaspr=- Библиотека кодирования : x264 core 142 r2409+42 04be48a tMod [[email protected]:2:0 X86_64] Настройки программы : cabac=1 / ref=5 / deblock=1:-3:-3 / analyse=0x3:0x113 / me=umh / subme=11 / psy=1 / fade_compensate=0.00 / psy_rd=1.00:0.20 / mixed_ref=1 / me_range=32 / chroma_me=1 / trellis=2 / 8x8dct=1 / cqm=0 / deadzone=21,11 / fast_pskip=0 / chroma_qp_offset=-3 / threads=12 / lookahead_threads=2 / sliced_threads=0 / nr=0 / decimate=0 / interlaced=0 / bluray_compat=0 / constrained_intra=0 / fgo=0 / bframes=8 / b_pyramid=2 / b_adapt=2 / b_bias=0 / direct=3 / weightb=1 / open_gop=0 / weightp=2 / keyint=240 / keyint_min=24 / scenecut=40 / intra_refresh=0 / rc=2pass / mbtree=0 / bitrate=8700 / ratetol=1.0 / qcomp=0.60 / qpmin=0:0:0 / qpmax=69:69:69 / qpstep=4 / cplxblur=20.0 / qblur=0.5 / ip_ratio=1.40 / pb_ratio=1.30 / aq=2:0.80 / aq-sensitivity=10.00 / aq-factor=1.00:1.00:1.00 / aq2=0 / aq3=0 Default : Да Forced : ДаАудио #1: Идентификатор : 2 Формат : DTS Формат/Информация : Digital Theater Systems Режим : 16 Параметр Endianness формата : Big Идентификатор кодека : A_DTS Продолжительность : 1 ч. 32 м. Вид битрейта : Постоянный Битрейт : 1509 Кбит/сек Каналы : 6 каналов Расположение каналов : Front: L C R, Side: L R, LFE Частота : 48,0 КГц Битовая глубина : 16 бит Метод сжатия : С потерями Размер потока : 999 Мбайт (14%) Заголовок : DTS Язык : Russian Default : Да Forced : ДаАудио #2: Идентификатор : 3 Формат : AC-3 Формат/Информация : Audio Coding 3 Расширение режима : CM (complete main) Параметр Endianness формата : Big Идентификатор кодека : A_AC3 Продолжительность : 1 ч. 32 м. Вид битрейта : Постоянный Битрейт : 640 Кбит/сек Каналы : 6 каналов Расположение каналов : Front: L C R, Side: L R, LFE Частота : 48,0 КГц Битовая глубина : 16 бит Метод сжатия : С потерями Размер потока : 424 Мбайт (6%) Заголовок : AC3 Язык : Russian Default : Нет Forced : Нет 7,01 Gb 6 1 15 февраля 2016 12:48 Владение 18 (2013) BDRip-AVC от New-Team | лицензия .torrent   [Информация о файле (нажмите для просмотра)] Перевод: не требуетсяКачество: BDRip-AVC / Blu-ray 1080pФормат: MKVВидео: 1024x428 (2.40:1), 24.000 fps, MPEG-4 AVC, ~1804 kbps avg, 0.172 bit/pixАудио: Russian: 48 kHz, Dolby AC3, 6 ch, 448 kbps ConstВидео: Идентификатор : 1 Формат : AVC Формат/Информация : Advanced Video Codec Профиль формата : [email protected] Параметр CABAC формата : Да Параметр ReFrames формата : 8 кадров Идентификатор кодека : V_MPEG4/ISO/AVC Продолжительность : 1 ч. 32 м. Битрейт : 1804 Кбит/сек Ширина : 1024 пикселя Высота : 428 пикселей Соотношение сторон : 2,40:1 Режим частоты кадров : Постоянный Частота кадров : 24,000 кадра/сек Цветовое пространство : YUV Субдискретизация насыщенности : 4:2:0 Битовая глубина : 8 бит Тип развёртки : Прогрессивная Бит/(Пиксели*Кадры) : 0.172 Размер потока : 1,14 Гбайт (78%) Библиотека кодирования : x264 core 138 r2356 a1d3d17 Настройки программы : cabac=1 / ref=8 / deblock=1:-3:-2 / analyse=0x3:0x113 / me=umh / subme=10 / psy=1 / psy_rd=1.00:0.05 / mixed_ref=1 / me_range=32 / chroma_me=1 / trellis=2 / 8x8dct=1 / cqm=0 / deadzone=21,11 / fast_pskip=0 / chroma_qp_offset=-3 / threads=6 / lookahead_threads=1 / sliced_threads=0 / nr=0 / decimate=0 / interlaced=0 / bluray_compat=0 / constrained_intra=0 / bframes=8 / b_pyramid=2 / b_adapt=2 / b_bias=0 / direct=3 / weightb=1 / open_gop=0 / weightp=2 / keyint=240 / keyint_min=24 / scenecut=40 / intra_refresh=0 / rc_lookahead=40 / rc=2pass / mbtree=1 / bitrate=1804 / ratetol=1.0 / qcomp=0.60 / qpmin=0 / qpmax=69 / qpstep=4 / cplxblur=20.0 / qblur=0.5 / ip_ratio=1.40 / aq=1:1.00 Язык : Russian Default : Да Forced : НетАудио: Идентификатор : 2 Формат : AC-3 Формат/Информация : Audio Coding 3 Расширение режима : CM (complete main) Параметр Endianness формата : Big Идентификатор кодека : A_AC3 Продолжительность : 1 ч. 32 м. Вид битрейта : Постоянный Битрейт : 448 Кбит/сек Каналы : 6 каналов Расположение каналов : Front: L C R, Side: L R, LFE Частота : 48,0 КГц Битовая глубина : 16 бит Метод сжатия : С потерями Размер потока : 296 Мбайт (20%) Язык : Russian Default : Да Forced : Нет 1,46 Gb 15 2 15 февраля 2016 12:48 Владение 18 (2013) BDRip от New-Team | лицензия .torrent   [Информация о файле (нажмите для просмотра)] Перевод: не требуетсяКачество: BDRip / Blu-ray 1080pФормат: AVIВидео: 720x304 (2.35:1), 24.000 fps, XViD, ~1875 kbps avg, 0.357 bit/pixАудио: Russian: 48 kHz, Dolby AC3, 6 ch, 448 kbps ConstВидео: Идентификатор : 0 Формат : MPEG-4 Visual Профиль формата : Advanced [email protected] Параметр BVOP формата : 1 Параметр QPel формата : Нет Параметр GMC формата : Без точки перехода Параметр матрицы формата : Выборочная Идентификатор кодека : XVID Идентификатор кодека/Подсказка : XviD Продолжительность : 1 ч. 32 м. Битрейт : 1875 Кбит/сек Ширина : 720 пикселей Высота : 304 пикселя Соотношение сторон : 2,35:1 Частота кадров : 24,000 кадра/сек Цветовое пространство : YUV Субдискретизация насыщенности : 4:2:0 Битовая глубина : 8 бит Тип развёртки : Прогрессивная Метод сжатия : С потерями Бит/(Пиксели*Кадры) : 0.357 Размер потока : 1,21 Гбайт (80%) Библиотека кодирования : XviD 73Аудио: Идентификатор : 1 Формат : AC-3 Формат/Информация : Audio Coding 3 Расширение режима : CM (complete main) Параметр Endianness формата : Big Идентификатор кодека : 2000 Продолжительность : 1 ч. 32 м. Вид битрейта : Постоянный Битрейт : 448 Кбит/сек Каналы : 6 каналов Расположение каналов : Front: L C R, Side: L R, LFE Частота : 48,0 КГц Битовая глубина : 16 бит Метод сжатия : С потерями Размер потока : 296 Мбайт (19%) Выравнивание : Разделение по промежуткам Продолжительность промежутка : 42 мс. (1,00 видеокадр) Время предзагрузки промежутка : 500 мс. 1,51 Gb 40 3 15 февраля 2016 12:48 Владение 18 (2013) BDRemux 1080p от New-Team | лицензия .torrent   [Информация о файле (нажмите для просмотра)] Перевод: не требуетсяКачество: BDRemux 1080pФормат: MKVВидео: 1920x1080, MPEG-4 AVC Video 25425 kbps 1080p / 24 fps / 16:9 / High Profile 4.1Аудио: LPCM Audio Russian 4608 kbps 5.1 / 48 kHz / 4608 kbps / 16-bitВидео: Идентификатор : 1 Формат : AVC Формат/Информация : Advanced Video Codec Профиль формата : [email protected] Параметр CABAC формата : Да Параметр ReFrames формата : 4 кадра Параметр GOP формата : M=3, N=24 Идентификатор кодека : V_MPEG4/ISO/AVC Продолжительность : 1 ч. 32 м. Вид битрейта : Переменный Максимальный битрейт : 33,0 Мбит/сек Ширина : 1920 пикселей Высота : 1080 пикселей Соотношение сторон : 16:9 Режим частоты кадров : Постоянный Частота кадров : 24,000 кадра/сек Стандарт вещания : NTSC Цветовое пространство : YUV Субдискретизация насыщенности : 4:2:0 Битовая глубина : 8 бит Тип развёртки : Прогрессивная Язык : Russian Default : Да Forced : Нет Основные цвета : BT.709 Характеристики трансфера : BT.709 Коэффициенты матрицы : BT.709Аудио: Идентификатор : 2 Формат : PCM Идентификатор кодека : A_PCM/INT/LIT Продолжительность : 1 ч. 32 м. Вид битрейта : Постоянный Каналы : 6 каналов Частота : 48,0 КГц Битовая глубина : 16 бит Язык : Russian Default : Да Forced : Нет 19,41 Gb 7 8 15 февраля 2016 12:48 Владение 18 (2013) BDRip-AVC от HELLYWOOD | Лицензия .torrent   [Информация о файле (нажмите для просмотра)] Перевод: Оригинал [лицензия BD RUS]Субтитры: НетКачество: BDRip-AVC [BDRemux]Формат: MKVВидео: x.264, 1032x432 (2,40:1), 24,000 fps, 1812 Кbps, 0.169 bit/pixelАудио: 48 kHz, AC3 Dolby Digital, 3/2 (L,C,R,l,r) + LFE ch, 448.00 kbps 1,46 Gb 14 3

gig-torrent.net

Скачать фильм Владение 18 через торрент в хорошем качестве бесплатно BDRip-AVC

ОбщееУникальный идентификатор : 186295310888530314362976155738086758777 (0x8C272BF960133B5991682A4223C6D979)Полное имя : Vladeniye.18.2013.RUS.BDRip.x264.-HELLYWOOD.mkvФормат : MatroskaВерсия формата : Version 4 / Version 2Размер файла : 1,46 ГбайтПродолжительность : 1 ч. 32 м.Общий поток : 2261 Кбит/секНазвание фильма : HELLYWOOD - rip by potroksДата кодирования : UTC 2014-04-13 04:07:09Программа кодирования : mkvmerge v5.9.0 ('On The Loose') built on Dec 15 2012 16:39:58Библиотека кодирования : libebml v1.3.0 + libmatroska v1.4.0

ВидеоИдентификатор : 1Формат : AVCФормат/Информация : Advanced Video CodecПрофиль формата : [email protected]Параметр CABAC формата : ДаПараметр ReFrames формата : 10 кадровИдентификатор кодека : V_MPEG4/ISO/AVCПродолжительность : 1 ч. 32 м.Битрейт : 1812 Кбит/секШирина : 1032 пикселяВысота : 432 пикселяСоотношение сторон : 2,40:1Режим частоты кадров : ПостоянныйЧастота кадров : 24,000 кадра/секЦветовое пространство : YUVСубдискретизация насыщенности : 4:2:0Битовая глубина : 8 битТип развёртки : ПрогрессивнаяБит/(Пиксели*Кадры) : 0.169Размер потока : 1,14 Гбайт (78%)Заголовок : Владение 18Библиотека кодирования : x264 core 130 r2273 b3065e6Настройки программы : cabac=1 / ref=10 / deblock=1:-2:-2 / analyse=0x3:0x133 / me=umh / subme=11 / psy=1 / psy_rd=1.00:0.05 / mixed_ref=1 / me_range=32 / chroma_me=1 / trellis=2 / 8x8dct=1 / cqm=0 / deadzone=21,11 / fast_pskip=0 / chroma_qp_offset=-3 / threads=9 / lookahead_threads=6 / sliced_threads=0 / nr=0 / decimate=0 / interlaced=0 / bluray_compat=0 / constrained_intra=0 / bframes=11 / b_pyramid=2 / b_adapt=2 / b_bias=0 / direct=3 / weightb=1 / open_gop=0 / weightp=2 / keyint=250 / keyint_min=23 / scenecut=40 / intra_refresh=0 / rc_lookahead=60 / rc=2pass / mbtree=0 / bitrate=1812 / ratetol=1.0 / qcomp=0.70 / qpmin=0 / qpmax=69 / qpstep=4 / cplxblur=20.0 / qblur=0.5 / vbv_maxrate=20000 / vbv_bufsize=20000 / nal_hrd=none / ip_ratio=1.35 / pb_ratio=1.25 / aq=1:0.80Язык : RussianDefault : ДаForced : Нет

АудиоИдентификатор : 2Формат : AC-3Формат/Информация : Audio Coding 3Расширение режима : CM (complete main)Параметр Endianness формата : BigИдентификатор кодека : A_AC3Продолжительность : 1 ч. 32 м.Вид битрейта : ПостоянныйБитрейт : 448 Кбит/секКаналы : 6 каналовРасположение каналов : Front: L C R, Side: L R, LFEЧастота : 48,0 КГцБитовая глубина : 16 битМетод сжатия : С потерямиРазмер потока : 296 Мбайт (20%)Заголовок : DD 5.1 @ 448 kbpsЯзык : RussianDefault : ДаForced : Нет

Меню00:00:00.000 : en:00:00:00.00000:00:04.000 : en:00:00:04.00000:10:10.458 : en:00:10:10.45800:19:36.417 : en:00:19:36.41700:30:53.500 : en:00:30:53.50000:40:34.958 : en:00:40:34.95800:49:58.542 : en:00:49:58.54201:07:22.792 : en:01:07:22.79201:24:06.417 : en:01:24:06.417

piratbit.ru


Смотрите также