Скачать великая стена в 3d через торрент бесплатно в хорошем качестве


Скачать торрент Великая стена / The Great Wall (2016) BDRip 1080p от Ash61 | 3D-Video | halfOU

General Unique ID : 182743488884970316912238699986667076787 (0x897B1DA10A6B26AE92348D47D4EE7CB3) Complete name : E:TheGreatWall(2016)3D-halfOU(Ash61)TheGreatWall(2016)3D-halfOU(Ash61).mkv Format : Matroska Format version : Version 2 File size : 9.34 GiB Duration : 1h 43mn Overall bit rate : 13.0 Mbps Movie name : Великая стена / The Great Wall (2016) в 3Д Encoded date : UTC 2017-05-14 09:23:40 Writing application : mkvmerge v5.8.0 ('No Sleep / Pillow') built on Sep 2 2012 15:37:04 Writing library : libebml v1.2.3 + libmatroska v1.3.0

Video ID : 1 Format : AVC Format/Info : Advanced Video Codec Format profile : [email protected] Format settings, CABAC : Yes Format settings, ReFrames : 4 frames Codec ID : V_MPEG4/ISO/AVC Duration : 1h 43mn Bit rate : 11.4 Mbps Width : 1 920 pixels Height : 1 080 pixels Display aspect ratio : 16:9 Frame rate mode : Constant Frame rate : 23.976 fps Color space : YUV Chroma subsampling : 4:2:0 Bit depth : 8 bits Scan type : Progressive Bits/(Pixel*Frame) : 0.230 Stream size : 8.23 GiB (88%) Title : BDRip by Ash61 Writing library : x264 core 146 r2538 121396c Encoding settings : cabac=1 / ref=4 / deblock=1:-3:-3 / analyse=0x3:0x113 / me=umh / subme=10 / psy=1 / psy_rd=1.00:0.00 / mixed_ref=1 / me_range=32 / chroma_me=1 / trellis=2 / 8x8dct=1 / cqm=0 / deadzone=21,11 / fast_pskip=1 / chroma_qp_offset=-2 / threads=12 / lookahead_threads=3 / sliced_threads=0 / nr=0 / decimate=1 / interlaced=0 / bluray_compat=0 / constrained_intra=0 / bframes=12 / b_pyramid=2 / b_adapt=2 / b_bias=0 / direct=3 / weightb=1 / open_gop=0 / weightp=2 / keyint=250 / keyint_min=23 / scenecut=40 / intra_refresh=0 / rc_lookahead=60 / rc=crf / mbtree=0 / crf=16.5 / qcomp=0.70 / qpmin=0 / qpmax=69 / qpstep=4 / vbv_maxrate=40000 / vbv_bufsize=30000 / crf_max=0.0 / nal_hrd=none / filler=0 / frame-packing=4 / ip_ratio=1.40 / pb_ratio=1.30 / aq=1:0.70 Language : English Default : Yes Forced : No

Audio #1 ID : 2 Format : AC-3 Format/Info : Audio Coding 3 Mode extension : CM (complete main) Format settings, Endianness : Big Codec ID : A_AC3 Duration : 1h 43mn Bit rate mode : Constant Bit rate : 640 Kbps Channel(s) : 6 channels Channel positions : Front: L C R, Side: L R, LFE Sampling rate : 48.0 KHz Bit depth : 16 bits Compression mode : Lossy Stream size : 472 MiB (5%) Title : Дубляж (на китайскую речь - VO) - BD 3D CEE Language : Russian Default : Yes Forced : No

Audio #2 ID : 3 Format : AC-3 Format/Info : Audio Coding 3 Mode extension : CM (complete main) Format settings, Endianness : Big Codec ID : A_AC3 Duration : 1h 43mn Bit rate mode : Constant Bit rate : 640 Kbps Channel(s) : 6 channels Channel positions : Front: L C R, Side: L R, LFE Sampling rate : 48.0 KHz Bit depth : 16 bits Compression mode : Lossy Stream size : 472 MiB (5%) Title : Original - BD 3D CEE Language : English Default : No Forced : No

Text #1 ID : 4 Format : UTF-8 Codec ID : S_TEXT/UTF8 Codec ID/Info : UTF-8 Plain Text Title : Форсированные (BD 3D CEE) Language : Russian Default : Yes Forced : No

Text #2 ID : 5 Format : UTF-8 Codec ID : S_TEXT/UTF8 Codec ID/Info : UTF-8 Plain Text Title : Полные Language : Russian Default : No Forced : No

Text #3 ID : 6 Format : UTF-8 Codec ID : S_TEXT/UTF8 Codec ID/Info : UTF-8 Plain Text Title : Forced [+ chinese speeches] (BD 3D CEE) Language : English Default : No Forced : No

Text #4 ID : 7 Format : UTF-8 Codec ID : S_TEXT/UTF8 Codec ID/Info : UTF-8 Plain Text Title : Full [including chinese speeches] (BD 3D CEE) Language : English Default : No Forced : No

Text #5 ID : 8 Format : UTF-8 Codec ID : S_TEXT/UTF8 Codec ID/Info : UTF-8 Plain Text Title : SDH [including chinese speeches] (BD 3D CEE) Language : English Default : No Forced : No

Menu 00:00:00.000 : :1 00:05:58.358 : :2 00:11:47.540 : :3 00:16:53.679 : :4 00:20:13.254 : :5 00:25:11.009 : :6 00:28:55.317 : :7 00:33:57.744 : :8 00:37:54.147 : :9 00:42:42.935 : :10 00:46:18.943 : :11 00:50:27.691 : :12 00:56:46.069 : :13 01:01:58.048 : :14 01:07:12.820 : :15 01:12:08.533 : :16 01:18:20.863 : :17 01:23:25.083 : :18 01:27:26.158 : :19 01:31:14.386 : :20

krutor.org

3D / The Great Wall 3D ( by Ash61) 1693

General Unique ID : 182743488884970316912238699986667076787 (0x897B1DA10A6B26AE92348D47D4EE7CB3) Complete name : E:TheGreatWall(2016)3D-halfOU(Ash61)TheGreatWall(2016)3D-halfOU(Ash61).mkv Format : Matroska Format version : Version 2 File size : 9.34 GiB Duration : 1h 43mn Overall bit rate : 13.0 Mbps Movie name : / The Great Wall (2016) 3 Encoded date : UTC 2017-05-14 09:23:40 Writing application : mkvmerge v5.8.0 ('No Sleep / Pillow') built on Sep 2 2012 15:37:04 Writing library : libebml v1.2.3 + libmatroska v1.3.0

Video ID : 1 Format : AVC Format/Info : Advanced Video Codec Format profile : [email protected] Format settings, CABAC : Yes Format settings, ReFrames : 4 frames Codec ID : V_MPEG4/ISO/AVC Duration : 1h 43mn Bit rate : 11.4 Mbps Width : 1 920 pixels Height : 1 080 pixels Display aspect ratio : 16:9 Frame rate mode : Constant Frame rate : 23.976 fps Color space : YUV Chroma subsampling : 4:2:0 Bit depth : 8 bits Scan type : Progressive Bits/(Pixel*Frame) : 0.230 Stream size : 8.23 GiB (88%) Title : BDRip by Ash61 Writing library : x264 core 146 r2538 121396c Encoding settings : cabac=1 / ref=4 / deblock=1:-3:-3 / analyse=0x3:0x113 / me=umh / subme=10 / psy=1 / psy_rd=1.00:0.00 / mixed_ref=1 / me_range=32 / chroma_me=1 / trellis=2 / 8x8dct=1 / cqm=0 / deadzone=21,11 / fast_pskip=1 / chroma_qp_offset=-2 / threads=12 / lookahead_threads=3 / sliced_threads=0 / nr=0 / decimate=1 / interlaced=0 / bluray_compat=0 / constrained_intra=0 / bframes=12 / b_pyramid=2 / b_adapt=2 / b_bias=0 / direct=3 / weightb=1 / open_gop=0 / weightp=2 / keyint=250 / keyint_min=23 / scenecut=40 / intra_refresh=0 / rc_lookahead=60 / rc=crf / mbtree=0 / crf=16.5 / qcomp=0.70 / qpmin=0 / qpmax=69 / qpstep=4 / vbv_maxrate=40000 / vbv_bufsize=30000 / crf_max=0.0 / nal_hrd=none / filler=0 / frame-packing=4 / ip_ratio=1.40 / pb_ratio=1.30 / aq=1:0.70 Language : English Default : Yes Forced : No

Audio #1 ID : 2 Format : AC-3 Format/Info : Audio Coding 3 Mode extension : CM (complete main) Format settings, Endianness : Big Codec ID : A_AC3 Duration : 1h 43mn Bit rate mode : Constant Bit rate : 640 Kbps Channel(s) : 6 channels Channel positions : Front: L C R, Side: L R, LFE Sampling rate : 48.0 KHz Bit depth : 16 bits Compression mode : Lossy Stream size : 472 MiB (5%) Title : ( - VO) - BD 3D CEE Language : Russian Default : Yes Forced : No

Audio #2 ID : 3 Format : AC-3 Format/Info : Audio Coding 3 Mode extension : CM (complete main) Format settings, Endianness : Big Codec ID : A_AC3 Duration : 1h 43mn Bit rate mode : Constant Bit rate : 640 Kbps Channel(s) : 6 channels Channel positions : Front: L C R, Side: L R, LFE Sampling rate : 48.0 KHz Bit depth : 16 bits Compression mode : Lossy Stream size : 472 MiB (5%) Title : Original - BD 3D CEE Language : English Default : No Forced : No

Text #1 ID : 4 Format : UTF-8 Codec ID : S_TEXT/UTF8 Codec ID/Info : UTF-8 Plain Text Title : (BD 3D CEE) Language : Russian Default : Yes Forced : No

Text #2 ID : 5 Format : UTF-8 Codec ID : S_TEXT/UTF8 Codec ID/Info : UTF-8 Plain Text Title : Language : Russian Default : No Forced : No

Text #3 ID : 6 Format : UTF-8 Codec ID : S_TEXT/UTF8 Codec ID/Info : UTF-8 Plain Text Title : Forced [+ chinese speeches] (BD 3D CEE) Language : English Default : No Forced : No

Text #4 ID : 7 Format : UTF-8 Codec ID : S_TEXT/UTF8 Codec ID/Info : UTF-8 Plain Text Title : Full [including chinese speeches] (BD 3D CEE) Language : English Default : No Forced : No

Text #5 ID : 8 Format : UTF-8 Codec ID : S_TEXT/UTF8 Codec ID/Info : UTF-8 Plain Text Title : SDH [including chinese speeches] (BD 3D CEE) Language : English Default : No Forced : No

Menu 00:00:00.000 : :1 00:05:58.358 : :2 00:11:47.540 : :3 00:16:53.679 : :4 00:20:13.254 : :5 00:25:11.009 : :6 00:28:55.317 : :7 00:33:57.744 : :8 00:37:54.147 : :9 00:42:42.935 : :10 00:46:18.943 : :11 00:50:27.691 : :12 00:56:46.069 : :13 01:01:58.048 : :14 01:07:12.820 : :15 01:12:08.533 : :16 01:18:20.863 : :17 01:23:25.083 : :18 01:27:26.158 : :19 01:31:14.386 : :20

stereotraker.ru

Скачать фильм Великая стена в 3Д через торрент в хорошем качестве бесплатно 1080p

GeneralUnique ID : 182743488884970316912238699986667076787 (0x897B1DA10A6B26AE92348D47D4EE7CB3)Complete name : TheGreatWall(2016)3D-halfOU(Ash61)\TheGreatWall(2016)3D-halfOU(Ash61).mkvFormat : MatroskaFormat version : Version 2File size : 9.34 GiBDuration : 1 h 43 minOverall bit rate : 13.0 Mb/sMovie name : Великая стена / The Great Wall (2016) в 3ДEncoded date : UTC 2017-05-14 09:23:40Writing application : mkvmerge v5.8.0 ('No Sleep / Pillow') built on Sep 2 2012 15:37:04Writing library : libebml v1.2.3 + libmatroska v1.3.0

VideoID : 1Format : AVCFormat/Info : Advanced Video CodecFormat profile : [email protected] settings, CABAC : YesFormat settings, ReFrames : 4 framesCodec ID : V_MPEG4/ISO/AVCDuration : 1 h 43 minBit rate : 11.4 Mb/sWidth : 1 920 pixelsHeight : 1 080 pixelsDisplay aspect ratio : 16:9Frame rate mode : ConstantFrame rate : 23.976 (24000/1001) FPSColor space : YUVChroma subsampling : 4:2:0Bit depth : 8 bitsScan type : ProgressiveBits/(Pixel*Frame) : 0.230Stream size : 8.23 GiB (88%)Title : BDRip by Ash61Writing library : x264 core 146 r2538 121396cEncoding settings : cabac=1 / ref=4 / deblock=1:-3:-3 / analyse=0x3:0x113 / me=umh / subme=10 / psy=1 / psy_rd=1.00:0.00 / mixed_ref=1 / me_range=32 / chroma_me=1 / trellis=2 / 8x8dct=1 / cqm=0 / deadzone=21,11 / fast_pskip=1 / chroma_qp_offset=-2 / threads=12 / lookahead_threads=3 / sliced_threads=0 / nr=0 / decimate=1 / interlaced=0 / bluray_compat=0 / constrained_intra=0 / bframes=12 / b_pyramid=2 / b_adapt=2 / b_bias=0 / direct=3 / weightb=1 / open_gop=0 / weightp=2 / keyint=250 / keyint_min=23 / scenecut=40 / intra_refresh=0 / rc_lookahead=60 / rc=crf / mbtree=0 / crf=16.5 / qcomp=0.70 / qpmin=0 / qpmax=69 / qpstep=4 / vbv_maxrate=40000 / vbv_bufsize=30000 / crf_max=0.0 / nal_hrd=none / filler=0 / frame-packing=4 / ip_ratio=1.40 / pb_ratio=1.30 / aq=1:0.70Language : EnglishDefault : YesForced : No

Audio #1ID : 2Format : AC-3Format/Info : Audio Coding 3Mode extension : CM (complete main)Format settings, Endianness : BigCodec ID : A_AC3Duration : 1 h 43 minBit rate mode : ConstantBit rate : 640 kb/sChannel(s) : 6 channelsChannel positions : Front: L C R, Side: L R, LFESampling rate : 48.0 kHzFrame rate : 31.250 FPS (1536 spf)Compression mode : LossyStream size : 472 MiB (5%)Title : Дубляж (на китайскую речь - VO) - BD 3D CEELanguage : RussianDefault : YesForced : No

Audio #2ID : 3Format : AC-3Format/Info : Audio Coding 3Mode extension : CM (complete main)Format settings, Endianness : BigCodec ID : A_AC3Duration : 1 h 43 minBit rate mode : ConstantBit rate : 640 kb/sChannel(s) : 6 channelsChannel positions : Front: L C R, Side: L R, LFESampling rate : 48.0 kHzFrame rate : 31.250 FPS (1536 spf)Compression mode : LossyStream size : 472 MiB (5%)Title : Original - BD 3D CEELanguage : EnglishDefault : NoForced : No

Text #1ID : 4Format : UTF-8Codec ID : S_TEXT/UTF8Codec ID/Info : UTF-8 Plain TextTitle : Форсированные (BD 3D CEE)Language : RussianDefault : YesForced : No

Text #2ID : 5Format : UTF-8Codec ID : S_TEXT/UTF8Codec ID/Info : UTF-8 Plain TextTitle : ПолныеLanguage : RussianDefault : NoForced : No

Text #3ID : 6Format : UTF-8Codec ID : S_TEXT/UTF8Codec ID/Info : UTF-8 Plain TextTitle : Forced [+ chinese speeches] (BD 3D CEE)Language : EnglishDefault : NoForced : No

Text #4ID : 7Format : UTF-8Codec ID : S_TEXT/UTF8Codec ID/Info : UTF-8 Plain TextTitle : Full [including chinese speeches] (BD 3D CEE)Language : EnglishDefault : NoForced : No

Text #5ID : 8Format : UTF-8Codec ID : S_TEXT/UTF8Codec ID/Info : UTF-8 Plain TextTitle : SDH [including chinese speeches] (BD 3D CEE)Language : EnglishDefault : NoForced : No

Menu00:00:00.000 : :100:05:58.358 : :200:11:47.540 : :300:16:53.679 : :400:20:13.254 : :500:25:11.009 : :600:28:55.317 : :700:33:57.744 : :800:37:54.147 : :900:42:42.935 : :1000:46:18.943 : :1100:50:27.691 : :1200:56:46.069 : :1301:01:58.048 : :1401:07:12.820 : :1501:12:08.533 : :1601:18:20.863 : :1701:23:25.083 : :1801:27:26.158 : :1901:31:14.386 : :20

piratbit.ru

Скачать фильм Великая стена в 3D через торрент в хорошем качестве бесплатно 1080p

x264 [info]: frame I:1403 Avg QP:10.30 size:191818x264 [info]: frame P:38780 Avg QP:14.50 size: 72968x264 [info]: frame B:108071 Avg QP:16.54 size: 26582x264 [info]: consecutive B-frames: 3.2% 3.4% 12.6% 36.1% 44.6%

ОбщееУникальный идентификатор : 173034434054952320186137790156043257152 (0x822D38448725EEBD98508A14C7290540)Полное имя : E:\TheGreatWall(2016)3D(Anaglyph_Dubois).mkvФормат : MatroskaВерсия формата : Version 4 / Version 2Размер файла : 6,48 ГбайтПродолжительность : 1 ч. 43 м.Общий поток : 9008 Кбит/секНазвание фильма : Великая стена / The Great Wall (2016) в 3Д (Anaglyph_Dubois)Дата кодирования : UTC 2017-05-21 17:15:09Программа кодирования : mkvmerge v9.1.0 ('Little Earthquakes') 64bitБиблиотека кодирования : libebml v1.3.3 + libmatroska v1.4.4

ВидеоИдентификатор : 1Формат : AVCФормат/Информация : Advanced Video CodecПрофиль формата : [email protected]_Count : 2MultiView_Layout : Anaglyph (cyan/red)Параметр CABAC формата : ДаПараметр ReFrames формата : 4 кадраИдентификатор кодека : V_MPEG4/ISO/AVCПродолжительность : 1 ч. 43 м.Битрейт : 7726 Кбит/секШирина : 1920 пикселейВысота : 1080 пикселейСоотношение сторон : 16:9Режим частоты кадров : ПостоянныйЧастота кадров : 23,976 кадра/секЦветовое пространство : YUVСубдискретизация насыщенности : 4:2:0Битовая глубина : 8 битТип развёртки : ПрогрессивнаяБит/(Пиксели*Кадры) : 0.155Размер потока : 5,56 Гбайт (86%)Заголовок : slaventi-69 ( R.G. HD-Films ) 3Д (Anaglyph_Dubois)Библиотека кодирования : x264 core 146 r2538 121396cНастройки программы : cabac=1 / ref=4 / deblock=1:-1:-1 / analyse=0x3:0x113 / me=umh / subme=9 / psy=1 / psy_rd=1.00:0.00 / mixed_ref=1 / me_range=24 / chroma_me=1 / trellis=2 / 8x8dct=1 / cqm=0 / deadzone=21,11 / fast_pskip=1 / chroma_qp_offset=-2 / threads=8 / lookahead_threads=1 / sliced_threads=0 / nr=0 / decimate=1 / interlaced=0 / bluray_compat=0 / constrained_intra=0 / bframes=4 / b_pyramid=2 / b_adapt=2 / b_bias=0 / direct=1 / weightb=1 / open_gop=0 / weightp=2 / keyint=250 / keyint_min=23 / scenecut=40 / intra_refresh=0 / rc_lookahead=50 / rc=crf / mbtree=1 / crf=17.0 / qcomp=0.60 / qpmin=0 / qpmax=69 / qpstep=4 / vbv_maxrate=14000 / vbv_bufsize=14000 / crf_max=0.0 / nal_hrd=none / filler=0 / ip_ratio=1.40 / aq=1:1.00Язык : EnglishDefault : ДаForced : Нет

Аудио #1Идентификатор : 2Формат : AC-3Формат/Информация : Audio Coding 3Расширение режима : CM (complete main)Параметр Endianness формата : BigИдентификатор кодека : A_AC3Продолжительность : 1 ч. 43 м.Вид битрейта : ПостоянныйБитрейт : 640 Кбит/секКаналы : 6 каналовРасположение каналов : Front: L C R, Side: L R, LFEЧастота : 48,0 КГцЧастота кадров : 31,250 кадров/сек (1536 spf)Метод сжатия : С потерямиРазмер потока : 472 Мбайт (7%)Заголовок : Дубляж (на китайскую речь - VO) - BD 3D CEEЯзык : RussianDefault : ДаForced : Нет

Аудио #2Идентификатор : 3Формат : AC-3Формат/Информация : Audio Coding 3Расширение режима : CM (complete main)Параметр Endianness формата : BigИдентификатор кодека : A_AC3Продолжительность : 1 ч. 43 м.Вид битрейта : ПостоянныйБитрейт : 640 Кбит/секКаналы : 6 каналовРасположение каналов : Front: L C R, Side: L R, LFEЧастота : 48,0 КГцЧастота кадров : 31,250 кадров/сек (1536 spf)Метод сжатия : С потерямиРазмер потока : 472 Мбайт (7%)Заголовок : Original - BD 3D CEEЯзык : EnglishDefault : НетForced : Нет

Текст #1Идентификатор : 4Формат : UTF-8Идентификатор кодека : S_TEXT/UTF8Идентификатор кодека/Информация : UTF-8 Plain TextПродолжительность : 1 ч. 42 м.Битрейт : 1 бит/секCount of elements : 23Размер потока : 801 байт (0%)Заголовок : Форсированные (BD 3D CEE)Язык : RussianDefault : ДаForced : Нет

Текст #2Идентификатор : 5Формат : UTF-8Идентификатор кодека : S_TEXT/UTF8Идентификатор кодека/Информация : UTF-8 Plain TextПродолжительность : 1 ч. 30 м.Битрейт : 51 бит/секCount of elements : 829Размер потока : 34,0 Кбайт (0%)Заголовок : ПолныеЯзык : RussianDefault : НетForced : Нет

Текст #3Идентификатор : 6Формат : UTF-8Идентификатор кодека : S_TEXT/UTF8Идентификатор кодека/Информация : UTF-8 Plain TextПродолжительность : 1 ч. 42 м.Битрейт : 7 бит/секCount of elements : 249Размер потока : 5,65 Кбайт (0%)Заголовок : Forced [+ chinese speeches] (BD 3D CEE)Язык : EnglishDefault : НетForced : Нет

Текст #4Идентификатор : 7Формат : UTF-8Идентификатор кодека : S_TEXT/UTF8Идентификатор кодека/Информация : UTF-8 Plain TextПродолжительность : 1 ч. 42 м.Битрейт : 27 бит/секCount of elements : 837Размер потока : 20,9 Кбайт (0%)Заголовок : Full [including chinese speeches] (BD 3D CEE)Язык : EnglishDefault : НетForced : Нет

Текст #5Идентификатор : 8Формат : UTF-8Идентификатор кодека : S_TEXT/UTF8Идентификатор кодека/Информация : UTF-8 Plain TextПродолжительность : 1 ч. 42 м.Битрейт : 36 бит/секCount of elements : 1102Размер потока : 27,3 Кбайт (0%)Заголовок : SDH [including chinese speeches] (BD 3D CEE)Язык : EnglishDefault : НетForced : Нет

Меню00:00:00.000 : :100:05:58.358 : :200:11:47.540 : :300:16:53.679 : :400:20:13.254 : :500:25:11.009 : :600:28:55.317 : :700:33:57.744 : :800:37:54.147 : :900:42:42.935 : :1000:46:18.943 : :1100:50:27.691 : :1200:56:46.069 : :1301:01:58.048 : :1401:07:12.820 : :1501:12:08.533 : :1601:18:20.863 : :1701:23:25.083 : :1801:27:26.158 : :1901:31:14.386 : :20

piratbit.ru

3 / The Great Wall 3D ( / Zhang Yimou) [2016, , , , , BDrip] Half OverUnder / 3 3D

General Unique ID : 182743488884970316912238699986667076787 (0x897B1DA10A6B26AE92348D47D4EE7CB3) Complete name : E:\TheGreatWall(2016)3D-halfOU(Ash61)\TheGreatWall(2016)3D-halfOU(Ash61).mkv Format : Matroska Format version : Version 2 File size : 9.34 GiB Duration : 1h 43mn Overall bit rate : 13.0 Mbps Movie name : / The Great Wall (2016) 3 Encoded date : UTC 2017-05-14 09:23:40 Writing application : mkvmerge v5.8.0 ('No Sleep / Pillow') built on Sep 2 2012 15:37:04 Writing library : libebml v1.2.3 + libmatroska v1.3.0

Video

ID : 1 Format : AVC Format/Info : Advanced Video Codec Format profile : [email protected] Format settings, CABAC : Yes Format settings, ReFrames : 4 frames Codec ID : V_MPEG4/ISO/AVC Duration : 1h 43mn Bit rate : 11.4 Mbps Width : 1 920 pixels Height : 1 080 pixels Display aspect ratio : 16:9 Frame rate mode : Constant Frame rate : 23.976 fps Color space : YUV Chroma subsampling : 4:2:0 Bit depth : 8 bits Scan type : Progressive Bits/(Pixel*Frame) : 0.230 Stream size : 8.23 GiB (88%) Title : BDRip by Ash61 Writing library : x264 core 146 r2538 121396c Encoding settings : cabac=1 / ref=4 / deblock=1:-3:-3 / analyse=0x3:0x113 / me=umh / subme=10 / psy=1 / psy_rd=1.00:0.00 / mixed_ref=1 / me_range=32 / chroma_me=1 / trellis=2 / 8x8dct=1 / cqm=0 / deadzone=21,11 / fast_pskip=1 / chroma_qp_offset=-2 / threads=12 / lookahead_threads=3 / sliced_threads=0 / nr=0 / decimate=1 / interlaced=0 / bluray_compat=0 / constrained_intra=0 / bframes=12 / b_pyramid=2 / b_adapt=2 / b_bias=0 / direct=3 / weightb=1 / open_gop=0 / weightp=2 / keyint=250 / keyint_min=23 / scenecut=40 / intra_refresh=0 / rc_lookahead=60 / rc=crf / mbtree=0 / crf=16.5 / qcomp=0.70 / qpmin=0 / qpmax=69 / qpstep=4 / vbv_maxrate=40000 / vbv_bufsize=30000 / crf_max=0.0 / nal_hrd=none / filler=0 / frame-packing=4 / ip_ratio=1.40 / pb_ratio=1.30 / aq=1:0.70 Language : English Default : Yes Forced : No

Audio #1

ID : 2 Format : AC-3 Format/Info : Audio Coding 3 Mode extension : CM (complete main) Format settings, Endianness : Big Codec ID : A_AC3 Duration : 1h 43mn Bit rate mode : Constant Bit rate : 640 Kbps Channel(s) : 6 channels Channel positions : Front: L C R, Side: L R, LFE Sampling rate : 48.0 KHz Bit depth : 16 bits Compression mode : Lossy Stream size : 472 MiB (5%) Title : ( - VO) - BD 3D CEE Language : Russian Default : Yes Forced : No

Audio #2

ID : 3 Format : AC-3 Format/Info : Audio Coding 3 Mode extension : CM (complete main) Format settings, Endianness : Big Codec ID : A_AC3 Duration : 1h 43mn Bit rate mode : Constant Bit rate : 640 Kbps Channel(s) : 6 channels Channel positions : Front: L C R, Side: L R, LFE Sampling rate : 48.0 KHz Bit depth : 16 bits Compression mode : Lossy Stream size : 472 MiB (5%) Title : Original - BD 3D CEE Language : English Default : No Forced : No

Text #1

ID : 4 Format : UTF-8 Codec ID : S_TEXT/UTF8 Codec ID/Info : UTF-8 Plain Text Title : (BD 3D CEE) Language : Russian Default : Yes Forced : No

Text #2

ID : 5 Format : UTF-8 Codec ID : S_TEXT/UTF8 Codec ID/Info : UTF-8 Plain Text Title : Language : Russian Default : No Forced : No

Text #3

ID : 6 Format : UTF-8 Codec ID : S_TEXT/UTF8 Codec ID/Info : UTF-8 Plain Text Title : Forced [+ chinese speeches] (BD 3D CEE) Language : English Default : No Forced : No

Text #4

ID : 7 Format : UTF-8 Codec ID : S_TEXT/UTF8 Codec ID/Info : UTF-8 Plain Text Title : Full [including chinese speeches] (BD 3D CEE) Language : English Default : No Forced : No

Text #5

ID : 8 Format : UTF-8 Codec ID : S_TEXT/UTF8 Codec ID/Info : UTF-8 Plain Text Title : SDH [including chinese speeches] (BD 3D CEE) Language : English Default : No Forced : No

Menu

00:00:00.000 : :1 00:05:58.358 : :2 00:11:47.540 : :3 00:16:53.679 : :4 00:20:13.254 : :5 00:25:11.009 : :6 00:28:55.317 : :7 00:33:57.744 : :8 00:37:54.147 : :9 00:42:42.935 : :10 00:46:18.943 : :11 00:50:27.691 : :12 00:56:46.069 : :13 01:01:58.048 : :14 01:07:12.820 : :15 01:12:08.533 : :16 01:18:20.863 : :17 01:23:25.083 : :18 01:27:26.158 : :19 01:31:14.386 : :20

unionpeer.com

Скачать фильм Великая стена через торрент в хорошем качестве бесплатно BDRip от Twi7ter

piratbit.ru

Раздают: 8 [ 25 KB/s ]
Размер: 1.46 GB | Добавлен: 5 мес. 13 д. назад | Торрент скачан:840 раз
Реклама Дарим 3000 рублей за регистрацию, не упусти свой шанс получить шикарный бонус!!!

13-05-2017 17:22 Великая стена Скачать торрент  

Великая стена / The Great Wall

«1700 лет ушло на строительство. 8851 км неприступных стен. Какой враг угрожал империи?»

Год выпуска: 2016Страна: США, Китай, Гонконг, Австралия, КанадаЖанр: фэнтези, боевик, триллер, приключенияПродолжительность: 01:43:03Перевод: Профессиональный (полное дублирование) [Лицензия Blu-ray CEE]Субтитры: Русские форсированные (надписи и прочее) - вшитыеРежиссер: Чжан ИмоуВ ролях: Мэтт Дэймон (William), Цзин Тянь (Commander Lin Mae), Уиллем Дефо (Ballard), Энди Лау (Strategist Wang), Педро Паскаль (Tovar), Чжан Ханьюй (General Shao), Лухан (Peng Yong), Кенни Линь (Commander Chen), Эдди Пэн (Commander Wu), Хуан Сюань (Commander Deng), Чжэн Кай (Shen), Кэрри Ван (Emperor)Описание: Великую стену воздвигли, чтобы оградить Поднебесную от любых угроз, но с таким врагом не сталкивались даже самые отважные ее защитники. Если вторжение не остановить - мир будет уничтожен.Рейтинг:

MPAA: PG-13 - Детям до 13 лет просмотр не желателен

Качество: BDRip | исх. The.Great.Wall.2016.BDREMUX.1080p.ExKinoRay |Формат: AVIВидео кодек: XviDАудио кодек: AC3Видео: 720x304 (2.37:1), 23.976 fps, XviD build 73 ~1572 kbps avg, 0.30 bit/pixelАудио: 48 kHz, AC3 Dolby Digital, 3/2 (L,C,R,l,r) + LFE ch, ~448 kbps

Релиз: &

Скачать Великая стена через торрент http://s010.radikal.ru/i313/1705/b5/6276ee9a43f3.png Скачать фильм Великая стена через торрент бесплантно в хорошем качестве Описание: Великую стену воздвигли, чтобы оградить Поднебесную от любых угроз, но с таким врагом не сталкивались даже самые отважные ее ... 2017-05-13 17:22 9.6 10 14

Loading...

Loading...

Рекламный пират

13-05-2017 20:03 Великая стена Скачать торрент  

РИП без английского хардсаба.

14-05-2017 09:51 Великая стена Скачать торрент  

Рейтинг явно завышен, скорее всего из-за Мэтта Деймона. Фильм наискучнейший, тупейший, и пустейший. В нем нету ничего. НЕ истории к персонажам, что бы зритель привязывался, не логичной линиии событий...... не интересного сюжета....СМОтрел его пару дней, ели осилил

Дорогой пользователь! Огромная просьба, поблагодарите релизера, оцените раздачу и оставьте свои комментарий, если Вы скачали Великая стена через торрент бесплатно! Внесите свою лепту в развитие PiratBit!

Комментировать посты могут только пользователи прошедшие не сложную регистрацию

Великая стена через торрент Скачать бесплатно Великая стена Великая стена скачать торрент Великая стена смотреть онлайн Cкачать фильм Великая стена бесплатно Великая стена скачать торрент в хорошем качестве Великая стена смотреть онлайн бесплатно в хорошем качестве

Вы не можете начинать темыВы не можете отвечать на сообщенияВы не можете редактировать свои сообщенияВы не можете удалять свои сообщенияВы не можете голосовать в опросахВы не можете прикреплять файлы к сообщениямВы можете скачивать файлы

Скачать фильм Великая стена в 3Д через торрент в хорошем качестве бесплатно 1080p

piratbit.ru

Размер: 13.23 GB | Добавлен: 5 мес. 11 д. назад | Торрент скачан:101 раз
Реклама Дарим 3000 рублей за регистрацию, не упусти свой шанс получить шикарный бонус!!!

15-05-2017 13:59 Великая стена в 3Д Скачать торрент  

Великая стена / The Great Wall

Год выпуска: 2016Страна: США, Китай, Гонконг, Австралия, Канада (Universal Pictures, Legendary, Atlas Entertainment, China Film Group Corporation, Kava Productions, Le Vision Pictures)Жанр: Фэнтези, Боевик, Триллер, ПриключенияПродолжительность: 01:43:03

Перевод: Профессиональный дублированный (лицензия)Русские субтитры: нетРежиссер: Чжан Имоу / Zhang Yimou

В ролях: Мэтт Дэймон, Тянь Цзин, Педро Паскаль, Лу Хан, Уиллем Дефо, Энди Лау, Эдди Пэн, Нуман Акар, Кенни Лин, Ханьюй Чжан, Вики Юй, Лю Бин, Чжэн Кай, Джонни Чикко, Чэни Чэнь, Кэрри Ван

Описание: Великую стену воздвигли, чтобы оградить Поднебесную от любых угроз, но с таким врагом не сталкивались даже самые отважные ее защитники. Если вторжение не остановить — мир будет уничтожен.

Сэмпл: http://sendfile.su/1334439

Качество: BDrip, 1080pКонтейнер: MKVФормат 3D: OverUnder / Вертикальная стереопараПорядок ракурсов: левый ракурс первыйВидео кодек: x264Аудио кодек: AC3Видео: AVC / [email protected] / 23,976 fps / 1920х2160 / 16,7 Мбит/секАудио: Русский / AC3 / 48 KHz / 5.1 ch / 640 Кбит/сек(лицензия)Аудио 2: Английский / AC3 / 48 KHz / 5.1 ch / 640 Кбит/сек

Релиз группы: ВНИМАНИЕ ! На встроенных ТВ-плеерах работать не будет!!!

ТВ Samsung в названии которого есть надпись Ultra HD , и LG Ultra HD 800 серии, LG C6P, Xiaomi Mi TV 2 воспроизводят полные стереопары встроенными плеерами Железные плееры на которых воспроизводятся полные стереопары:Popcorn C-200 , Dune HD Smart D1 , Dune HD DUO , Dune HD Smart h2 , Dune HD Smart B1 , Dune HD Max , Dune HD TV-303D , Dune HD Base 3D, Philips HMP7001, Aura HD, MECOOL BB2Чтобы изображение было на весь экран в плеере выставляем, если рип 1920х1600 - то выставляем 2.35:1 , если 1920х2160 - то выставляем 16:9ОбщееУникальный идентификатор : 190349639716582976128743310235773883715 (0x8F3401D1866B3B3D8E7635B9BB36D543)Полное имя : E:\закачки\The Great Wall.Rip by SeRoGa00.mkvФормат : MatroskaВерсия формата : Version 2Размер файла : 13,2 ГбайтПродолжительность : 1 ч. 43 м.Общий поток : 18,4 Мбит/секДата кодирования : UTC 2017-05-15 13:10:30Программа кодирования : mkvmerge v3.4.0 ('Rapunzel') сборка от May 15 2010 09:38:20Библиотека кодирования : libebml v0.8.0 + libmatroska v0.9.0

ВидеоИдентификатор : 1Формат : AVCФормат/Информация : Advanced Video CodecПрофиль формата : [email protected]Параметр CABAC формата : ДаПараметр ReFrames формата : 4 кадраИдентификатор кодека : V_MPEG4/ISO/AVCПродолжительность : 1 ч. 43 м.Битрейт : 16,7 Мбит/секШирина : 1920 пикселейВысота : 2160 пикселейСоотношение сторон : 0,889Частота кадров : 23,976 кадра/секЦветовое пространство : YUVСубдискретизация насыщенности : 4:2:0Битовая глубина : 8 битТип развёртки : ПрогрессивнаяБит/(Пиксели*Кадры) : 0.168Размер потока : 12,0 Гбайт (91%)Заголовок : Rip by SeRoGa00Библиотека кодирования : x264 core 148 r2762 90a61ecНастройки программы : cabac=1 / ref=4 / deblock=1:-3:-3 / analyse=0x3:0x113 / me=umh / subme=10 / psy=1 / psy_rd=1.00:0.15 / mixed_ref=1 / me_range=24 / chroma_me=1 / trellis=2 / 8x8dct=1 / cqm=0 / deadzone=21,11 / fast_pskip=1 / chroma_qp_offset=-3 / threads=9 / lookahead_threads=2 / sliced_threads=0 / nr=0 / decimate=1 / interlaced=0 / bluray_compat=0 / constrained_intra=0 / bframes=10 / b_pyramid=2 / b_adapt=2 / b_bias=0 / direct=3 / weightb=1 / open_gop=0 / weightp=2 / keyint=250 / keyint_min=23 / scenecut=40 / intra_refresh=0 / rc_lookahead=60 / rc=crf / mbtree=1 / crf=18.0 / qcomp=0.60 / qpmin=10 / qpmax=69 / qpstep=4 / vbv_maxrate=40000 / vbv_bufsize=40000 / crf_max=0.0 / nal_hrd=none / filler=0 / ip_ratio=1.40 / aq=1:1.00Язык : EnglishDefault : НетForced : Нет

Аудио #1Идентификатор : 2Формат : AC-3Формат/Информация : Audio Coding 3Расширение режима : CM (complete main)Параметр Endianness формата : BigИдентификатор кодека : A_AC3Продолжительность : 1 ч. 43 м.Вид битрейта : ПостоянныйБитрейт : 640 Кбит/секКаналы : 6 каналовРасположение каналов : Front: L C R, Side: L R, LFEЧастота : 48,0 КГцБитовая глубина : 16 битМетод сжатия : С потерямиРазмер потока : 472 Мбайт (3%)Язык : RussianDefault : ДаForced : Нет

Аудио #2Идентификатор : 3Формат : AC-3Формат/Информация : Audio Coding 3Расширение режима : CM (complete main)Параметр Endianness формата : BigИдентификатор кодека : A_AC3Продолжительность : 1 ч. 43 м.Вид битрейта : ПостоянныйБитрейт : 640 Кбит/секКаналы : 6 каналовРасположение каналов : Front: L C R, Side: L R, LFEЧастота : 48,0 КГцБитовая глубина : 16 битМетод сжатия : С потерямиРазмер потока : 472 Мбайт (3%)Язык : EnglishDefault : НетForced : Нет

Скачать Великая стена в 3Д через торрент http://s16.radikal.ru/i190/1705/ba/ba5fd2c7dd4a.png Скачать фильм Великая стена в 3Д через торрент бесплантно в хорошем качестве Описание: Великую стену воздвигли, чтобы оградить Поднебесную от любых угроз, но с таким врагом не сталкивались даже самые отважные ее ... 2017-05-15 13:59 7.7 10 3

Loading...

Loading...

Рекламный пират

Дорогой пользователь! Огромная просьба, поблагодарите релизера, оцените раздачу и оставьте свои комментарий, если Вы скачали Великая стена в 3Д через торрент бесплатно! Внесите свою лепту в развитие PiratBit!

Комментировать посты могут только пользователи прошедшие не сложную регистрацию

Великая стена в 3Д через торрент Скачать бесплатно Великая стена в 3Д Великая стена в 3Д скачать торрент Великая стена в 3Д смотреть онлайн Cкачать фильм Великая стена в 3Д бесплатно Великая стена в 3Д скачать торрент в хорошем качестве Великая стена в 3Д смотреть онлайн бесплатно в хорошем качестве

Вы не можете начинать темыВы не можете отвечать на сообщенияВы не можете редактировать свои сообщенияВы не можете удалять свои сообщенияВы не можете голосовать в опросахВы не можете прикреплять файлы к сообщениямВы можете скачивать файлы


Смотрите также