Скачать универсальный солдат 4 через торрент в хорошем качестве


Скачать Универсальный солдат 4 через торрент

Категория: Фильмы 2207 0 Торрент добавлен: 15-04-2015 Рейтинг:

Жанр: Фантастика, боевик Производство: США Продолжительность: 01:46:46 Режиссер: Джон Хайамс В ролях: Жан-Клод Ван Дамм, Скотт Эдкинс, Андрей Арловский, Дольф Лундгрен, Кристофер Ван Варенберг, Джеймс Роулингс, Дэвид Дженсен, Мария Боннер, Рас Блэквелл, Остин Нолти

События этого фильма происходят в наши дни. Старая военная разработка, именуемая «Unisol» актуальна и поныне. Она повторна, с расширенными функциями, введена в режим эксплуатации. Старым непримиримым врагам времен прошедшей Вьетнамской войны Люку Деверо и Эндрю Скотту поневоле придется повстречаться в очередной раз. На этот раз им не придется продолжать свое противостояние и бесконечную борьбу. Заключив временное перемирие, они противостоят нависшей угрозе.

Трейлер к фильму Универсальный солдат 4

Универсальный солдат 4 скачать торрент

Формат: M4VВидео кодек: H.26xАудио кодек: AC3Видео: MPEG-4 AVC / 16997 kbps / 1920x1080 / 23,976 fps / 16:9 / High Profile 4.1 Аудио: Аудио #1: AC3 Dolby Digital 5.1 / 48 kHz / 448 kbps / 16 bits | Russian | 15,77 Gb

скачать

3D

Формат: MKVВидео кодек: H.26xАудио кодек: AC3Видео: MPEG-4 AVC, 12.9 Мбит/с, 1920x1080 Аудио: Аудио1: Русский (AC3, 6 ch, 448 Кбит/с),Проф. (полное дублирование)

11,33 Gb

скачать

Формат: MKVВидео кодек: H.26xАудио кодек: AC3Видео: 1920x816, 5053 Кбит/сек, 23,976 кадр/сек, AVC, x264, 2,35:1, 0.135 Бит/[Пиксели*Кадры], 2pass Аудио: AC-3, 448 Кбит/сек, 6 канала(ов), 48,0 КГц Проф. (полное дублирование)

4,37 Gb

Качество: HDTVRip Видео: 640x352, 801 kb/s Звук: Russian: AC3, 448 kb/s (6 ch) / English: AC3, 192 kb/s (2 ch)Профессиональный (полное дублирование)

скачать

Вы находитесь на странице, где можете совершенно бесплатно скачать фильм Универсальный солдат 4 в хорошем качестве через торрент, в любом формате, который больше всего вам на данный момент подходит. Скачивание осуществляется через торрент, что означает максимально высокую скорость загрузки. Желаем Вам приятного просмотра!. Не забудь поделиться своими впечатлениями после того как посмотришь фильм Универсальный солдат 4.

Информация Посетители, находящиеся в группе Гости, не могут оставлять комментарии к данной публикации.

psp-gu.ru

Скачать фильм Универсальный солдат 4 (2012) через торрент

gig-torrent.net

27 января 2016 10:16 Универсальный солдат 4 / Universal Soldier: Day of Reckoning (2012) BDRip 1080p | Лицензия .torrent   [Информация о файле (нажмите для просмотра)] Перевод: Профессиональный дублированныйКодек: x264Формат: MKVКачество: BDRip 1080pВидео: MPEG-4 AVCСубтитры: SRT 7,65 Gb 12 3
27 января 2016 10:16 Универсальный солдат 4 / Universal Soldier: Day of Reckoning (2012) BDRip от HQCLUB | Лицензия .torrent   [Информация о файле (нажмите для просмотра)] Перевод: Профессиональный (полное дублирование) R5 + Оригинальная звуковая дорожкаСубтитры: Английские (внешние srt*)Формат: AVIКачество: BDRip (источник: arxivariys /BD-Remux / 1080p)Видео: 720x304 (2.37:1), 23.976 fps, XviD build 65 ~1849 kbps avg, 0.35 bit/pixelАудио #1: 48 kHz, AC3 Dolby Digital, 3/2 (L,C,R,l,r) + LFE ch, ~448.00 kbps avgАудио #2: 48 kHz, AC3 Dolby Digital, 3/2 (L,C,R,l,r) + LFE ch, ~448.00 kbps avg 2,18 Gb 20 3
27 января 2016 10:16 Универсальный солдат 4 / Universal Soldier: Day of Reckoning (2012) Blu-ray 3D Disc [3D/2D] .torrent   [Информация о файле (нажмите для просмотра)] Перевод: Дублированный (R5)Кодек: MPEG-4 AVCКачество: Blu-Ray 1080pВидео: 15920 Кбит/с, 10973 Кбит/с, 1920x1080, 23.976 кадр/сЗвук: Русский (AC3, 6 ch, 448 Кбит/с)Звук: Английский (DTS-HD MA, 6 ch, 2417 Кбит/с)Субтитры: Немецкие 29,36 Gb 2 2
27 января 2016 10:16 Универсальный солдат 4 / Universal Soldier: Day of Reckoning (2012) BDRip 720p | Лицензия .torrent   [Информация о файле (нажмите для просмотра)] Формат: MKV (x264)Качество: BDRip 720p [IRONCLUB]Видео: 3901 kb/s, 1280x546Звук: Russian: AC3, 448 kb/s (6 ch) / English: DTS, 1510 kb/s (6 ch) 4,75 Gb 12 2
27 января 2016 10:16 Универсальный солдат 4 / Universal Soldier: Day of Reckoning (2012) BDRip 1080p | 3D-Video .torrent   [Информация о файле (нажмите для просмотра)] Перевод: ДублированныйКачество: BDRip (1080p)Видео: MPEG-4 AVC, 12.9 Мбит/с, 1920x1080Аудио: Русский (AC3, 6 ch, 448 Кбит/с), английский (AC3, 6 ch, 640 Кбит/с) 11,33 Gb 12 1
27 января 2016 10:16 Универсальный солдат 4 / Universal Soldier: Day of Reckoning (2012) BDRip-AVC | iPad .torrent   [Информация о файле (нажмите для просмотра)] Перевод: ДублированныйСубтитры: английскиеКодек: H.264/AVCФормат: MP4 (контейнер m4v)Видео: 1024x438 (2.35:1) at 23.976 fps, AVC at 1877 kbps avg, 0.175 bit/pixelЗвук: Русский: 48 kHz, AAC, 2ch, 192 kbps | ДублированныйЗвук: Английский: 48 kHz, AAC, 2ch, 192 Kbps | Оригинал 1,81 Gb 2 2
27 января 2016 10:16 Универсальный солдат 4 / Universal Soldier: Day of Reckoning (2012) HDRip от Scarabey | Лицензия .torrent   [Информация о файле (нажмите для просмотра)] Перевод: Профессиональный (дублированный) [Лицензия]Формат: HDRipВидео: 640x272 (2.35:1), 23.976 fps, XviD build 50 ~779 kbps avg, 0.19 bit/pixelАудио #1: 48 kHz, MPEG Layer 3, 2 ch, ~128.00 kbps avg 745,2 Mb 15 4
27 января 2016 10:16 Универсальный солдат 4 / Universal Soldier: Day of Reckoning (2012) HDRip от Scarabey .torrent   [Информация о файле (нажмите для просмотра)] Перевод: Профессиональный (дублированный) Формат: HDRipВидео: 720x304 (2.37:1), 23.976 fps, XviD build 50 ~1370 kbps avg, 0.26 bit/pixelАудио #1: 48 kHz, AC3 Dolby Digital, 3/2 (L,C,R,l,r) + LFE ch, ~448.00 kbps avg 1,45 Gb 12 5
27 января 2016 10:15 Универсальный солдат 4 / Universal Soldier: Day of Reckoning (2012) BDRip .torrent   [Информация о файле (нажмите для просмотра)] Перевод: Профессиональный (дублированный)Кодек: XviDКачество: BDRip (исх. BD-Remux 1080p)Видео: 640x272 (2.35:1), 23.976 fps, ~780 kbps, 0.187 bppЗвук: Русский: MP3, 2 ch, 48 kHz, ~128 kbps 746,28 Mb 6 1
27 января 2016 10:15 Универсальный солдат 4 / Universal Soldier: Day of Reckoning (2012) BDRip-AVC от potroks | Лицензия .torrent   [Информация о файле (нажмите для просмотра)] Перевод: Профессиональный (полное дублирование) Субтитры: АнглийскиеКачество: BDRip-AVC [Blu-Ray Remux]Формат: MKVВидео: H.264, 1032x440 (2,35:1), 23.976 кадр/сек, 1858 Кбит/сек, 0.171 bit/pixelАудио#1: 48 kHz, AC3 Dolby Digital, 3/2 (L,C,R,l,r) + LFE ch, ~448.00 kbps avg |RUSАудио#2: 48 kHz, AC3 Dolby Digital, 3/2 (L,C,R,l,r) + LFE ch, ~448.00 kbps avg |ENG 2,19 Gb 31 7
27 января 2016 10:15 Универсальный солдат 4 / Universal Soldier: Day of Reckoning (2012) BDRemux .torrent   [Информация о файле (нажмите для просмотра)] Перевод: Профессиональный (полное дублирование)Качество: BDRemux 1080pВидео: MPEG-4 AVC / 16997 kbps / 1920x1080 / 23,976 fps / 16:9 / High Profile 4.1Аудио #1: AC3 Dolby Digital 5.1 / 48 kHz / 448 kbps / 16 bits |Russian |Аудио #2: DTS-HD Master Audio / 5.1 / 48 kHz / 2417 kbps / 16 bits (DTS Core: 5.1 / 48 kHz / 1510 kbps / 16 bits) |English |Субтитры: английскиеВидео: Идентификатор : 1 Формат : AVC Формат/Информация : Advanced Video Codec Профиль формата : [email protected] Параметр CABAC формата : Да Параметр ReFrames формата : 4 кадра Режим смешивания : Container [email protected] Идентификатор кодека : V_MPEG4/ISO/AVC Продолжительность : 1 ч. 53 м. Вид битрейта : Переменный Максимальный битрейт : 35,0 Мбит/сек Ширина : 1920 пикселей Высота : 1080 пикселей Соотношение сторон : 16:9 Режим частоты кадров : Постоянный Частота кадров : 23,976 кадра/сек Стандарт вещания : NTSC Цветовое пространство : YUV Субдискретизация насыщенности : 4:2:0 Битовая глубина : 8 бит Тип развёртки : Прогрессивная Default : Да Forced : Нет Основные цвета : BT.709 Характеристики трансфера : BT.709 Коэффициенты матрицы : BT.709Аудио #1: Идентификатор : 2 Формат : AC-3 Формат/Информация : Audio Coding 3 Расширение режима : CM (complete main) Параметр Endianness формата : Big Идентификатор кодека : A_AC3 Продолжительность : 1 ч. 53 м. Вид битрейта : Постоянный Битрейт : 448 Кбит/сек Каналы : 6 каналов Расположение каналов : Front: L C R, Side: L R, LFE Частота : 48,0 КГц Битовая глубина : 16 бит Метод сжатия : С потерями Размер потока : 364 Мбайт (2%) Заголовок : Dub, R5 Язык : Russian Default : Да Forced : НетАудио #2: Идентификатор : 3 Формат : DTS Формат/Информация : Digital Theater Systems Профиль формата : MA / Core Режим : 16 Параметр Endianness формата : Big Идентификатор кодека : A_DTS Продолжительность : 1 ч. 53 м. Вид битрейта : Переменный Битрейт : Неизвестно / 1509 Кбит/сек Каналы : 6 каналов Расположение каналов : Front: L C R, Side: L R, LFE Частота : 48,0 КГц Битовая глубина : 16 бит Метод сжатия : Без потерь / Lossy Язык : English Default : Нет Forced : Нет 15,77 Gb 5 3
27 января 2016 10:15 Универсальный солдат 4 / Universal Soldier: Day of Reckoning (2012) DVDRip от olegek70 .torrent   [Информация о файле (нажмите для просмотра)] Перевод: ДублированныйКодек: XviD, AVIКачество: DVDRipВидео: XviD, 2121 Кбит/с, 704х304Звук: АС3, 6 ch, 448 Кбит/с 2,05 Gb 5 1
27 января 2016 10:15 Универсальный солдат 4 / Universal Soldier: Day of Reckoning (2012) DVDRip-AVC от potroks | D .torrent   [Информация о файле (нажмите для просмотра)] Перевод: Профессиональный (полное дублирование) Качество: DVDRip-AVC [DVD5]Формат: MKVВидео: H.264, 704x304 (2,32:1), 25,000 кадр/сек, 1653 Кбит/сек, 0.309 bit/pixelАудио: 48 kHz, AC3 Dolby Digital, 3/2 (L,C,R,l,r) + LFE ch, ~448.00 kbps avg 1,67 Gb 2 5
27 января 2016 10:15 Универсальный солдат 4 / Universal Soldier: Day of Reckoning (2012) DVD5 сжатый | Лицензия .torrent   [Информация о файле (нажмите для просмотра)] Перевод: Профессиональный (полное дублирование)Качество: DVD5 (сжатый)Формат: DVD VideoВидео: MPEG2; PAL 16:9 (720x576)Аудио: Dolby AC3, 6 ch, 448 KbpsRussianСубтитры: нетВидео: Идентификатор : 224 (0xE0) Формат : MPEG Video Версия формата : Version 2 Профиль формата : [email protected] Параметр BVOP формата : Да Параметр матрицы формата : Выборочная Продолжительность : 25 м. Вид битрейта : Переменный Битрейт : 5089 Кбит/сек Максимальный битрейт : 9000 Кбит/сек Ширина : 720 пикселей Высота : 576 пикселей Соотношение сторон : 16:9 Частота кадров : 25,000 кадров/сек Стандарт вещания : PAL Цветовое пространство : YUV Субдискретизация насыщенности : 4:2:0 Битовая глубина : 8 бит Тип развёртки : Чересстрочная Порядок развёртки : Верхнее поле первое Метод сжатия : С потерями Бит/(Пиксели*Кадры) : 0.491 Размер потока : 922 Мбайт (90%)Аудио: Идентификатор : 189 (0xBD)-129 (0x81) Формат : AC-3 Формат/Информация : Audio Coding 3 Расширение режима : CM (complete main) Режим смешивания : DVD-Video Продолжительность : 25 м. Вид битрейта : Постоянный Битрейт : 448 Кбит/сек Каналы : 6 каналов Расположение каналов : Front: L C R, Side: L R, LFE Частота : 48,0 КГц Битовая глубина : 16 бит Метод сжатия : С потерями Размер потока : 81,2 Мбайт (8%) 4,37 Gb 5 4
27 января 2016 10:15 Универсальный солдат 4 / Universal Soldier: Day of Reckoning (2012) DVD9 .torrent   [Информация о файле (нажмите для просмотра)] Перевод: дублированныйКодек: MPEG2Качество: DVD9Видео: PAL 16:9 () VBR, ~6135 KbpsЗвук: Аудио#1 - Русский (Dolby AC3, 2 ch), 48000 Hz, 192 Kbps Аудио#2 - Русский (Dolby AC3, 6 ch), 48000 Hz, 448 Kbps 5,37 Gb 2 3
27 января 2016 10:15 Универсальный солдат 4 / Universal Soldier: Day of Reckoning (2012) HDTVRip 720p | D .torrent   [Информация о файле (нажмите для просмотра)] Перевод: ДублированныйКачество: HDTVRip 720pКодек: H.264Видео: 1280 x 528 (2.424) at 23.976 fps : 0.182 Bits/PixelАудио: Видео: Идентификатор : 1 Формат : AVC Формат/Информация : Advanced Video Codec Профайл формата : [email protected] Параметры CABAC формата : Да Параметры ReFrames формата : 9 кадры Режим смешивания : Container [email protected] Идентификатор кодека : V_MPEG4/ISO/AVC Продолжительность : 1 ч. 53 м. Битрейт : 2957 Кбит/сек Ширина : 1280 пикс. Высота : 528 пикс. Соотношение кадра : 2,40:1 Частота кадров : 23,976 кадр/сек Разрешение : 24 бит Колориметрия : 4:2:0 Тип развёртки : Прогрессивная Бит/(Пиксели*Кадры) : 0.182 Размер потока : 2,34 Гигабайт (80%) Библиотека кодирования : x264 core 68 r1195bm 5d75a9b Настройки программы : cabac=1 / ref=9 / deblock=1:-1:-1 / analyse=0x3:0x113 / me=umh / subme=7 / psy_rd=0.0:2.0 / mixed_ref=1 / me_range=16 / chroma_me=1 / trellis=2 / 8x8dct=1 / cqm=0 / deadzone=21,11 / chroma_qp_offset=-2 / threads=1 / thread_queue=1 / nr=0 / decimate=1 / mbaff=0 / bframes=5 / b_pyramid=0 / b_adapt=1 / b_bias=0 / direct=1 / wpredb=1 / keyint=250 / keyint_min=25 / scenecut=40 / rc=crf / crf=16.0 / qcomp=0.60 / qpmin=10 / qpmax=51 / qpstep=4 / ip_ratio=1.40 / pb_ratio=1.30 / aq=2:1.00Аудио #1: Идентификатор : 2 Формат : AC-3 Формат/Информация : Audio Coding 3 Идентификатор кодека : A_AC3 Продолжительность : 1 ч. 53 м. Вид битрейта : Постоянный Битрейт : 448 Кбит/сек Канал(ы) : 6 канала(ов) Расположение каналов : Front: L C R, Surround: L R, LFE Частота : 48,0 КГц Размер потока : 363 Мегабайт (12%) Заголовок : DD 5.1 @ 448 kbps - Dub, R5 Язык : RussianАудио #2: Идентификатор : 3 Формат : AC-3 Формат/Информация : Audio Coding 3 Идентификатор кодека : A_AC3 Продолжительность : 1 ч. 53 м. Вид битрейта : Постоянный Битрейт : 192 Кбит/сек Канал(ы) : 2 канала(ов) Расположение каналов : L R Частота : 48,0 КГц Размер потока : 156 Мегабайт (5%) Заголовок : DD 2.0 @ 192 kbps 2,91 Gb 11 1
27 января 2016 10:15 Универсальный солдат 4 / Universal Soldier: Day of Reckoning (2012) HDTVRip .torrent   [Информация о файле (нажмите для просмотра)] Перевод: Профессиональный (полное дублирование)Кодек: XviDКачество: HDTVRipВидео: 640x272, 23.976 fps, 730 kbpsЗвук: МР3, 48 kHz, 2 ch, 128 kbps 703,99 Mb 2 2
27 января 2016 10:15 Универсальный солдат 4 / Universal Soldier: Day of Reckoning (2012) HDTVRip .torrent   [Информация о файле (нажмите для просмотра)] Формат: AVI (XviD)Качество: HDTVRipВидео: 1947 kb/s, 720x304Аудио: Russian: AC3, 448 kb/s (6 ch) / English: AC3, 192 kb/s (2 ch) 2,05 Gb 8 5
27 января 2016 10:15 Универсальный солдат 4 / Universal Soldier: Day of Reckoning (2012) HDTVRip .torrent   [Информация о файле (нажмите для просмотра)] Формат: AVI (XviD)Качество: HDTVRipВидео: 1279 kb/s, 720x304Аудио 1: AC3, 448 kb/s, (6 ch) 1,37 Gb 38 6

Универсальный солдат 4 2012 - скачать бесплатно через торрент в хорошем качестве. Без регистрации

www.kinovit.net

Название: Универсальный солдат 4 / Universal Soldier: Day of Reckoning (2012) BDRip 720p | D
Качество видео: BDRip 720p / DON
Перевод: Перевод: Профессиональный (дублированный)
Видео: - AVC,1280x548, 4513 kbps, 23.976 fps
Аудио: английскийRussian: 48 kHz, AC3, 3/2 (L,C,R,l,r) + LFE ch, ~448.00 kbps |R5|English: 48 kHz, DTS, 3/2 (L,C,R,l,r) + LFE ch, ~1536.00 kbps |Original|
Скачать

Загрузка начнется в течение 5 сек.

5.23 GB

Название: Универсальный солдат 4 / Universal Soldier: Day of Reckoning (2012) BDRip от HQCLUB | Лицензия
Качество видео: BDRip (источник: arxivariys / BD-Remux / 1080p)
Перевод: Профессиональный (полное дублирование) R5 + Оригинальная звуковая дорожка
Формат видео: AVI
Видео: 720x304 (2.37:1), 23.976 fps, XviD build 65 ~1849 kbps avg, 0.35 bit/pixel
Аудио: 48 kHz, AC3 Dolby Digital, 3/2 (L,C,R,l,r) + LFE ch, ~448.00 kbps avg48 kHz, AC3 Dolby Digital, 3/2 (L,C,R,l,r) + LFE ch, ~448.00 kbps avg
Скачать

Загрузка начнется в течение 5 сек.

2.18 GB

Название: Универсальный солдат 4 / Universal Soldier: Day of Reckoning (2012) Blu-ray 3D Disc [3D/2D]
Качество видео: Blu-Ray 1080p
Перевод: Дублированный (R5)
Видео: MPEG-4 AVC 15920 Кбит/с, 10973 Кбит/с, 1920x1080, 23.976 кадр/с
Аудио: Русский (AC3, 6 ch, 448 Кбит/с)Английский (DTS-HD MA, 6 ch, 2417 Кбит/с)
Скачать

Загрузка начнется в течение 5 сек.

29.36 GB

Название: Универсальный солдат 4 / Universal Soldier: Day of Reckoning (2012) BDRip 720p | Лицензия
Качество видео: BDRip 720p [IRONCLUB]
Перевод: Дублированное [лицензия]
Формат видео: MKV (x264)
Видео: 3901 kb/s, 1280x546
Аудио: Russian: AC3, 448 kb/s (6 ch) / English: DTS, 1510 kb/s (6 ch)
Скачать

Загрузка начнется в течение 5 сек.

4.75 GB

Название: Универсальный солдат 4 / Universal Soldier: Day of Reckoning (2012) BDRip 1080p | 3D-Video
Качество видео: BDRip (1080p)
Перевод: Дублированный
Видео: MPEG-4 AVC, 12.9 Мбит/с, 1920x1080
Аудио: Русский (AC3, 6 ch, 448 Кбит/с), английский (AC3, 6 ch, 640 Кбит/с)
Скачать

Загрузка начнется в течение 5 сек.

11.33 GB

Название: Универсальный солдат 4 / Universal Soldier: Day of Reckoning (2012) BDRip-AVC | iPad | Лицензия
Качество видео: BDRip / 576p
Перевод: Дублированный
Формат видео: MP4 (контейнер m4v)
Видео: H.264/AVC 1024x438 (2.35:1) at 23.976 fps, AVC at 1877 kbps avg, 0.175 bit/pixel
Аудио: английская
Скачать

Загрузка начнется в течение 5 сек.

1.81 GB

Название: Универсальный солдат 4 / Universal Soldier: Day of Reckoning (2012) HDRip от Scarabey | Лицензия
Перевод: Профессиональный (дублированный) [Лицензия]
Формат видео: HDRip
Видео: AVI 640x272 (2.35:1), 23.976 fps, XviD build 50 ~779 kbps avg, 0.19 bit/pixel
Аудио: 48 kHz, MPEG Layer 3, 2 ch, ~128.00 kbps avg
Скачать

Загрузка начнется в течение 5 сек.

745.20 MB

Название: Универсальный солдат 4 / Universal Soldier: Day of Reckoning (2012) BDRip 1080p от R.G. GoldenShara | Лицензия
Качество видео: BDRip [1080p]
Перевод: Профессиональный (полное дублирование) [Лицензия]
Видео: 1920x816, 5053 Кбит/сек, 23,976 кадр/сек, AVC, x264, 2,35:1, 0.135 Бит/[Пиксели*Кадры], 2pass
Аудио: AC-3, 448 Кбит/сек, 6 канала(ов), 48,0 КГц
Скачать

Загрузка начнется в течение 5 сек.

4.37 GB

Название: Универсальный солдат 4 / Universal Soldier: Day of Reckoning (2012) BDRip
Качество видео: BDRip (исх. BD-Remux 1080p)
Перевод: Профессиональный (дублированный)
Видео: XviD 640x272 (2.35:1), 23.976 fps, ~780 kbps, 0.187 bpp
Аудио: Русский: MP3, 2 ch, 48 kHz, ~128 kbps
Скачать

Загрузка начнется в течение 5 сек.

746.28 MB

Название: Универсальный солдат 4 / Universal Soldier: Day of Reckoning (2012) BDRip-AVC от potroks | Лицензия
Перевод: Профессиональный (полное дублирование) лицензия
Формат видео: MKV
Видео: H.264, 1032x440 (2,35:1), 23.976 кадр/сек, 1858 Кбит/сек, 0.171 bit/pixel
Аудио: 48 kHz, AC3 Dolby Digital, 3/2 (L,C,R,l,r) + LFE ch, ~448.00 kbps avg | RUS48 kHz, AC3 Dolby Digital, 3/2 (L,C,R,l,r) + LFE ch, ~448.00 kbps avg | ENG
Скачать

Загрузка начнется в течение 5 сек.

2.19 GB

Название: Универсальный солдат 4 / Universal Soldier: Day of Reckoning (2012) BDRemux
Качество видео: BDRemux 1080p
Перевод: Профессиональный (полное дублирование)
Видео: MPEG-4 AVC / 16997 kbps / 1920x1080 / 23,976 fps / 16:9 / High Profile 4.1
Аудио: AC3 Dolby Digital 5.1 / 48 kHz / 448 kbps / 16 bits | Russian |DTS-HD Master Audio / 5.1 / 48 kHz / 2417 kbps / 16 bits (DTS Core: 5.1 / 48 kHz / 1510 kbps / 16 bits) | English |
Скачать

Загрузка начнется в течение 5 сек.

15.77 GB

Название: Универсальный солдат 4 / Universal Soldier: Day of Reckoning (2012) DVDRip-AVC от olegek70
Качество видео: DVDRip-AVC
Перевод: Дублированный
Видео: MKV, H.264 MPEG-4 AVC, 2292 Кбит/с, 1024х440
Аудио: АС3, 6 ch, 448 Кбит/с
Скачать

Загрузка начнется в течение 5 сек.

2.18 GB

Название: Универсальный солдат 4 / Universal Soldier: Day of Reckoning (2012) DVDRip от olegek70
Качество видео: DVDRip
Перевод: Дублированный
Видео: XviD, AVI XviD, 2121 Кбит/с, 704х304
Аудио: АС3, 6 ch, 448 Кбит/с
Скачать

Загрузка начнется в течение 5 сек.

2.05 GB

Название: Универсальный солдат 4 / Universal Soldier: Day of Reckoning (2012) DVDRip-AVC от potroks | D
Перевод: Профессиональный (полное дублирование)
Формат видео: MKV
Видео: H.264, 704x304 (2,32:1), 25,000 кадр/сек, 1653 Кбит/сек, 0.309 bit/pixel
Аудио: 48 kHz, AC3 Dolby Digital, 3/2 (L,C,R,l,r) + LFE ch, ~448.00 kbps avg
Скачать

Загрузка начнется в течение 5 сек.

1.67 GB

Название: Универсальный солдат 4 / Universal Soldier: Day of Reckoning (2012) DVDRip | КПК от Generalfilm
Качество видео: DVDRip | КПК
Видео: кодек: x264, формат: mp4, размер кадра: 480х200, битрейт: 350 кб/с
Аудио: язык: русский, перевод: Дублированный (дубляж), кодек: AAC LC 2.0, битрейт: 128 кб/с
Скачать

Загрузка начнется в течение 5 сек.

389.13 MB

Название: Универсальный солдат 4 / Universal Soldier: Day of Reckoning (2012) DVD9
Качество видео: DVD9
Перевод: дублированный
Видео: MPEG2 PAL 16:9 ([email protected]) VBR, ~6135 Kbps
Скачать

Загрузка начнется в течение 5 сек.

5.37 GB

Название: Универсальный солдат 4 / Universal Soldier: Day of Reckoning (2012) DVD5 сжатый | Лицензия
Качество видео: DVD5 (сжатый)
Перевод: Профессиональный (полное дублирование)
Формат видео: DVD Video
Видео: MPEG2; PAL 16:9 (720x576)
Аудио: Dolby AC3, 6 ch, 448 Kbps Russian
Скачать

Загрузка начнется в течение 5 сек.

4.37 GB

Название: Универсальный солдат 4 / Universal Soldier: Day of Reckoning (2012) WEB-DLRip от Scarabey
Перевод: Профессиональный (дублированный)
Формат видео: WEB-DLRip
Видео: AVI 720x304 (2.37:1), 23.976 fps, XviD MPEG-4 ~1501 kbps avg, 0.29 bit/pixel
Аудио: 48 kHz, AC3 Dolby Digital, 2/0 (L,R) ch, ~192.00 kbps avg48 kHz, AC3 Dolby Digital, 2/0 (L,R) ch, ~192.00 kbps avg - оригинал
Скачать

Загрузка начнется в течение 5 сек.

1.50 GB

Название: Универсальный солдат 4 / Universal Soldier: Day of Reckoning (2012) HDTVRip
Качество видео: HDTVRip
Перевод: Профессиональный (полное дублирование)
Видео: XviD 640x272, 23.976 fps, 730 kbps
Аудио: МР3, 48 kHz, 2 ch, 128 kbps
Скачать

Загрузка начнется в течение 5 сек.

703.99 MB

Название: Универсальный солдат 4 / Universal Soldier: Day of Reckoning (2012) HDTVRip 720p | D
Качество видео: HDTVRip 720p
Перевод: Дублированный
Видео: H.264 1280 x 528 (2.424) at 23.976 fps : 0.182 Bits/Pixel
Скачать

Загрузка начнется в течение 5 сек.

2.91 GB

Название: Универсальный солдат 4 / Universal Soldier: Day of Reckoning (2012) WEBRip | D
Качество видео: WEBRip
Перевод: Дублированное [лицензия]
Формат видео: AVI (XviD)
Видео: 1947 kb/s, 720x304
Аудио: Russian: AC3, 448 kb/s (6 ch) / English: AC3, 192 kb/s (2 ch)
Скачать

Загрузка начнется в течение 5 сек.

2.05 GB

Название: Универсальный солдат 4 / Universal Soldier: Day of Reckoning (2012) HD 720p | трейлер
Качество видео: HD 720p
Перевод: Полное дублированние
Видео: h364 1280x720, 24fps, 1 734 Kbps
Аудио: AAC 44100Hz stereo 192 Kbps
Скачать

Загрузка начнется в течение 5 сек.

30.63 MB

Универсальный солдат 4 через торрент

piratbit.ru

Размер: 2.05 GB | Добавлен: 4 года 10 мес. назад | Торрент скачан:257 раз
Реклама Дарим 3000 рублей за регистрацию, не упусти свой шанс получить шикарный бонус!!!

16-12-2012 17:14 Универсальный солдат 4 Скачать торрент  

Универсальный солдат 4 / Universal Soldier: Day of Reckoning

Год выпуска: 2012Страна: CША, Foresight Unlimited / Signature Pictures / Baumgarten ManagementЖанр: фантастика, боевикПродолжительность: 01:53:37Перевод: Дубляж, Лицензия

Режиссер: Джон Хайамс

В ролях: Жан-Клод Ван Дамм, Скотт Эдкинс, Андрей Арловский, Дольф Лундгрен, Кристофер Ван Варенберг, Джеймс Роулингс, Дэвид Дженсен, Мария Боннер, Рас Блэквелл, Остин Нолти

Описание: Настоящее время. Программа «Unisol» по-прежнему актуальна и снова введена в эксплуатацию. Давним и непримиримым врагам времён Вьетнамской войны Эндрю Скотту и Люку Деверо суждено встретиться в очередной раз, дабы продолжить своё извечное противостояние и нескончаемую борьбу. Однако, новые опасности и трудности заставляют двух солдат на время объединиться пред лицом общей неприятности, что весьма ненадолго. Ясно одно: кровавый исход и брутальный финал неизбежен…

Доп. информация: Качество: HDRipФормат: AVIВидео кодек: XviDАудио кодек: AC3Видео: 720x304 (2.37:1), 23.976 fps, XviD build 50 ~1941 kbps avg, 0.37 bit/pixelАудио#1: 48 kHz, AC3 Dolby Digital, 3/2 (L,C,R,l,r) + LFE ch, ~448 kbps |RussianАудио#2: 48 kHz, MPEG Layer 3, 2 ch, ~192.00 kbps avg | English

Video #0ID : 0Format : MPEG-4 VisualFormat profile : Advanced [email protected] settings, BVOP : 2Format settings, QPel : NoFormat settings, GMC : No warppointsFormat settings, Matrix : CustomCodec ID : XVIDCodec ID/Hint : XviDDuration : 1h 53mnBit rate : 1 930 KbpsWidth : 720 pixelsHeight : 304 pixelsDisplay aspect ratio : 2.35:1Frame rate : 23.976 fpsColor space : YUVChroma subsampling : 4:2:0Bit depth : 8 bitsScan type : ProgressiveCompression mode : LossyBits/(Pixel*Frame) : 0.368Stream size : 1.53 GiB (75%)Writing library : XviD 1.2.1 (UTC 2008-12-04)Audio #1ID : 1Format : AC-3Format/Info : Audio Coding 3Mode extension : CM (complete main)Format settings, Endianness : BigCodec ID : 2000Duration : 1h 53mnBit rate mode : ConstantBit rate : 448 KbpsChannel(s) : 6 channelsChannel positions : Front: L C R, Side: L R, LFESampling rate : 48.0 KHzBit depth : 16 bitsCompression mode : LossyStream size : 364 MiB (17%)Alignment : Split accross interleavesInterleave, duration : 42 ms (1.00 video frame)Interleave, preload duration : 500 msAudio #2ID : 2Format : MPEG AudioFormat version : Version 1Format profile : Layer 3Mode : Joint stereoCodec ID : 55Codec ID/Hint : MP3 Duration : 1h 53mnBit rate mode : ConstantBit rate : 192 KbpsChannel(s) : 2 channelsSampling rate : 48.0 KHzCompression mode : LossyStream size : 156 MiB (7%)Alignment : Aligned on interleavesInterleave, duration : 42 ms (1.00 video frame)Interleave, preload duration : 504 msWriting library : LAME3.99 Encoding settings : -m j -V 4 -q 2 -lowpass 18.6 -b 192

Скачать Универсальный солдат 4 через торрент http://i080.radikal.ru/1212/63/7a53524f75ac.png Скачать фильм Универсальный солдат 4 через торрент бесплантно в хорошем качестве Описание: Настоящее время. Программа «Unisol» по-прежнему актуальна и снова введена в эксплуатацию. Давним и непримиримым врагам времён ... 2012-12-16 17:14 5 10 1

Loading...

Loading...

Рекламный пират

16-12-2012 17:39 Универсальный солдат 4 Скачать торрент  

Дорогой пользователь! Огромная просьба, поблагодарите релизера, оцените раздачу и оставьте свои комментарий, если Вы скачали Универсальный солдат 4 через торрент бесплатно! Внесите свою лепту в развитие PiratBit!

Комментировать посты могут только пользователи прошедшие не сложную регистрацию

Универсальный солдат 4 через торрент Скачать бесплатно Универсальный солдат 4 Универсальный солдат 4 скачать торрент Универсальный солдат 4 смотреть онлайн Cкачать фильм Универсальный солдат 4 бесплатно Универсальный солдат 4 скачать торрент в хорошем качестве Универсальный солдат 4 смотреть онлайн бесплатно в хорошем качестве

Вы не можете начинать темыВы не можете отвечать на сообщенияВы не можете редактировать свои сообщенияВы не можете удалять свои сообщенияВы не можете голосовать в опросахВы не можете прикреплять файлы к сообщениямВы можете скачивать файлы


Смотрите также