Скачать угнать за 60 секунд скачать через торрент в хорошем качестве бесплатно


Скачать фильм Угнать за 60 секунд через торрент в хорошем качестве бесплатно 720p

GeneralUnique ID : 238272216570091466415603496627831018512 (0xB3418F473D6FEE1499EE45A2B25F9410)Complete name : A:\720p 60fps\Угнать за 60 секунд 720p 60fps.mkvFormat : MatroskaFormat version : Version 4 / Version 2File size : 5.37 GiBDuration : 1h 58mnOverall bit rate : 6 465 KbpsEncoded date : UTC 2014-08-07 10:35:29Writing application : mkvmerge v6.9.1 ('Blue Panther') 64bit built on Apr 18 2014 18:23:38Writing library : libebml v1.3.0 + libmatroska v1.4.1

VideoID : 1Format : AVCFormat/Info : Advanced Video CodecFormat profile : [email protected] settings, CABAC : YesFormat settings, ReFrames : 9 framesCodec ID : V_MPEG4/ISO/AVCDuration : 1h 58mnBit rate : 5 057 KbpsWidth : 1 280 pixelsHeight : 544 pixelsDisplay aspect ratio : 2.35:1Frame rate : 59.940 fpsColor space : YUVChroma subsampling : 4:2:0Bit depth : 8 bitsScan type : ProgressiveBits/(Pixel*Frame) : 0.121Stream size : 4.20 GiB (78%)Writing library : x264 core 130 r2273 b3065e6Encoding settings : cabac=1 / ref=9 / deblock=1:-1:-1 / analyse=0x3:0 / me=umh / subme=9 / psy=1 / psy_rd=1.00:0.10 / mixed_ref=1 / me_range=42 / chroma_me=0 / trellis=2 / 8x8dct=1 / cqm=0 / deadzone=21,11 / fast_pskip=0 / chroma_qp_offset=-3 / threads=12 / lookahead_threads=1 / sliced_threads=0 / nr=0 / decimate=0 / interlaced=0 / bluray_compat=0 / constrained_intra=0 / bframes=6 / b_pyramid=2 / b_adapt=2 / b_bias=0 / direct=1 / weightb=1 / open_gop=0 / weightp=2 / keyint=594 / keyint_min=59 / scenecut=40 / intra_refresh=0 / rc=crf / mbtree=0 / crf=15.0 / qcomp=0.60 / qpmin=0 / qpmax=69 / qpstep=4 / ip_ratio=1.40 / pb_ratio=1.30 / aq=0Language : EnglishDefault : YesForced : No

Audio #1ID : 2Format : AC-3Format/Info : Audio Coding 3Mode extension : CM (complete main)Codec ID : A_AC3Duration : 1h 58mnBit rate mode : ConstantBit rate : 640 KbpsChannel(s) : 6 channelsChannel positions : Front: L C R, Side: L R, LFESampling rate : 48.0 KHzBit depth : 16 bitsCompression mode : LossyStream size : 544 MiB (10%)Title : Дубляж BD CEELanguage : RussianDefault : NoForced : No

Audio #2ID : 3Format : AC-3Format/Info : Audio Coding 3Mode extension : CM (complete main)Codec ID : A_AC3Duration : 1h 58mnBit rate mode : ConstantBit rate : 640 KbpsChannel(s) : 6 channelsChannel positions : Front: L C R, Side: L R, LFESampling rate : 48.0 KHzBit depth : 16 bitsCompression mode : LossyStream size : 544 MiB (10%)Title : OriginalLanguage : EnglishDefault : NoForced : No

Text #1ID : 4Format : UTF-8Codec ID : S_TEXT/UTF8Codec ID/Info : UTF-8 Plain TextTitle : ПолныеLanguage : RussianDefault : NoForced : No

Text #2ID : 5Format : UTF-8Codec ID : S_TEXT/UTF8Codec ID/Info : UTF-8 Plain TextTitle : ПолныеLanguage : EnglishDefault : NoForced : No

Menu00:00:00.000 : en:Opening Credits/Family Album00:03:24.413 : en:Boost Gone Bad00:08:45.066 : en:Message to Memphis00:11:54.422 : en:Emotional Rescue00:16:54.180 : en:Brotherly Love00:18:42.872 : en:Police Hospitality00:23:36.332 : en:Second Chances00:26:49.691 : en:Old Friends00:31:58.250 : en:Turf War00:33:36.973 : en:Free Advice00:36:23.431 : en:Tough Decision00:38:42.320 : en:Trap Set00:39:33.705 : en:Complicated List00:42:11.362 : en:Catching a Thief00:44:18.864 : en:The Scout00:48:42.545 : en:Johnny B. Good00:52:55.506 : en:Unexpected Visitor00:58:43.854 : en:"Hello Ladies"01:06:14.887 : en:Dirty Girls01:11:07.388 : en:Back to Work01:13:43.169 : en:Cars or Sex?01:17:29.979 : en:Decoy01:19:38.524 : en:Gotcha!01:21:23.587 : en:Business Risk01:26:47.118 : en:Eleanor01:32:52.233 : en:Lesson Learned01:34:18.653 : en:Just a Scratch01:38:27.818 : en:Big Jump01:40:06.417 : en:Time's Up01:44:12.705 : en:Painful Mistake01:48:39.263 : en:BBQ01:51:48.160 : en:End Credits

piratbit.ru

Скачать фильм Угнать за 60 секунд через торрент в хорошем качестве бесплатно 1080p

GeneralUnique ID : 221101837029528808808319214497862645611 (0xA656AA34E1DD5644943F7F1B94E1F76B)Complete name : A:\1080p 60fps\Угнать за 60 секунд 1080p 60fps.mkvFormat : MatroskaFormat version : Version 4 / Version 2File size : 10.0 GiBDuration : 1h 58mnOverall bit rate : 12.1 MbpsEncoded date : UTC 2014-08-07 10:41:16Writing application : mkvmerge v6.9.1 ('Blue Panther') 64bit built on Apr 18 2014 18:23:38Writing library : libebml v1.3.0 + libmatroska v1.4.1

VideoID : 1Format : AVCFormat/Info : Advanced Video CodecFormat profile : [email protected] settings, CABAC : YesFormat settings, ReFrames : 4 framesCodec ID : V_MPEG4/ISO/AVCDuration : 1h 58mnBit rate : 10.6 MbpsWidth : 1 920 pixelsHeight : 816 pixelsDisplay aspect ratio : 2.35:1Frame rate : 59.940 fpsColor space : YUVChroma subsampling : 4:2:0Bit depth : 8 bitsScan type : ProgressiveBits/(Pixel*Frame) : 0.113Stream size : 8.78 GiB (87%)Writing library : x264 core 130 r2273 b3065e6Encoding settings : cabac=1 / ref=4 / deblock=1:-1:-1 / analyse=0x3:0 / me=umh / subme=9 / psy=1 / psy_rd=1.00:0.10 / mixed_ref=1 / me_range=42 / chroma_me=0 / trellis=2 / 8x8dct=1 / cqm=0 / deadzone=21,11 / fast_pskip=0 / chroma_qp_offset=-3 / threads=12 / lookahead_threads=1 / sliced_threads=0 / nr=0 / decimate=0 / interlaced=0 / bluray_compat=0 / constrained_intra=0 / bframes=5 / b_pyramid=2 / b_adapt=2 / b_bias=0 / direct=1 / weightb=1 / open_gop=0 / weightp=2 / keyint=594 / keyint_min=59 / scenecut=40 / intra_refresh=0 / rc=crf / mbtree=0 / crf=15.0 / qcomp=0.60 / qpmin=0 / qpmax=69 / qpstep=4 / ip_ratio=1.40 / pb_ratio=1.30 / aq=0Language : EnglishDefault : YesForced : No

Audio #1ID : 2Format : AC-3Format/Info : Audio Coding 3Mode extension : CM (complete main)Codec ID : A_AC3Duration : 1h 58mnBit rate mode : ConstantBit rate : 640 KbpsChannel(s) : 6 channelsChannel positions : Front: L C R, Side: L R, LFESampling rate : 48.0 KHzBit depth : 16 bitsCompression mode : LossyStream size : 544 MiB (5%)Title : Дубляж BD CEELanguage : RussianDefault : NoForced : No

Audio #2ID : 3Format : AC-3Format/Info : Audio Coding 3Mode extension : CM (complete main)Codec ID : A_AC3Duration : 1h 58mnBit rate mode : ConstantBit rate : 640 KbpsChannel(s) : 6 channelsChannel positions : Front: L C R, Side: L R, LFESampling rate : 48.0 KHzBit depth : 16 bitsCompression mode : LossyStream size : 544 MiB (5%)Title : OriginalLanguage : EnglishDefault : NoForced : No

Text #1ID : 4Format : UTF-8Codec ID : S_TEXT/UTF8Codec ID/Info : UTF-8 Plain TextTitle : ПолныеLanguage : RussianDefault : NoForced : No

Text #2ID : 5Format : UTF-8Codec ID : S_TEXT/UTF8Codec ID/Info : UTF-8 Plain TextTitle : ПолныеLanguage : EnglishDefault : NoForced : No

Menu00:00:00.000 : en:Opening Credits/Family Album00:03:24.413 : en:Boost Gone Bad00:08:45.066 : en:Message to Memphis00:11:54.422 : en:Emotional Rescue00:16:54.180 : en:Brotherly Love00:18:42.872 : en:Police Hospitality00:23:36.332 : en:Second Chances00:26:49.691 : en:Old Friends00:31:58.250 : en:Turf War00:33:36.973 : en:Free Advice00:36:23.431 : en:Tough Decision00:38:42.320 : en:Trap Set00:39:33.705 : en:Complicated List00:42:11.362 : en:Catching a Thief00:44:18.864 : en:The Scout00:48:42.545 : en:Johnny B. Good00:52:55.506 : en:Unexpected Visitor00:58:43.854 : en:"Hello Ladies"01:06:14.887 : en:Dirty Girls01:11:07.388 : en:Back to Work01:13:43.169 : en:Cars or Sex?01:17:29.979 : en:Decoy01:19:38.524 : en:Gotcha!01:21:23.587 : en:Business Risk01:26:47.118 : en:Eleanor01:32:52.233 : en:Lesson Learned01:34:18.653 : en:Just a Scratch01:38:27.818 : en:Big Jump01:40:06.417 : en:Time's Up01:44:12.705 : en:Painful Mistake01:48:39.263 : en:BBQ01:51:48.160 : en:End Credits

piratbit.ru

Угнать за 60 секунд через торрент

piratbit.ru

Размер: 1.46 GB | Добавлен: 4 года 9 мес. назад | Торрент скачан:541 раз
Реклама Дарим 3000 рублей за регистрацию, не упусти свой шанс получить шикарный бонус!!!

30-12-2012 19:53 Угнать за 60 секунд Скачать торрент  

Угнать за 60 секунд [Unrated] / Gone in Sixty Seconds [Режиссерская версия]

Год выпуска: 2000Страна: СШАЖанр: боевик, триллер, криминалПродолжительность: 02:07:26Перевод: Дубляж, Лицензия

Режиссер: Доминик СенаПродюссер: Джерри Брукхаймер, Майк Стенсон, Денис Шакарян ГалицкиСценарий: Г.Б. Галицки, Скотт Розенберг

Мировой рейтинг IMDB 6.30 (134 768)

В ролях: Николас Кейдж, Анджелина Джоли, Джованни Рибизи, Роберт Дюваль, Уилл Пэттон, Делрой Линдо, Тимоти Олифант, Скотт Каан, Кристофер Экклстон, Винни Джонс, Петр Семак, Евгения Игумнова, Евгений Иванов, Андрей Толубеев, Валерий Кухарешин

Описание: Что можно успеть за 60 секунд? Выкурить сигарету или выпить чашку кофе. Но только один профессионал в мире, легендарный вор по кличке Мемфис, может за считанные секунды угнать любой автомобиль.Однако на этот раз ему предстоит сделать невозможное: чтобы спасти своего брата, Мемфис должен за одну ночь угнать 50 первоклассных машин. Чтобы вырваться из двойного капкана мафии и полиции, он должен следовать одному принципу — не останавливаться...

Качество: DVDRipФормат: AVIВидео кодек: XviDАудио кодек: AC3Видео: 720x304 (2.37:1), 23.976 fps, XviD build 65 ~1182 kbps avg, 0.23 bit/pixelАудио: 48 kHz, AC3 Dolby Digital, 3/2 (L,C,R,l,r) + LFE ch, ~448 kbps

GeneralComplete name : D:Ugnat'.Za.60.Sekund.UNRATED.2000.D.DVDRip.aviFormat : AVIFormat/Info : Audio Video InterleaveFile size : 1.46 GiBDuration : 2h 7mnOverall bit rate : 1 640 KbpsWriting application : VirtualDubMod 1.5.10.3 | www.virtualdub-fr.org || (build 2550/release)Writing library : VirtualDubMod build 2550/release

VideoID : 0Format : MPEG-4 VisualFormat profile : Advanced [email protected] settings, BVOP : 1Format settings, QPel : NoFormat settings, GMC : No warppointsFormat settings, Matrix : CustomCodec ID : XVIDCodec ID/Hint : XviDDuration : 2h 7mnBit rate : 1 183 KbpsWidth : 720 pixelsHeight : 304 pixelsDisplay aspect ratio : 2.35:1Frame rate : 23.976 fpsColor space : YUVChroma subsampling : 4:2:0Bit depth : 8 bitsScan type : ProgressiveCompression mode : LossyBits/(Pixel*Frame) : 0.225Stream size : 1.05 GiB (72%)Writing library : XviD 65

AudioID : 1Format : AC-3Format/Info : Audio Coding 3Mode extension : CM (complete main)Format settings, Endianness : BigCodec ID : 2000Duration : 2h 7mnBit rate mode : ConstantBit rate : 448 KbpsChannel(s) : 6 channelsChannel positions : Front: L C R, Side: L R, LFESampling rate : 48.0 KHzBit depth : 16 bitsCompression mode : LossyStream size : 408 MiB (27%)Alignment : Split accross interleavesInterleave, duration : 42 ms (1.00 video frame)Interleave, preload duration : 500 ms

Угнать за 60 секунд скачать торрент

Скачать Угнать за 60 секунд через торрент http://i43.fastpic.ru/big/2012/0818/a3/89ffc1106170d0dff35e2d08373c19a3.png Скачать фильм Угнать за 60 секунд [Unrated] через торрент бесплантно в хорошем качестве Описание: Что можно успеть за 60 секунд? Выкурить сигарету или выпить чашку кофе. Но только один профессионал в мире, легендарный вор по ... 2012-12-30 19:53 9.9 10 22

Loading...

Loading...

Рекламный пират

08-02-2013 23:24 Угнать за 60 секунд Скачать торрент  

Спасибо! Подскажи, а что добавили в режиссёрке? Просто раньше только обычную смотрел)

Дорогой пользователь! Огромная просьба, поблагодарите релизера, оцените раздачу и оставьте свои комментарий, если Вы скачали Угнать за 60 секунд через торрент бесплатно! Внесите свою лепту в развитие PiratBit!

Комментировать посты могут только пользователи прошедшие не сложную регистрацию

Угнать за 60 секунд через торрент Скачать бесплатно Угнать за 60 секунд Угнать за 60 секунд скачать торрент Угнать за 60 секунд смотреть онлайн Cкачать фильм Угнать за 60 секунд бесплатно Угнать за 60 секунд скачать торрент в хорошем качестве Угнать за 60 секунд смотреть онлайн бесплатно в хорошем качестве

Вы не можете начинать темыВы не можете отвечать на сообщенияВы не можете редактировать свои сообщенияВы не можете удалять свои сообщенияВы не можете голосовать в опросахВы не можете прикреплять файлы к сообщениямВы можете скачивать файлы

Скачать фильм Угнать за 60 секунд через торрент в хорошем качестве бесплатно 720p

piratbit.ru

Размер: 4.57 GB | Добавлен: 7 лет 7 мес. назад | Торрент скачан:183 раза
Реклама Дарим 3000 рублей за регистрацию, не упусти свой шанс получить шикарный бонус!!!

21-03-2010 17:08 Угнать за 60 секунд Скачать торрент  

Угнать за 60 секунд / Gone in 60 Seconds

Год выпуска: 2000Страна: СШАЖанр: боевик, триллер, криминалПродолжительность: 01:57:56Перевод: Дублированный + Оригинальная дорожка

Режиссер: Доминик Сена

Продюссер: Джерри Брукхаймер, Denice Shakarian Halicki, Джонатан Хенсли

Сценарий: Г.Б. Галицки, Скотт Розенберг

Бюджет: $90 000 000

Премьера в мире: 5 июня 2000

В ролях: Николас Кейдж, Энджелина Джоли, Джованни Рибизи, Делрой Линдо, Уилл Пэттон, Кристофер Экклстон,Скотт Каан,Джеймс ДювалОписание: Что можно успеть за 60 секунд? Выкурить сигарету или выпить чашку кофе. Но только один профессионал в мире, легендарный вор по кличке Мемфис, может за считанные секунды угнать любой автомобиль.Однако на этот раз ему предстоит сделать невозможное: чтобы спасти своего брата, Мемфис должен за одну ночь угнать 50 первоклассных машин. Чтобы вырваться из двойного капкана мафии и полиции, он должен следовать одному принципу — не останавливаться…Качество: BDRipФормат: MKVВидео кодек: H.26xАудио кодек: AC3Видео: 1280x544, 23.976 fps, ~ 4 517 KbpsАудио#1: Russian:48 kHz, AC3, 6 ch, 384 kbps Аудио#2: English:48 KHz, AC3, 6 ch,640 Kbps Скачать Угнать за 60 секунд через торрент http://piratbit.in.ua/0dd6275349621e41c58effa6697541fd.jpg Скачать фильм Угнать за 60 секунд через торрент бесплантно в хорошем качестве Описание: Что можно успеть за 60 секунд? Выкурить сигарету или выпить чашку кофе. Но только один профессионал в мире, легендарный вор по ... 2010-03-21 17:08 10 10 4

Loading...

Loading...

Рекламный пират

21-03-2010 17:12 Угнать за 60 секунд Скачать торрент  

Один из моих любимых фильмов.

03-03-2012 14:35 Угнать за 60 секунд Скачать торрент  

встаньте на раздачу плиз

17-03-2012 16:27 Угнать за 60 секунд Скачать торрент  

Супер, мой любимый фильм детства.

17-03-2012 17:04 Угнать за 60 секунд Скачать торрент  

Да уж, раздача жуть. Не качается вообще.

18-03-2012 08:42 Угнать за 60 секунд Скачать торрент  

Чёрт, вот тогда были фильмы... =)

Дорогой пользователь! Огромная просьба, поблагодарите релизера, оцените раздачу и оставьте свои комментарий, если Вы скачали Угнать за 60 секунд через торрент бесплатно! Внесите свою лепту в развитие PiratBit!

Комментировать посты могут только пользователи прошедшие не сложную регистрацию

Угнать за 60 секунд через торрент Скачать бесплатно Угнать за 60 секунд Угнать за 60 секунд скачать торрент Угнать за 60 секунд смотреть онлайн Cкачать фильм Угнать за 60 секунд бесплатно Угнать за 60 секунд скачать торрент в хорошем качестве Угнать за 60 секунд смотреть онлайн бесплатно в хорошем качестве

Вы не можете начинать темыВы не можете отвечать на сообщенияВы не можете редактировать свои сообщенияВы не можете удалять свои сообщенияВы не можете голосовать в опросахВы не можете прикреплять файлы к сообщениямВы можете скачивать файлы

Скачать фильм Угнать за 60 секунд через торрент в хорошем качестве бесплатно BDRip

piratbit.ru

Размер: 1.45 GB | Добавлен: 4 года 1 мес. назад | Торрент скачан:241 раз
Реклама Дарим 3000 рублей за регистрацию, не упусти свой шанс получить шикарный бонус!!!

28-08-2013 18:55 Угнать за 60 секунд Скачать торрент  

Угнать за 60 секунд / Gone in 60 Seconds«Let the wrecking begin» Год выпуска: 1974Страна: СШАЖанр: боевик, драма, криминалПродолжительность: 01:37:46Перевод: Профессиональный (двухголосый, закадровый)

Режиссер: Г.Б. Галицки

В ролях: Г.Б. Галицки, Мэрион Бусиа, Jerry Daugirda, Джеймс Макинтайр, Джордж Коул, Рональд Галицки, Markos Kotsikos, Батч Стоктон, Фил Вудс, J.C. Agajanian Jr

Описание: Его работа — кража автомобилей. Его последний контракт: угнать 40 машин за одну неделю. Но полицейские не желают мириться с ролью статистов — захватывающая гонка начинается!

Качество: BDRip (источник: Тарантиныч / Blu-Ray Remux / 1080р)Формат: AVIВидео кодек: XviDАудио кодек: AC3Видео: 704x384 (1.83:1), 23.976 fps, XviD build 65 ~1730 kbps avg, 0.27 bit/pixelАудио: 48 kHz, AC3, 3/2 (L,C,R,l,r) + LFE ch, ~384.00 kbps avg

Релиз: [img]http://pb.wtf/goo.php?url=http://pb.wtf/goo.php?url=http://imageban.ru/out/2009/11/03/8ef018797a161dbcd4daec609e9f1048.png[/img]

E:INTERNETUgnat.za.60.sekund.1974.RUS.BDRip.XviD.AC3.avi General Complete name : E:INTERNETUgnat.za.60.sekund.1974.RUS.BDRip.XviD.AC3.avi Format : AVI Format/Info : Audio Video Interleave File size : 1.45 GiB Duration : 1h 37mn Overall bit rate : 2 124 Kbps Movie name : Угнать за 60 секунд / Gone in 60 Seconds (1974) BDRip Director : yaroslaigor Genre : боевик, драма, криминал Writing application : VirtualDubMod 1.5.10.2 (build 2542/release)

Video #0ID : 0Format : MPEG-4 VisualFormat profile : Advanced [email protected] settings, BVOP : 1Format settings, QPel : NoFormat settings, GMC : No warppointsFormat settings, Matrix : CustomCodec ID : XVIDCodec ID/Hint : XviDDuration : 1h 37mnBit rate : 1 731 KbpsWidth : 704 pixelsHeight : 384 pixelsDisplay aspect ratio : 1.85:1Frame rate : 23.976 fpsColor space : YUVChroma subsampling : 4:2:0Bit depth : 8 bitsScan type : ProgressiveCompression mode : LossyBits/(Pixel*Frame) : 0.267Stream size : 1.18 GiB (81%)Writing library : XviD 65Audio #1ID : 1Format : AC-3Format/Info : Audio Coding 3Mode extension : CM (complete main)Format settings, Endianness : BigCodec ID : 2000Duration : 1h 37mnBit rate mode : ConstantBit rate : 384 KbpsChannel(s) : 6 channelsChannel positions : Front: L C R, Side: L R, LFESampling rate : 48.0 KHzBit depth : 16 bitsCompression mode : LossyStream size : 269 MiB (18%)Alignment : Split accross interleavesInterleave, duration : 42 ms (1.00 video frame)Interleave, preload duration : 500 ms

  • На номерном знаке «роллс-ройса» написано HBH. В честь режиссера, сценариста и актера Эйч Би Галицки (H.B. Halicki).
  • Столкновение «Элеанор» со столбом на хайвее не было запланировано. Водитель «Кадиллака», будучи подрезанным Галицки, не сумел сориентироваться и задел «Мустанг», из-за чего тот развернуло и машина передним левым крылом вырвала столб.
  • На некоторых кадрах заметно, что у «Элеанор» установлен спортивный трёхспицевый руль вместо оригинального.
  • «Кадиллаки», разбитые полицейской машиной в автосалоне «Moran Cadillac», Тоби выкупил по дешёвке только после того, как они приобрели не товарный вид.
  • Всего было разбито 93 машины для 97 минут экранного времени
  • Полицейские, пожарники, медики, прохожие - все были настоящими. Многие даже не знали, что снимают фильм, поэтому реакция на происходящее была вполне реальная.
  • Для съемок был использован лишь один Ford Mustang (не в модификации «Mach 1») (в отличие от ремейка). На него был установлен каркас безопасности и гоночные ремни. Двигатель «351 Windsor», объёмом 5,7 литров, был модифицирован самим Галицки.
  • В 2008 году Денис Шакириан выиграла дело против Кэролла Шелби об авторских правах на название «Элеанор», которое использовали множество авто-ателье, создававших копии «Shelby Mustang» 1967 года, фигурировавшего в ремейке.
  • Официального сценария для фильма никогда не существовало. Были лишь пара листов рукописного текста с немногочисленными диалогами. Галицки сам предоставил большинство машин для съёмок.
Скачать Угнать за 60 секунд через торрент http://s017.radikal.ru/i412/1308/c8/5b150dbbfb9b.jpg Скачать фильм Угнать за 60 секунд через торрент бесплантно в хорошем качестве Описание: Его работа — кража автомобилей. Его последний контракт: угнать 40 машин за одну неделю. Но полицейские не желают мириться с ролью ... 2013-08-28 18:55 9.2 10 11

Loading...

Loading...

Рекламный пират

Дорогой пользователь! Огромная просьба, поблагодарите релизера, оцените раздачу и оставьте свои комментарий, если Вы скачали Угнать за 60 секунд через торрент бесплатно! Внесите свою лепту в развитие PiratBit!

Комментировать посты могут только пользователи прошедшие не сложную регистрацию

Угнать за 60 секунд через торрент Скачать бесплатно Угнать за 60 секунд Угнать за 60 секунд скачать торрент Угнать за 60 секунд смотреть онлайн Cкачать фильм Угнать за 60 секунд бесплатно Угнать за 60 секунд скачать торрент в хорошем качестве Угнать за 60 секунд смотреть онлайн бесплатно в хорошем качестве

Вы не можете начинать темыВы не можете отвечать на сообщенияВы не можете редактировать свои сообщенияВы не можете удалять свои сообщенияВы не можете голосовать в опросахВы не можете прикреплять файлы к сообщениямВы можете скачивать файлы


Смотрите также