Скачать ученик чародея в хорошем качестве торрент


Скачать фильм Ученик чародея (2010) через торрент

gig-torrent.net

28 декабря 2015 06:49 Ученик чародея / The Sorcerers Apprentice (2010) BDRip-AVC от HELLYWOOD | Лицензия .torrent   [Информация о файле (нажмите для просмотра)] Перевод: Профессиональный (полное дублирование) [лицензия BD EUR]Субтитры: Русские (полные + форс.), украинские (полные + форс.), английские (Full + SDH)Качество: BDRip-AVCФормат: MKVВидео: x.264, 936x390 (2,40:1), 23,976 fps, 1533 Кbps, 0.175 bit/pixelАудио: 48 kHz, AC3 Dolby Digital, 3/2 (L,C,R,l,r) + LFE ch, 384.00 kbps 1,46 Gb 298 10
28 декабря 2015 06:49 Ученик чародея / The Sorcerers Apprentice (2010) BDRip-AVC | D .torrent   [Информация о файле (нажмите для просмотра)] Перевод: Дубляж + оригиналСубтитры: русские, английские, украинскиеКодек: H.264Качество: BDRip-AVCВидео: 720х300, 23,976 fps, 846 Kbps, Bits/(Pixel*Frame) : 0.163Аудио №1: AАС-НЕ, 48000Hz, 2ch, 54 Kbps -дубляжАудио №2: AАС-НЕ, 48000Hz, 2ch, 54 Kbps -оригиналВидео: Идентификатор : 1 Формат : AVC Формат/Информация : Advanced Video Codec Профайл формата : [email protected] Параметры CABAC формата : Да Параметры ReFrames формата : 9 кадры Режим смешивания : Container [email protected] Идентификатор кодека : V_MPEG4/ISO/AVC Продолжительность : 1 ч. 48 м. Номинальный битрейт : 846 Кбит/сек Ширина : 720 пикс. Высота : 300 пикс. Соотношение кадра : 2.400 Частота кадров : 23,976 кадр/сек Разрешение : 24 бит Колориметрия : 4:2:0 Тип развёртки : Прогрессивная Бит/(Пиксели*Кадры) : 0.163 Заголовок : Video Библиотека кодирования : x264 core 104 r1688 0b36c6d Настройки программы : cabac=1 / ref=9 / deblock=1:-1:-1 / analyse=0x3:0x113 / me=umh / subme=10 / psy=1 / psy_rd=1.00:0.10 / mixed_ref=1 / me_range=28 / chroma_me=1 / trellis=2 / 8x8dct=1 / cqm=0 / deadzone=21,11 / fast_pskip=1 / chroma_qp_offset=-3 / threads=3 / sliced_threads=0 / nr=0 / decimate=1 / interlaced=0 / constrained_intra=0 / bframes=9 / b_pyramid=2 / b_adapt=2 / b_bias=0 / direct=3 / weightb=1 / open_gop=0 / weightp=2 / keyint=250 / keyint_min=23 / scenecut=40 / intra_refresh=0 / rc_lookahead=0 / rc=2pass / mbtree=0 / bitrate=846 / ratetol=1.0 / qcomp=0.65 / qpmin=10 / qpmax=51 / qpstep=4 / cplxblur=20.0 / qblur=0.5 / vbv_maxrate=50000 / vbv_bufsize=62500 / ip_ratio=1.40 / pb_ratio=1.30 / aq=2:1.00 / zones=147719,156873,q=35 / nal_hrd=none Язык : EnglishАудио #1: Идентификатор : 2 Формат : AAC Формат/Информация : Advanced Audio Codec Версия формата : Version 4 Профайл формата : LC Параметры SBR формата : Да Параметры PS формата : Нет Идентификатор кодека : A_AAC Продолжительность : 1 ч. 49 м. Канал(ы) : 2 канала(ов) Расположение каналов : L R Частота : 48,0 КГц Разрешение : 16 бит Заголовок : Russian Язык : RussianАудио #2: Идентификатор : 3 Формат : AAC Формат/Информация : Advanced Audio Codec Версия формата : Version 4 Профайл формата : LC Параметры SBR формата : Да Параметры PS формата : Нет Идентификатор кодека : A_AAC Продолжительность : 1 ч. 49 м. Канал(ы) : 2 канала(ов) Расположение каналов : L R Частота : 48,0 КГц Разрешение : 16 бит Заголовок : English Язык : English 744,81 Mb 22 3
28 декабря 2015 06:49 Ученик чародея / The Sorcerers Apprentice (2010) BDRip 720р от NNNB | 60 fps .torrent   [Информация о файле (нажмите для просмотра)] Перевод: ДублированныйКачество: BDRip 720p (исходник Blu-ray Disc)Видео: 1280x534, 6697 Кбит/сек, 59.940 кадр/сек, AVC, x264, [email protected], 2.40:1, 0.164 Бит/[Пиксели*Кадры]Аудио 1: AC-3, 640 Кбит/сек, 6 канала(ов), 48,0 КГц - Дублированный / РусскийАудио 2: AC-3, 640 Кбит/сек, 6 канала(ов), 48,0 КГц - Оригинал / АнглийскийСубтитры: Русские | Полные, Английские | Полные 6,08 Gb 31 7
28 декабря 2015 06:49 Ученик чародея / The Sorcerers Apprentice (2010) BDRip 720p от Leonardo and Scarabey .torrent   [Информация о файле (нажмите для просмотра)] Перевод: Профессиональный (полное дублирование) ЛицензияФормат: MKVВидео кодек: MPEG-4 AVC Аудио кодек: AC3Видео: AVC, 1280x534 (2.40:1) at 23.976 fps, AVC at 3579 kbps avg, 0.218 bit/pixelАудио: Russian; AC3; 640 Kbps; CBR; 6 ch; 16 bit; DubСубтитры: Русские, английские 3,28 Gb 279 17
28 декабря 2015 06:49 Ученик чародея / The Sorcerers Apprentice (2010) BDRip-AVC от HELLYWOOD .torrent   [Информация о файле (нажмите для просмотра)] Перевод: Профессиональный (полное дублирование)Субтитры: Русские (полные + форс.), английские (Full + SDH)Качество: BDRip-AVCФормат: MKVВидео: x.264, 984x410 (2,40:1), 23,976 fps, 1971 Кbps, 0.204 bit/pixelАудио#1: 48 kHz, AC3 Dolby Digital, 3/2 (L,C,R,l,r) + LFE ch, 448.00 kbps |RUSАудио#2: 48 kHz, AC3 Dolby Digital, 3/2 (L,C,R,l,r) + LFE ch, 448.00 kbps |ENG 2,19 Gb 45 1
28 декабря 2015 06:49 Ученик чародея / The Sorcerers Apprentice (2010) BDRip-AVC от 0ptimus | D, P1, A .torrent   [Информация о файле (нажмите для просмотра)] Перевод: Дублированный, профессиональный (одноголосый закадровый), авторский (одноголосый закадровый)Кодек: h.264Качество: BDRip-AVCВидео: 1974 Кбит/с, 1024х426, 23.976 кадр/сЗвук: • №1: Русский (AC3, 6 ch, 384 Кбит/с) Дублированный • №2: Русский (AC3, 6 ch, 384 Кбит/с) Профессиональный одноголосый [Александр Дасевич] • №3: Русский (AC3, 6 ch, 384 Кбит/с) Авторский одноголосый [Андрей Гаврилов] • №4: Украинский (AC3, 6 ch, 384 Кбит/с) Дублированный • №5: Английский (AC3, 6 ch, 384 Кбит/с)Субтитры: • №1: Русские [форсированные] • №2: Русские [полные] • №3: Украинские [форсированные] • №4: Английские [полные]Видео: Идентификатор : 1 Формат : AVC Формат/Информация : Advanced Video Codec Профиль формата : [email protected] Параметр CABAC формата : Да Параметр ReFrames формата : 8 кадров Идентификатор кодека : V_MPEG4/ISO/AVC Продолжительность : 1 ч. 49 м. Битрейт : 1974 Кбит/сек Ширина : 1024 пикселя Высота : 426 пикселей Соотношение сторон : 2,40:1 Частота кадров : 23,976 кадра/сек Цветовое пространство : YUV Субдискретизация насыщенности : 4:2:0 Битовая глубина : 8 бит Тип развёртки : Прогрессивная Бит/(Пиксели*Кадры) : 0.189 Размер потока : 1,45 Гбайт (49%) Заголовок : Rip by 0ptimus Библиотека кодирования : x264 core 133 r2334 a3ac64b Настройки программы : cabac=1 / ref=8 / deblock=1:-3:-3 / analyse=0x3:0x113 / me=umh / subme=10 / psy=1 / psy_rd=1.00:0.20 / mixed_ref=1 / me_range=32 / chroma_me=1 / trellis=2 / 8x8dct=1 / cqm=0 / deadzone=21,11 / fast_pskip=0 / chroma_qp_offset=-3 / threads=3 / lookahead_threads=1 / sliced_threads=0 / nr=0 / decimate=0 / interlaced=0 / bluray_compat=0 / constrained_intra=0 / bframes=10 / b_pyramid=2 / b_adapt=2 / b_bias=0 / direct=3 / weightb=1 / open_gop=0 / weightp=2 / keyint=240 / keyint_min=23 / scenecut=40 / intra_refresh=0 / rc_lookahead=40 / rc=2pass / mbtree=0 / bitrate=1974 / ratetol=1.0 / qcomp=0.60 / qpmin=0 / qpmax=69 / qpstep=4 / cplxblur=20.0 / qblur=0.5 / vbv_maxrate=50000 / vbv_bufsize=50000 / nal_hrd=none / ip_ratio=1.40 / pb_ratio=1.30 / aq=1:1.00 Язык : EnglishАудио #1: Идентификатор : 2 Формат : AC-3 Формат/Информация : Audio Coding 3 Расширение режима : CM (complete main) Идентификатор кодека : A_AC3 Продолжительность : 1 ч. 49 м. Вид битрейта : Постоянный Битрейт : 384 Кбит/сек Каналы : 6 каналов Расположение каналов : Front: L C R, Side: L R, LFE Частота : 48,0 КГц Битовая глубина : 16 бит Метод сжатия : С потерями Размер потока : 300 Мбайт (10%) Заголовок : Дублированный AC3 5.1 @ 384 kbps Язык : RussianАудио #2: Идентификатор : 3 Формат : AC-3 Формат/Информация : Audio Coding 3 Расширение режима : CM (complete main) Идентификатор кодека : A_AC3 Продолжительность : 1 ч. 49 м. Вид битрейта : Постоянный Битрейт : 384 Кбит/сек Каналы : 6 каналов Расположение каналов : Front: L C R, Side: L R, LFE Частота : 48,0 КГц Битовая глубина : 16 бит Метод сжатия : С потерями Размер потока : 300 Мбайт (10%) Заголовок : Профессиональный одноголосый [Александр Дасевич] AC3 5.1 @ 384 kbps Язык : RussianАудио #3: Идентификатор : 4 Формат : AC-3 Формат/Информация : Audio Coding 3 Расширение режима : CM (complete main) Идентификатор кодека : A_AC3 Продолжительность : 1 ч. 49 м. Вид битрейта : Постоянный Битрейт : 384 Кбит/сек Каналы : 6 каналов Расположение каналов : Front: L C R, Side: L R, LFE Частота : 48,0 КГц Битовая глубина : 16 бит Метод сжатия : С потерями Размер потока : 300 Мбайт (10%) Заголовок : Авторский [Андрей Гаврилов] AC3 5.1 @ 384 kbps Язык : RussianАудио #4: Идентификатор : 5 Формат : AC-3 Формат/Информация : Audio Coding 3 Расширение режима : CM (complete main) Идентификатор кодека : A_AC3 Продолжительность : 1 ч. 49 м. Вид битрейта : Постоянный Битрейт : 384 Кбит/сек Каналы : 6 каналов Расположение каналов : Front: L C R, Side: L R, LFE Частота : 48,0 КГц Битовая глубина : 16 бит Метод сжатия : С потерями Размер потока : 300 Мбайт (10%) Заголовок : Дублированный AC3 5.1 @ 384 kbps Язык : UkrainianАудио #5: Идентификатор : 6 Формат : AC-3 Формат/Информация : Audio Coding 3 Расширение режима : CM (complete main) Идентификатор кодека : A_AC3 Продолжительность : 1 ч. 49 м. Вид битрейта : Постоянный Битрейт : 384 Кбит/сек Каналы : 6 каналов Расположение каналов : Front: L C R, Side: L R, LFE Частота : 48,0 КГц Битовая глубина : 16 бит Метод сжатия : С потерями Размер потока : 300 Мбайт (10%) Заголовок : AC3 5.1 @ 384 kbps Язык : English 2,97 Gb 21 2
28 декабря 2015 06:49 Ученик чародея / The Sorcerers Apprentice (2010) BDRip 1080p by msltel | D, A .torrent   [Информация о файле (нажмите для просмотра)] Качество: BDRip 1080pВидео: MPEG-4 AVC, 9200 Кбит/с, 1920x800Аудио 1: русский, 48 kHz, AC3, 6 ch, 640 kbps avg, [Дублированный]Аудио 2: русский, 48 kHz, DTS, 6 ch, 1509 kbps avg, [Авторский, Андрей Гаврилов]Аудио 3: русский, 48 kHz, DTS, 6 ch, 1509 kbps avg, [Авторский, Александр Дасевич]Аудио 4: английский, 48 kHz, DTS, 6 ch, 1509 kbps avg, [Оригинал]Субтитры 1: русские (форсированные)Субтитры 2: русскиеСубтитры 3: английскиеВидео: Идентификатор : 1 Формат : AVC Формат/Информация : Advanced Video Codec Профиль формата : [email protected] Параметр CABAC формата : Да Параметр ReFrames формата : 5 кадров Идентификатор кодека : V_MPEG4/ISO/AVC Продолжительность : 1 ч. 49 м. Битрейт : 9200 Кбит/сек Ширина : 1920 пикселей Высота : 800 пикселей Соотношение сторон : 2,40:1 Режим частоты кадров : Постоянный Частота кадров : 23,976 кадра/сек Цветовое пространство : YUV Субдискретизация насыщенности : 4:2:0 Битовая глубина : 8 бит Тип развёртки : Прогрессивная Бит/(Пиксели*Кадры) : 0.250 Размер потока : 6,79 Гбайт (62%) Библиотека кодирования : x264 core 138 r2358 9e941d1 Настройки программы : cabac=1 / ref=5 / deblock=1:-1:-1 / analyse=0x3:0x113 / me=umh / subme=10 / psy=1 / psy_rd=1.00:0.15 / mixed_ref=1 / me_range=24 / chroma_me=1 / trellis=2 / 8x8dct=1 / cqm=0 / deadzone=21,11 / fast_pskip=0 / chroma_qp_offset=-3 / threads=6 / lookahead_threads=1 / sliced_threads=0 / nr=0 / decimate=0 / interlaced=0 / bluray_compat=0 / constrained_intra=0 / bframes=8 / b_pyramid=2 / b_adapt=2 / b_bias=0 / direct=3 / weightb=1 / open_gop=0 / weightp=2 / keyint=230 / keyint_min=23 / scenecut=40 / intra_refresh=0 / rc_lookahead=40 / rc=2pass / mbtree=0 / bitrate=9200 / ratetol=1.0 / qcomp=0.60 / qpmin=0 / qpmax=69 / qpstep=4 / cplxblur=20.0 / qblur=0.5 / vbv_maxrate=50000 / vbv_bufsize=62500 / nal_hrd=none / ip_ratio=1.40 / pb_ratio=1.30 / aq=1:1.00 Язык : English Default : Да Forced : НетАудио #1: Идентификатор : 2 Формат : AC-3 Формат/Информация : Audio Coding 3 Расширение режима : CM (complete main) Параметр Endianness формата : Big Идентификатор кодека : A_AC3 Продолжительность : 1 ч. 49 м. Вид битрейта : Постоянный Битрейт : 640 Кбит/сек Каналы : 6 каналов Расположение каналов : Front: L C R, Side: L R, LFE Частота : 48,0 КГц Битовая глубина : 16 бит Метод сжатия : С потерями Размер потока : 499 Мбайт (4%) Заголовок : DUB Язык : Russian Default : Да Forced : НетАудио #2: Идентификатор : 3 Формат : DTS Формат/Информация : Digital Theater Systems Режим : 16 Параметр Endianness формата : Big Идентификатор кодека : A_DTS Продолжительность : 1 ч. 49 м. Вид битрейта : Постоянный Битрейт : 1509 Кбит/сек Каналы : 6 каналов Расположение каналов : Front: L C R, Side: L R, LFE Частота : 48,0 КГц Битовая глубина : 16 бит Метод сжатия : С потерями Размер потока : 1,15 Гбайт (11%) Заголовок : AVO (Андрей Гаврилов) Язык : Russian Default : Нет Forced : НетАудио #3: Идентификатор : 4 Формат : DTS Формат/Информация : Digital Theater Systems Режим : 16 Параметр Endianness формата : Big Идентификатор кодека : A_DTS Продолжительность : 1 ч. 49 м. Вид битрейта : Постоянный Битрейт : 1509 Кбит/сек Каналы : 6 каналов Расположение каналов : Front: L C R, Side: L R, LFE Частота : 48,0 КГц Битовая глубина : 24 бит Метод сжатия : С потерями Размер потока : 1,15 Гбайт (11%) Заголовок : AVO (Александр Дасевич) Язык : Russian Default : Нет Forced : НетАудио #4: Идентификатор : 5 Формат : DTS Формат/Информация : Digital Theater Systems Режим : 16 Параметр Endianness формата : Big Идентификатор кодека : A_DTS Продолжительность : 1 ч. 49 м. Вид битрейта : Постоянный Битрейт : 1509 Кбит/сек Каналы : 6 каналов Расположение каналов : Front: L C R, Side: L R, LFE Частота : 48,0 КГц Битовая глубина : 24 бит Метод сжатия : С потерями Размер потока : 1,15 Гбайт (11%) Заголовок : Original Язык : English Default : Нет Forced : Нет 10,94 Gb 29 1
28 декабря 2015 06:49 Ученик чародея / The Sorcerers Apprentice (2010) BDRip 720p by msltel | D, A .torrent   [Информация о файле (нажмите для просмотра)] Качество: BDRip 720pВидео: MPEG-4 AVC, 4100 Кбит/с, 1280x534Аудио 1: русский, 48 kHz, AC3, 6 ch, 640 kbps avg, [Дублированный]Аудио 2: русский, 48 kHz, AC3, 6 ch, 448 kbps avg, [Авторский, Андрей Гаврилов]Аудио 3: русский, 48 kHz, AC3, 6 ch, 448 kbps avg, [Авторский, Александр Дасевич]Аудио 4: английский, 48 kHz, AC3, 6 ch, 448 kbps avg, [Оригинал]Субтитры 1: русские (форсированные)Субтитры 2: русскиеСубтитры 3: английскиеВидео: Идентификатор : 1 Формат : AVC Формат/Информация : Advanced Video Codec Профиль формата : [email protected] Параметр CABAC формата : Да Параметр ReFrames формата : 12 кадров Идентификатор кодека : V_MPEG4/ISO/AVC Продолжительность : 1 ч. 49 м. Битрейт : 4100 Кбит/сек Ширина : 1280 пикселей Высота : 534 пикселя Соотношение сторон : 2,40:1 Режим частоты кадров : Постоянный Частота кадров : 23,976 кадра/сек Цветовое пространство : YUV Субдискретизация насыщенности : 4:2:0 Битовая глубина : 8 бит Тип развёртки : Прогрессивная Бит/(Пиксели*Кадры) : 0.250 Размер потока : 3,03 Гбайт (65%) Библиотека кодирования : x264 core 138 r2358 9e941d1 Настройки программы : cabac=1 / ref=12 / deblock=1:-1:-1 / analyse=0x3:0x113 / me=umh / subme=10 / psy=1 / psy_rd=1.00:0.15 / mixed_ref=1 / me_range=24 / chroma_me=1 / trellis=2 / 8x8dct=1 / cqm=0 / deadzone=21,11 / fast_pskip=0 / chroma_qp_offset=-3 / threads=6 / lookahead_threads=1 / sliced_threads=0 / nr=0 / decimate=0 / interlaced=0 / bluray_compat=0 / constrained_intra=0 / bframes=8 / b_pyramid=2 / b_adapt=2 / b_bias=0 / direct=3 / weightb=1 / open_gop=0 / weightp=2 / keyint=230 / keyint_min=23 / scenecut=40 / intra_refresh=0 / rc_lookahead=40 / rc=2pass / mbtree=0 / bitrate=4100 / ratetol=1.0 / qcomp=0.60 / qpmin=0 / qpmax=69 / qpstep=4 / cplxblur=20.0 / qblur=0.5 / vbv_maxrate=50000 / vbv_bufsize=62500 / nal_hrd=none / ip_ratio=1.40 / pb_ratio=1.30 / aq=1:1.00 Язык : English Default : Да Forced : НетАудио #1: Идентификатор : 2 Формат : AC-3 Формат/Информация : Audio Coding 3 Расширение режима : CM (complete main) Параметр Endianness формата : Big Идентификатор кодека : A_AC3 Продолжительность : 1 ч. 49 м. Вид битрейта : Постоянный Битрейт : 640 Кбит/сек Каналы : 6 каналов Расположение каналов : Front: L C R, Side: L R, LFE Частота : 48,0 КГц Битовая глубина : 16 бит Метод сжатия : С потерями Размер потока : 499 Мбайт (11%) Заголовок : DUB Язык : Russian Default : Да Forced : НетАудио #2: Идентификатор : 3 Формат : AC-3 Формат/Информация : Audio Coding 3 Расширение режима : CM (complete main) Параметр Endianness формата : Big Идентификатор кодека : A_AC3 Продолжительность : 1 ч. 49 м. Вид битрейта : Постоянный Битрейт : 448 Кбит/сек Каналы : 6 каналов Расположение каналов : Front: L C R, Side: L R, LFE Частота : 48,0 КГц Битовая глубина : 16 бит Метод сжатия : С потерями Размер потока : 349 Мбайт (7%) Заголовок : AVO (Андрей Гаврилов) Язык : Russian Default : Нет Forced : НетАудио #3: Идентификатор : 4 Формат : AC-3 Формат/Информация : Audio Coding 3 Расширение режима : CM (complete main) Параметр Endianness формата : Big Идентификатор кодека : A_AC3 Продолжительность : 1 ч. 49 м. Вид битрейта : Постоянный Битрейт : 448 Кбит/сек Каналы : 6 каналов Расположение каналов : Front: L C R, Side: L R, LFE Частота : 48,0 КГц Битовая глубина : 16 бит Метод сжатия : С потерями Размер потока : 349 Мбайт (7%) Заголовок : AVO (Александр Дасевич) Язык : Russian Default : Нет Forced : НетАудио #4: Идентификатор : 5 Формат : AC-3 Формат/Информация : Audio Coding 3 Расширение режима : CM (complete main) Параметр Endianness формата : Big Идентификатор кодека : A_AC3 Продолжительность : 1 ч. 49 м. Вид битрейта : Постоянный Битрейт : 448 Кбит/сек Каналы : 6 каналов Расположение каналов : Front: L C R, Side: L R, LFE Частота : 48,0 КГц Битовая глубина : 16 бит Метод сжатия : С потерями Размер потока : 349 Мбайт (7%) Заголовок : Original Язык : English Default : Нет Forced : Нет 4,64 Gb 33 5
28 декабря 2015 06:48 Ученик чародея / The Sorcerers Apprentice (2010) BDRip by msltel | D, A .torrent   [Информация о файле (нажмите для просмотра)] Качество: BDRipВидео: XviD, 1578 Кбит/с, 720x304Аудио 1: русский, 48 kHz, AC3, 6 ch, 448 kbps avg, [Авторский, Андрей Гаврилов]Аудио 2: русский, 48 kHz, AC3, 6 ch, 448 kbps avg, [Авторский, Александр Дасевич]Аудио: русский, 48 kHz, AC3, 6 ch, 448 kbps avg, [Дублированный]Аудио: английский, 48 kHz, AC3, 6 ch, 448 kbps avg, [Оригинал]Субтитры: русскиеСубтитры: английскиеАудио: Формат : AC-3 Формат/Информация : Audio Coding 3 Расширение режима : CM (complete main) Параметр Endianness формата : Big Продолжительность : 1 ч. 49 м. Вид битрейта : Постоянный Битрейт : 448 Кбит/сек Каналы : 6 каналов Расположение каналов : Front: L C R, Side: L R, LFE Частота : 48,0 КГц Битовая глубина : 16 бит Метод сжатия : С потерями Размер потока : 349 Мбайт (100%)Аудио: Формат : AC-3 Формат/Информация : Audio Coding 3 Расширение режима : CM (complete main) Параметр Endianness формата : Big Продолжительность : 1 ч. 49 м. Вид битрейта : Постоянный Битрейт : 448 Кбит/сек Каналы : 6 каналов Расположение каналов : Front: L C R, Side: L R, LFE Частота : 48,0 КГц Битовая глубина : 16 бит Метод сжатия : С потерями Размер потока : 349 Мбайт (100%)Видео: Идентификатор : 0 Формат : MPEG-4 Visual Профиль формата : Advanced [email protected] Параметр BVOP формата : 1 Параметр QPel формата : Нет Параметр GMC формата : Без точки перехода Параметр матрицы формата : Default (H.263) Режим смешивания : Сжатый битовый поток Идентификатор кодека : XVID Идентификатор кодека/Подсказка : XviD Продолжительность : 1 ч. 49 м. Битрейт : 1578 Кбит/сек Ширина : 720 пикселей Высота : 304 пикселя Соотношение сторон : 2,35:1 Частота кадров : 23,976 кадра/сек Цветовое пространство : YUV Субдискретизация насыщенности : 4:2:0 Битовая глубина : 8 бит Тип развёртки : Прогрессивная Метод сжатия : С потерями Бит/(Пиксели*Кадры) : 0.301 Размер потока : 1,20 Гбайт (63%) Библиотека кодирования : XviD 1.2.1 (UTC 2008-12-04)Аудио #1: Идентификатор : 1 Формат : AC-3 Формат/Информация : Audio Coding 3 Расширение режима : CM (complete main) Параметр Endianness формата : Big Идентификатор кодека : 2000 Продолжительность : 1 ч. 49 м. Вид битрейта : Постоянный Битрейт : 448 Кбит/сек Каналы : 6 каналов Расположение каналов : Front: L C R, Side: L R, LFE Частота : 48,0 КГц Битовая глубина : 16 бит Метод сжатия : С потерями Размер потока : 349 Мбайт (18%) Выравнивание : Разделение по промежуткам Продолжительность промежутка : 42 мс. (1,00 видеокадр) Время предзагрузки промежутка : 500 мс.Аудио #2: Идентификатор : 2 Формат : AC-3 Формат/Информация : Audio Coding 3 Расширение режима : CM (complete main) Параметр Endianness формата : Big Идентификатор кодека : 2000 Продолжительность : 1 ч. 49 м. Вид битрейта : Постоянный Битрейт : 448 Кбит/сек Каналы : 6 каналов Расположение каналов : Front: L C R, Side: L R, LFE Частота : 48,0 КГц Битовая глубина : 16 бит Метод сжатия : С потерями Размер потока : 349 Мбайт (18%) Выравнивание : Разделение по промежуткам Продолжительность промежутка : 42 мс. (1,00 видеокадр) Время предзагрузки промежутка : 500 мс.Скриншоты 2,58 Gb 4 2
28 декабря 2015 06:48 Ученик чародея / The Sorcerers Apprentice (2010) BDRip 1080p от NoLimits-Team .torrent   [Информация о файле (нажмите для просмотра)] Перевод: ДублированныйКачество: BDRip 1080p (DVD9) (исходник Blu-ray Disc)Видео: 1920x800, 9152 Кбит/сек, 23,976 кадр/сек, AVC, x264, [email protected], 2.40:1, 0.249 Бит/[Пиксели*Кадры], 2passАудио 1: AC-3, 640 Кбит/сек, 6 канала(ов), 48,0 КГц - Дублированный / РусскийАудио 2: AC-3, 640 Кбит/сек, 6 канала(ов), 48,0 КГц - Оригинал / АнглийскийСубтитры: Русские | Полные 7,94 Gb 172 7
28 декабря 2015 06:48 Ученик чародея / The Sorcerers Apprentice (2010) HDRip от Scarabey .torrent   [Информация о файле (нажмите для просмотра)] Перевод: Профессиональный (дублированный)Субтитры: нетКонтейнер: AVIВидео: 720x304 (2.37:1), 23.976 fps, XviD build 50 ~1449 kbps avg, 0.28 bit/pixelАудио: 48 kHz, AC3 Dolby Digital, 3/2 (L,C,R,l,r) + LFE ch, ~384.00 kbps avg 1,4 Gb 91 6
28 декабря 2015 06:48 Ученик чародея / The Sorcerers Apprentice (2010) HDRip от Scarabey .torrent   [Информация о файле (нажмите для просмотра)] Перевод: Профессиональный (дублированный)Субтитры: нетКонтейнер: AVIВидео: 640x272 (2.35:1), 23.976 fps, XviD build 50 ~814 kbps avg, 0.20 bit/pixelАудио: 48 kHz, MPEG Layer 3, 2 ch, ~128.00 kbps avg 742,46 Mb 60 1
28 декабря 2015 06:48 Ученик чародея / The Sorcerers Apprentice (2010) HDRip | D .torrent   [Информация о файле (нажмите для просмотра)] Перевод: Профессиональный (дублированный)Субтитры: нетВидео: 720x304 (2.40:1), 23.976 fps, XVID ~1520 kbps avg, 0.290 bit/pixelАудио: 48 kHz, AC3, 6 ch, 384.00 kbps 1,46 Gb 1572 40
28 декабря 2015 06:48 Ученик чародея / The Sorcerers Apprentice (2010) Blu-Ray .torrent   [Информация о файле (нажмите для просмотра)] Перевод: Дублированное [лицензия]Кодек: m2tsКачество: Blu-RayВидео: 1920x800 (2.40:1) at 23.976 fps, x264, ~14029 kbpsАудио 1: English / DTS-HD Master Audio / 4216 kbps / 5.1 / 48 kHz / 4216 kbps / 24-bit (DTS Core: 5.1 / 48 kHz / 1509 kbps / 24-bit)Аудио 2: French / DTS Audio / 1509 kbps / 5.1 / 48 kHz / 1509 kbps / 24-bitАудио 3: Russian / Dolby Digital Audio / 640 kbps / 5.1 / 48 kHz / 640 kbps дубляжАудио 4: Ukrainian / Dolby Digital Audio / 640 kbps / 5.1 / 48 kHz / 640 kbps дубляжСубтитры: Английские, Голландские, Эстонские, Французские, Латышские, Литовские, Русские, Украинские 37,3 Gb 1 3
28 декабря 2015 06:48 Ученик чародея / The Sorcerers Apprentice (2010) BDRip 1080p .torrent   [Информация о файле (нажмите для просмотра)] Перевод: Дублированное [лицензия]Кодек: MKVКачество: BDRip 1080pВидео: 1920x800 (2.40:1) at 23.976 fps, x264, ~14029 kbpsАудио 1: Russian: 48 kHz, AC3, 3/2 (L,C,R,l,r) + LFE ch, ~384.00 kbps avgАудио 2: Ukrainian 48 kHz, AC3, 3/2 (L,C,R,l,r) + LFE ch, ~384.00 kbps avgАудио 3: English: 48 kHz, DTS, 3/2 (L,C,R,l,r) + LFE ch, ~1510.00 kbps avgСубтитры: Russian, Russian (forced), Ukrainian, Ukrainian (forced), English, French, Spanish 12,17 Gb 16 5
28 декабря 2015 06:48 Ученик чародея / The Sorcerers Apprentice (2010) BDRip от HQ-ViDEO .torrent   [Информация о файле (нажмите для просмотра)] Перевод: Русский дублированный R5 + Оригинальная дорожка + Отдельно : Авторский профессиональный перевод А.Гаврилов + Одноголосый профессиональный перевод А.Дасевич + Украинский дублированный переводСубтитры: Русские 2 вида, Украинские форсированные, Украинские, Английские 2 вида. / narod.ruКодек: XviD, build 50 codecКачество: BDRipВидео: 720 x 304; 23.976 fps; 2094 kbps; 0.40 bit/pixelАудио: 48 kHz; 5.1 ch; 384 + 384.00 kbps; AC3 Dolby Digital 2,19 Gb 419 29
28 декабря 2015 06:48 Ученик чародея / The Sorcerers Apprentice (2010) BDRip 1080p Rip by Neofilm .torrent   [Информация о файле (нажмите для просмотра)] Перевод: ДублированныйКодек: x.264Качество: BDRip 1080pВидео: 5398 kb/s (VBR), 1920x800, 23.976 fpsЗвук: AC3, 384 kb/s (6Ch)Субтитры: нет 4,34 Gb 13 2
28 декабря 2015 06:48 Ученик чародея / The Sorcerers Apprentice (2010) BDRip 720p .torrent   [Информация о файле (нажмите для просмотра)] Перевод: ДубляжКодек: AVCКачество: BDRip 720pВидео: 1280Х720, Frame rate : 23.976 fps, Bits/(Pixel*Frame) : 0.220, Bit rate : 4 971 KbpsЗвук: Аудио#1: Russian: 48 kHz, AC3, 3/2 (L,C,R,l,r) + LFE ch, ~384.00 kbps avg |Дубляж, R5|Аудио#2: Ukrainian: 48 kHz, AC3, 3/2 (L,C,R,l,r) + LFE ch, ~384.00 kbps avg |Дубляж, R5|Субтитры: Russian(forced) 4,37 Gb 10 2
28 декабря 2015 06:48 Ученик чародея / The Sorcerers Apprentice (2010) BDRip | КПК .torrent   [Информация о файле (нажмите для просмотра)] Субтитры: нетуВидео: MPEG4, 480x240 (2.000), 30.000 fps, 64.0 Kbps (0.213 bit/pixel)Аудио: AAC LC, 48.0 KHz, 2 ch, 110 Kbps, CBR 663 Mb 13 8
28 декабря 2015 06:48 Ученик чародея / The Sorcerers Apprentice (2010) BDRip [720p] от HQ-ViDEO. .torrent   4,71 Gb 1 7
28 декабря 2015 06:48 Ученик чародея / The Sorcerers Apprentice(2010) BDRip-AVC .torrent   [Информация о файле (нажмите для просмотра)] Перевод: Профессиональный (дублированный)Видео: , x264, 23.976 fps, ~1525 kbpsАудио: 48 kHz, AC3, 3/2 (L,C,R,l,r) + LFE ch, ~ 384.00 kbps 1,45 Gb 14 2
28 декабря 2015 06:48 Ученик чародея / The Sorcerers Apprentice (2010) BDRip от HELLYWOOD .torrent   [Информация о файле (нажмите для просмотра)] Перевод: Дублированный, ОригиналКодек: XviDКачество: BDRipВидео: 720x304 (2.37:1), 23.976 fps, XviD build 50, 2096 kbps avg, 0.40 bit/pixelАудио: 48 kHz, AC3 Dolby Digital, 3/2 (L,C,R,l,r) + LFE ch, 384 kbps | ДублированныйАудио: 48 kHz, AC3 Dolby Digital, 3/2 (L,C,R,l,r) + LFE ch, 384 kbps | ОригиналСубтитры: Нет 2,19 Gb 3 1
28 декабря 2015 06:48 Ученик чародея / The Sorcerers Apprentice (2010) BDRip от HQCLUB .torrent   [Информация о файле (нажмите для просмотра)] Перевод: Профессиональный (дублированный) + Оригинал +Профессиональный (украинский, дублированный)Субтитры: Русские (полные, форсированные), украинские (полные, форсированные), английские (внешние *.srt)Формат: AVIКачество: BDRip (источник:Видео: 720x304 (2.37:1), 23.976 fps, XviD build 50 ~2090 kbps avg, 0.40 bit/pixelАудио #1: 48 kHz, AC3 Dolby Digital, 3/2 (L,C,R,l,r) + LFE ch, ~384.00 kbps avg|все дорожки| 2,18 Gb 9 2
28 декабря 2015 06:48 Ученик чародея / The Sorcerers Apprentice (2010) BD-Remux 1080p .torrent   [Информация о файле (нажмите для просмотра)] Качество: BDRemuxФормат: MKVВидео: 1920x1080 at 23.976 fps, MPEG-4 AVC, ~23994 kbps avgАудио#1: Russian: 48 kHz, AC3, 3/2 (L,C,R,l,r) + LFE ch, ~384.00 kbps avg |Дубляж, R5|Аудио#2: Ukrainian: 48 kHz, AC3, 3/2 (L,C,R,l,r) + LFE ch, ~384.00 kbps avg |Дубляж, R5|Аудио#3: English: 48 kHz/24-bit, DTS-HD MA 5.1, ~4216.00 kbps avgСубтитры: Russian, Russian (forced), Ukrainian, Ukrainian (forced), English, French, Spanish 22 Gb 4 5

Ученик чародея 2010 - скачать бесплатно через торрент в хорошем качестве. Без регистрации

www.kinovit.net

Название: Ученик чародея / The Sorcerer's Apprentice (2010) HDRip от Scarabey | D
Качество видео: HDRip
Перевод: Профессиональный (полное дублирование)
Видео: 720x304 (2.37:1), 23.976 fps, XviD build 50 ~1994 kbps avg, 0.38 bit/pixel
Аудио: 48 kHz, AC3 Dolby Digital, 3/2 (L,C,R,l,r) + LFE ch, ~384.00 kbps avg - дубляж48 kHz, AC3 Dolby Digital, 3/2 (L,C,R,l,r) + LFE ch, ~448.00 kbps avg - оригинал
Скачать

Загрузка начнется в течение 5 сек.

2.17 GB

Название: Ученик чародея / The Sorcerer's Apprentice (2010) HDRip от Portablius | A
Качество видео: HDRip
Перевод: Авторский (одноголосый, закадровый) Александр Дасевич
Видео: XviD 688x288 (2.39:1), 23.976 fps, XviD build 73 ~817 kbps avg, 0.17 bit/pixel
Аудио: 48 kHz, MPEG Layer 3, 2 ch, ~128.00 kbps avg
Скачать

Загрузка начнется в течение 5 сек.

744.94 MB

Название: Ученик чародея / The Sorcerer's Apprentice (2010) BDRip-AVC от HELLYWOOD | Лицензия
Перевод: Профессиональный (полное дублирование) [лицензия BD EUR]
Формат видео: MKV
Видео: x.264, 936x390 (2,40:1), 23,976 fps, 1533 Кbps, 0.175 bit/pixel
Аудио: 48 kHz, AC3 Dolby Digital, 3/2 (L,C,R,l,r) + LFE ch, 384.00 kbps
Скачать

Загрузка начнется в течение 5 сек.

1.46 GB

Название: Ученик чародея / The Sorcerer's Apprentice (2010) BDRip-AVC | D
Качество видео: BDRip-AVC
Перевод: Дубляж + оригинал
Видео: H.264 720х300, 23,976 fps, 846 Kbps, Bits/(Pixel*Frame) : 0.163
Аудио: AАС-НЕ, 48000Hz, 2ch, 54 Kbps - дубляжAАС-НЕ, 48000Hz, 2ch, 54 Kbps - оригинал
Скачать

Загрузка начнется в течение 5 сек.

744.81 MB

Название: Ученик чародея / The Sorcerer's Apprentice (2010) BDRip 720р от NNNB | 60 fps
Качество видео: BDRip 720p (исходник Blu-ray Disc)
Перевод: Дублированный
Видео: 1280x534, 6697 Кбит/сек, 59.940 кадр/сек, AVC, x264, [email protected], 2.40:1, 0.164 Бит/[Пиксели*Кадры]
Аудио: AC-3, 640 Кбит/сек, 6 канала(ов), 48,0 КГц - Дублированный / РусскийAC-3, 640 Кбит/сек, 6 канала(ов), 48,0 КГц - Оригинал / Английский
Скачать

Загрузка начнется в течение 5 сек.

6.08 GB

Название: Ученик чародея / The Sorcerer's Apprentice (2010) BDRip 720p от Leonardo and Scarabey
Качество видео: BDRip 720p Исходник: Blu-ray
Перевод: Профессиональный (полное дублирование) Лицензия
Формат видео: MKV Видео кодек: MPEG-4 AVC Аудио кодек: AC3
Видео: AVC, 1280x534 (2.40:1) at 23.976 fps, AVC at 3579 kbps avg, 0.218 bit/pixel
Аудио: Russian; AC3; 640 Kbps; CBR; 6 ch; 16 bit; Dub
Скачать

Загрузка начнется в течение 5 сек.

3.28 GB

Название: Ученик чародея / The Sorcerer's Apprentice (2010) BDRip-AVC от HELLYWOOD
Перевод: Профессиональный (полное дублирование)
Формат видео: MKV
Видео: x.264, 984x410 (2,40:1), 23,976 fps, 1971 Кbps, 0.204 bit/pixel
Аудио: 48 kHz, AC3 Dolby Digital, 3/2 (L,C,R,l,r) + LFE ch, 448.00 kbps | RUS48 kHz, AC3 Dolby Digital, 3/2 (L,C,R,l,r) + LFE ch, 448.00 kbps | ENG
Скачать

Загрузка начнется в течение 5 сек.

2.19 GB

Название: Ученик чародея / The Sorcerer's Apprentice (2010) BDRip-AVC от 0ptimus | D, P1, A
Качество видео: BDRip-AVC
Перевод: Дублированный, профессиональный (одноголосый закадровый), авторский (одноголосый закадровый)
Видео: h.264 1974 Кбит/с, 1024х426, 23.976 кадр/с
Аудио: • №1: Русский (AC3, 6 ch, 384 Кбит/с) Дублированный
Скачать

Загрузка начнется в течение 5 сек.

2.97 GB

Название: Ученик чародея / The Sorcerer's Apprentice (2010) BDRip 1080p by msltel | D, A
Качество видео: BDRip 1080p
Видео: MPEG-4 AVC, 9200 Кбит/с, 1920x800
Аудио: русский, 48 kHz, AC3, 6 ch, 640 kbps avg, [Дублированный]русский, 48 kHz, DTS, 6 ch, 1509 kbps avg, [Авторский, Андрей Гаврилов]русский, 48 kHz, DTS, 6 ch, 1509 kbps avg, [Авторский, Александр Дасевич]английский, 48 kHz, DTS, 6 ch, 1509 kbps avg, [Оригинал]
Скачать

Загрузка начнется в течение 5 сек.

10.94 GB

Название: Ученик чародея / The Sorcerer's Apprentice (2010) BDRip 720p by msltel | D, A
Качество видео: BDRip 720p
Видео: MPEG-4 AVC, 4100 Кбит/с, 1280x534
Аудио: русский, 48 kHz, AC3, 6 ch, 640 kbps avg, [Дублированный]русский, 48 kHz, AC3, 6 ch, 448 kbps avg, [Авторский, Андрей Гаврилов]русский, 48 kHz, AC3, 6 ch, 448 kbps avg, [Авторский, Александр Дасевич]английский, 48 kHz, AC3, 6 ch, 448 kbps avg, [Оригинал]
Скачать

Загрузка начнется в течение 5 сек.

4.64 GB

Название: Ученик чародея / The Sorcerer's Apprentice (2010) BDRip by msltel | D, A
Качество видео: BDRip
Видео: XviD, 1578 Кбит/с, 720x304
Аудио: английский, 48 kHz, AC3, 6 ch, 448 kbps avg, [Оригинал]
Скачать

Загрузка начнется в течение 5 сек.

2.58 GB

Название: Ученик чародея / The Sorcerer's Apprentice (2010) BDRip 1080p от NoLimits-Team
Качество видео: BDRip 1080p (DVD9) (исходник Blu-ray Disc)
Перевод: Дублированный
Видео: 1920x800, 9152 Кбит/сек, 23,976 кадр/сек, AVC, x264, [email protected], 2.40:1, 0.249 Бит/[Пиксели*Кадры], 2pass
Аудио: AC-3, 640 Кбит/сек, 6 канала(ов), 48,0 КГц - Дублированный / РусскийAC-3, 640 Кбит/сек, 6 канала(ов), 48,0 КГц - Оригинал / Английский
Скачать

Загрузка начнется в течение 5 сек.

7.94 GB

Название: Ученик чародея / The Sorcerer's Apprentice (2010) HDRip от Scarabey
Перевод: Профессиональный (дублированный)
Видео: 640x272 (2.35:1), 23.976 fps, XviD build 50 ~814 kbps avg, 0.20 bit/pixel
Аудио: 48 kHz, MPEG Layer 3, 2 ch, ~128.00 kbps avg
Скачать

Загрузка начнется в течение 5 сек.

742.46 MB

Название: Ученик чародея / The Sorcerer's Apprentice (2010) HDRip от Scarabey
Перевод: Профессиональный (дублированный)
Видео: 720x304 (2.37:1), 23.976 fps, XviD build 50 ~1449 kbps avg, 0.28 bit/pixel
Аудио: 48 kHz, AC3 Dolby Digital, 3/2 (L,C,R,l,r) + LFE ch, ~384.00 kbps avg
Скачать

Загрузка начнется в течение 5 сек.

1.40 GB

Название: Ученик чародея / The Sorcerer's Apprentice (2010) HDRip | D
Качество видео: HDRip
Перевод: Профессиональный (дублированный)
Видео: 720x304 (2.40:1), 23.976 fps, XVID ~1520 kbps avg, 0.290 bit/pixel
Аудио: 48 kHz, AC3, 6 ch, 384.00 kbps
Скачать

Загрузка начнется в течение 5 сек.

1.46 GB

Скачать фильм Ученик чародея через торрент в хорошем качестве бесплатно 720p / 60 fps

Format                                   : MatroskaFormat version                           : Version 2File size                                : 6.08 GiBDuration                                 : 1h 49mnOverall bit rate                         : 7 984 KbpsMovie name                               : Ученик чародея.(2010).BDRip.720p.[envy].[60fps]Encoded date                             : UTC 2014-12-14 10:27:04Writing application                      : mkvmerge v5.8.0 ('No Sleep / Pillow') built on Sep  2 2012 15:37:04Writing library                          : libebml v1.2.3 + libmatroska v1.3.0

VideoID                                       : 1Format                                   : AVCFormat/Info                              : Advanced Video CodecFormat profile                           : [email protected] settings, CABAC                   : YesFormat settings, ReFrames                : 9 framesCodec ID                                 : V_MPEG4/ISO/AVCDuration                                 : 1h 49mnBit rate                                 : 6 697 KbpsWidth                                    : 1 280 pixelsHeight                                   : 534 pixelsDisplay aspect ratio                     : 2.40:1Frame rate mode                          : ConstantFrame rate                               : 59.880 fpsOriginal frame rate                      : 59.940 fpsColor space                              : YUVChroma subsampling                       : 4:2:0Bit depth                                : 8 bitsScan type                                : ProgressiveBits/(Pixel*Frame)                       : 0.164Stream size                              : 4.99 GiB (82%)Title                                    : Ученик чародея.(2010).BDRip.720p.[envy].[60fps]Writing library                          : x264 core 130 r2273 b3065e6Encoding settings                        : cabac=1 / ref=9 / deblock=1:0:0 / analyse=0x3:0x133 / me=umh / subme=10 / psy=1 / psy_rd=1.00:0.00 / mixed_ref=1 / me_range=28 / chroma_me=1 / trellis=2 / 8x8dct=1 / cqm=0 / deadzone=21,11 / fast_pskip=0 / chroma_qp_offset=-2 / threads=12 / lookahead_threads=1 / sliced_threads=0 / nr=0 / decimate=1 / interlaced=0 / bluray_compat=0 / constrained_intra=0 / bframes=5 / b_pyramid=2 / b_adapt=2 / b_bias=0 / direct=3 / weightb=1 / open_gop=0 / weightp=2 / keyint=250 / keyint_min=25 / scenecut=40 / intra_refresh=0 / rc=2pass / mbtree=0 / bitrate=6697 / ratetol=1.0 / qcomp=0.60 / qpmin=0 / qpmax=69 / qpstep=4 / cplxblur=20.0 / qblur=0.5 / ip_ratio=1.40 / pb_ratio=1.30 / aq=2:0.90Language                                 : EnglishDefault                                  : YesForced                                   : No

Audio #1ID                                       : 2Format                                   : AC-3Format/Info                              : Audio Coding 3Mode extension                           : CM (complete main)Format settings, Endianness              : BigCodec ID                                 : A_AC3Duration                                 : 1h 49mnBit rate mode                            : ConstantBit rate                                 : 640 KbpsChannel(s)                               : 6 channelsChannel positions                        : Front: L C R, Side: L R, LFESampling rate                            : 48.0 KHzBit depth                                : 16 bitsCompression mode                         : LossyStream size                              : 499 MiB (8%)Title                                    : DubLanguage                                 : RussianDefault                                  : YesForced                                   : No

Audio #2ID                                       : 3Format                                   : AC-3Format/Info                              : Audio Coding 3Mode extension                           : CM (complete main)Format settings, Endianness              : BigCodec ID                                 : A_AC3Duration                                 : 1h 49mnBit rate mode                            : ConstantBit rate                                 : 640 KbpsChannel(s)                               : 6 channelsChannel positions                        : Front: L C R, Side: L R, LFESampling rate                            : 48.0 KHzBit depth                                : 16 bitsCompression mode                         : LossyStream size                              : 499 MiB (8%)Title                                    : EngLanguage                                 : EnglishDefault                                  : NoForced                                   : No

Text #1ID                                       : 4Format                                   : UTF-8Codec ID                                 : S_TEXT/UTF8Codec ID/Info                            : UTF-8 Plain TextTitle                                    : forcedLanguage                                 : RussianDefault                                  : YesForced                                   : Yes

Text #2ID                                       : 5Format                                   : UTF-8Codec ID                                 : S_TEXT/UTF8Codec ID/Info                            : UTF-8 Plain TextTitle                                    : fullLanguage                                 : RussianDefault                                  : NoForced                                   : No

Text #3ID                                       : 6Format                                   : UTF-8Codec ID                                 : S_TEXT/UTF8Codec ID/Info                            : UTF-8 Plain TextTitle                                    : fullLanguage                                 : EnglishDefault                                  : NoForced                                   : No

Menu00:00:00.000                             : en:The War Of The Sorcerers00:04:11.168                             : en:Field Trip To Areana Cabana00:14:54.519                             : en:Becky And Dave Reunite00:20:58.716                             : en:Horvath And Balthazar Return00:25:27.985                             : en:Balthazar Recruits Dave00:31:09.326                             : en:Chinatown00:37:08.893                             : en:"I'd Like To Learn More"00:42:25.793                             : en:Horvath Finds Drake00:49:11.240                             : en:Becky Stops By00:53:41.301                             : en:Bathroom Fight00:57:56.139                             : en:The Prime Merlinean01:01:53.168                             : en:A Mess In The Lab01:07:04.270                             : en:Dave Finds Becky Again01:12:41.315                             : en:Car Chase01:17:24.849                             : en:Veronica's Story01:21:33.972                             : en:Going After The Grimhold01:25:44.806                             : en:Dave Comes Clean With Becky01:28:31.264                             : en:The Rising01:34:04.722                             : en:Dave Joins The Fight01:39:01.686                             : en:Balthazar is Dead01:42:38.819                             : en:End Credits[/spoiler][hr]

piratbit.ru

Скачать фильм Ученик чародея через торрент в хорошем качестве бесплатно HDRip

piratbit.ru

Размер: 1.36 GB | Добавлен: 6 лет 11 мес. назад | Торрент скачан:9812 раз
Реклама Дарим 3000 рублей за регистрацию, не упусти свой шанс получить шикарный бонус!!!

17-11-2010 19:00 Ученик чародея Скачать торрент  

Ученик чародея / The Sorcerer's Apprentice Год выпуска: 2010Страна: СШАЖанр: боевик, фэнтези, комедия, драма, приключенияПродолжительность: 01:39:07Перевод: Профессиональный (дублированый) [Лицензия]Русские субтитры: Нет

Режиссер: Джон ТёртелтаубВ ролях: Николас Кейдж, Джей Барушель, Альфред Молина, Тереза Палмер, Тоби Кеббелл, Омар Бенсон Миллер, Моника Беллуччи, Элис Крайдж, Джэйк Черри, Джеймс А. Стефенс.

Описание:Манхэттен, наши дни. Мастер магии Бальтазар Блэйк пытается защитить Нью-Йорк от своего старого врага Максима Хорвата — злобного колдуна с самыми черными планами. Однако, Бальтазар чувствует, что не справится один и ему нужен помощник. На эту роль он выбирает самого обычного парня Дэйва, который вовсе не хочет спасать мир. Однако ему придется пройти ускоренный курс магии и вступить в битву.. Информация:

* √ Качество: HDRip * √ Формат: AVI * √ Видео кодек: XviD * √ Аудио кодек: AC3 * √ Видео: 720x304 (2.37:1), 23.976 fps, XviD build 50 ~1398 kbps avg, 0.27 bit/pixel * √ Аудио: 48 kHz, AC3 Dolby Digital, 3/2 (L,C,R,l,r) + LFE ch, ~384.00 kbps avg

Семпл Скачать Ученик чародея через торрент http://i4.fastpic.ru/big/2010/1117/d3/8f5fdff68f92ff23106da959b65d40d3.jpg Скачать фильм Ученик чародея через торрент бесплантно в хорошем качестве Описание:Манхэттен, наши дни. Мастер магии Бальтазар Блэйк пытается защитить Нью-Йорк от своего старого врага Максима Хорвата — злобного ... 2010-11-17 19:00 9.9 10 19

Loading...

Loading...

Рекламный пират

17-11-2010 19:07 Ученик чародея Скачать торрент  

Спасибоу. Наконец-то лицуха.

17-11-2010 19:08 Ученик чародея Скачать торрент  

Спасибо!Забираюююю!

17-11-2010 19:11 Ученик чародея Скачать торрент  

ну наконец то лицуха!!!спс за релиз))

17-11-2010 19:12 Ученик чародея Скачать торрент  

Очень рад что фильм с хорошим звуком и качество тоже хорошее спасибо!!!

17-11-2010 19:15 Ученик чародея Скачать торрент  

супер спасибо дождались

17-11-2010 19:27 Ученик чародея Скачать торрент  

спасибо чувак буду качать

17-11-2010 19:50 Ученик чародея Скачать торрент  

17-11-2010 20:02 Ученик чародея Скачать торрент  

вот пришел нормал.спасибо.

Pекламный агент PB

17-11-2010 20:09 Ученик чародея Скачать торрент  

спасибо посмотрим

17-11-2010 20:35 Ученик чародея Скачать торрент  

18-11-2010 02:57 Ученик чародея Скачать торрент  

Спасибо за лиценз, давно жду!!!

18-11-2010 04:18 Ученик чародея Скачать торрент  

18-11-2010 05:16 Ученик чародея Скачать торрент  

спасибо поддайте жару плиз, скорости т е

18-11-2010 07:00 Ученик чародея Скачать торрент  

как качество pipl? я что, зря качаю?

18-11-2010 07:11 Ученик чародея Скачать торрент  

Спасибо. Делаем золотую раздачу

18-11-2010 09:12 Ученик чародея Скачать торрент  

Спасибо, фильм хорош.

Pекламный агент PB

18-11-2010 17:37 Ученик чародея Скачать торрент  

фильм 5+ качество 5+ звук 5+ спасибо

19-11-2010 16:53 Ученик чародея Скачать торрент  

trol2007 писал(а):

как качество pipl? я что, зря качаю?

Написано же ЛИЦЕНЗИЯ!!!

19-11-2010 17:40 Ученик чародея Скачать торрент  

Охо хо фильм ураган понравился личная оценка 10 из 10

К стати не давно узнал настоящую фамилию Николаса Кейджа

Его настоящая фамилия — Коппола, но так как Николас не хотел пользоваться славой своего знаменитого дядюшки Фрэнсиса Форда Копполы, он решил взять творческий псевдоним. В одних интервью актер признавался, что выбрал фамилию Кейдж в честь композитора-авангардиста, в других — что в честь героя комиксов.

19-11-2010 18:20 Ученик чародея Скачать торрент  

спасибо посмотрим

19-11-2010 18:49 Ученик чародея Скачать торрент  

огромное спасибо

19-11-2010 19:13 Ученик чародея Скачать торрент  

19-11-2010 19:45 Ученик чародея Скачать торрент  

Спасибо фильм супер!! Всем советую. качество и звук на высоте. Качественная такая сказка.

19-11-2010 20:25 Ученик чародея Скачать торрент  

Атличный кин в таком качестве!!!!!!!!

Pекламный агент PB

Дорогой пользователь! Огромная просьба, поблагодарите релизера, оцените раздачу и оставьте свои комментарий, если Вы скачали Ученик чародея через торрент бесплатно! Внесите свою лепту в развитие PiratBit!

Комментировать посты могут только пользователи прошедшие не сложную регистрацию

Ученик чародея через торрент Скачать бесплатно Ученик чародея Ученик чародея скачать торрент Ученик чародея смотреть онлайн Cкачать фильм Ученик чародея бесплатно Ученик чародея скачать торрент в хорошем качестве Ученик чародея смотреть онлайн бесплатно в хорошем качестве

Вы не можете начинать темыВы не можете отвечать на сообщенияВы не можете редактировать свои сообщенияВы не можете удалять свои сообщенияВы не можете голосовать в опросахВы не можете прикреплять файлы к сообщениямВы можете скачивать файлы


Смотрите также