Скачать торрент три девятки в хорошем качестве


Фильм Три девятки (2016) скачать торрент в хорошем качестве hd

Название: Три девятки 

Оригинальное название: Triple 9 

Год выхода: 2016 

Жанр: Криминал, драма, триллер 

Режиссер: Джон Хиллкоут 

В ролях: Аарон Пол, Кейт Уинслет, Вуди Харрельсон, Кейси Аффлек, Энтони Маки, Чиветел Эджиофор, Галь Гадот, Норман Ридус, Тереза Палмер, Майкл Кеннет Уильямс, Клифтон Коллинз мл., Мишель Энг, Терренс Розмор, Терри Эбни, Александр Бабара, Энтони Белевцов, Луис Да Силва мл., Йен Касселберри, Э. Роджер Митчелл, Блейк МакЛеннан 

Порой в жизни случаются ситуации, когда необходимо всем жертвовать и не оставлять при этом следов совершенного злодеяния. Это позволяет сохранить собственную жизнь, но такого рода поступки наказуемы и смерть все равно постигнет в самой жесткой форме. Так случилось и в данной истории, где коррупция и компания тех, кто прикрывает все серые схемы вооруженных ограблений и нарко-поставок, дала трещину. Среди своих же есть подставное лицо. 

Сюжетом для данного боевика Три девятки станет серьезная схема ограблений и продуманных действий по устранению полицейских. Важным нюансом будет наличие преступной группы, состоящей из полицейских, которые решили поставить себя выше закона и готовы на все ради наживы. Хотя и у них нет шансов на выживание, так как на них охотится одна их местных группировок и может отобрать жизнь в любой момент у каждого из подставной банды грабителей. Даже в один из моментов придется пожертвовать жизнь одного из своих. 

Показанные ракурс ограблений и существенные перестрелки, не оставят равнодушным ни одного из зрителей. Прекрасно продуманные спецэффекты и большое количество опасных спецэффектов придадут картине необходимой интриги и добавят большого количества адреналина в кровь за это данная кинолента и получает столь высокие 10 из 10 пунктов. А зрители смогут насладится необычайно качественно атмосферой необычайно дерзких ограблении и побегов.

Страна: США 

Студия: Anonymous Content, MadRiver Pictures, Worldview Entertainment 

Продолжительность: 01:55:46 

Перевод: Профессиональный (полное дублирование) [iTunes] 

Кодек: x264 

Качество: BDRip 720p 

Видео: 1280х536 (2.40:1), 23,976 fps, AVC (H.264), [email protected], ~3100 Kbps avg, 0.188 bit/pixel 

Аудио #1: 48 kHz, AC3 Dolby Digital, 3/2 (L,C,R,l,r) + LFE ch, ~384.00 kbps avg | RUS

Аудио #2: 48 kHz, AC3 Dolby Digital, 3/2 (L,C,R,l,r) + LFE ch, ~448.00 kbps avg | ENG

Субтитры: русские (полные), английские (полные, SDH) 

Поиск торрент раздач, пожалуйста подождите!

Информация о торрент файле

Скачать торрент Торрент: Зарегистрирован Статус: v Проверено Просмотров: 17 033 Категория: триллеры Общий размер: 3.18 GB

Поделитесь ссылкой на наш сайт с друзьями в соц.сетях ↓

mega-torrent.co

Скачать фильм Три девятки через торрент в хорошем качестве бесплатно HDRip

Раздают: 9 [ 0 KB/s ]
Размер: 2.18 GB | Добавлен: 23 д. назад | Торрент скачан:144 раза
Реклама Дарим 3000 рублей за регистрацию, не упусти свой шанс получить шикарный бонус!!!

01-05-2016 18:28 Три девятки Скачать торрент  

Три девятки / Triple 9

Год выпуска: 2016Страна: США / Worldview Entertainment, Sierra / Affinity, Anonymous ContentЖанр: криминал, драма, триллерПродолжительность: 01:55:12Перевод: Дубляж (BD RUS)

Режиссер: Джон Хиллкоут

В ролях: Чиветель Эджиофор, Кейси Аффлек, Энтони Маки, Вуди Харрельсон, Кейт Уинслет, Аарон Пол, Клифтон Коллинз мл., Норман Ридус, Галь Гадот, Тереза Палмер

Описание: Банда преступников и коррумпированных копов планирует убить полицейского, чтобы провернуть ограбление на другом конце города.

Качество: HDRipФормат: AVIВидео кодек: XviDАудио кодек: AC3Видео: 720x304 (2.37:1), 24.000 fps, XviD build 50 ~2257 kbps avg, 0.43 bit/pixelАудио: 48 kHz, AC3 Dolby Digital, 3/2 (L,C,R,l,r) + LFE ch, ~448 kbps

ОбщееПолное имя : F:\ФИЛЬМЫ\Три девятки2016.D.HDRip.aviФормат : AVIФормат/Информация : Audio Video InterleaveПрофиль формата : OpenDMLРазмер файла : 2,18 ГбайтПродолжительность : 1 ч. 55 м.Общий поток : 2712 Кбит/секПрограмма кодирования : VirtualDubMod 1.5.10.3 | www.virtualdub-fr.org || (build 2550/release)Библиотека кодирования : VirtualDubMod build 2550/release

ВидеоИдентификатор : 0Формат : MPEG-4 VisualПрофиль формата : Advanced [email protected]Настройки формата : BVOP1Параметр BVOP формата : 1Параметр QPel формата : НетПараметр GMC формата : Без точки переходаПараметр матрицы формата : Default (MPEG)Идентификатор кодека : XVIDИдентификатор кодека/Подсказка : XviDПродолжительность : 1 ч. 55 м.Битрейт : 2253 Кбит/секШирина : 720 пикселейВысота : 304 пикселяСоотношение сторон : 2,35:1Частота кадров : 24,000 кадра/секЦветовое пространство : YUVСубдискретизация насыщенности : 4:2:0Битовая глубина : 8 битТип развёртки : ПрогрессивнаяМетод сжатия : С потерямиБит/(Пиксели*Кадры) : 0.429Размер потока : 1,81 Гбайт (83%)Библиотека кодирования : XviD 1.2.1 (UTC 2008-12-04)

АудиоИдентификатор : 1Формат : AC-3Формат/Информация : Audio Coding 3Параметр Endianness формата : BigИдентификатор кодека : 2000Продолжительность : 1 ч. 55 м.Вид битрейта : ПостоянныйБитрейт : 448 Кбит/секКаналы : 6 каналовРасположение каналов : Front: L C R, Side: L R, LFEЧастота : 48,0 КГцЧастота кадров : 31,250 кадров/сек (1536 SPF)Битовая глубина : 16 битМетод сжатия : С потерямиРазмер потока : 369 Мбайт (17%)Выравнивание : Разделение по промежуткамПродолжительность промежутка : 42 мс. (1,00 видеокадр)Время предзагрузки промежутка : 500 мс.ServiceKind/String : Complete Main

Скачать Три девятки через торрент http://pic.pb.wtf/images/11/qggfc.jpg Скачать фильм Три девятки через торрент бесплантно в хорошем качестве Описание: Банда преступников и коррумпированных копов планирует убить полицейского, чтобы провернуть ограбление на другом конце ... 2017-10-02 18:43 8.9 10 18

Loading...

Loading...

% Раздел Тема Автор DL S | L
Фильмы (Blu-ray, BD-Remux, HDDVD) [ 18.45 GB ] Три девятки / Triple 9 [2016 BD Remux 1080p] DUB [] bober100 Скачать
Фильмы (WEB-DL 720p, 1080p) [ 4.45 GB ] Три девятки / Triple 9 [2016 WEB-DL 1080p ] MeZZAPT Скачать
Фильмы 2016 [DVDrip, WEB-DLRip, HDrip] (DUB, MVO) [ 1.46 GB ] Три девятки / Triple 9 [2016 BDRip] - [] Twi7ter Скачать
Фильмы (DVD фильмы) [ 7.1 GB ] Три девятки / Triple 9 [2016 DVD9] R5 voovaz Скачать
Фильмы 2016 [DVDrip, WEB-DLRip, HDrip] (DUB, MVO) [ 2.18 GB ] Три девятки / Triple 9 [2016 BDRip] MVO+AVO bober100 Скачать
Фильмы 2016 [DVDrip, WEB-DLRip, HDrip] (DUB, MVO) [ 751 MB ] Три девятки / Triple 9 [2016 HDRip ""] Sherif Скачать
Фильмы (Blu-ray, BD-Remux, HDDVD) [ 40.57 GB ] Три девятки / Triple 9 [2016 BD Remux 1080p] +MVO+AVO bober100 Скачать

Последний раз редактировалось: coc900 (2017-10-02 18:43), всего редактировалось 4 раз(а)

Рекламный пират

03-05-2016 14:44 Три девятки Скачать торрент  

В начале фильма, фото с места убийства немцова.Кино неоднозначное, 6/10

10-05-2016 18:23 Три девятки Скачать торрент  

Ворон, Был немцов.да сплыл

18-05-2016 18:16 Три девятки Скачать торрент  

Релиз обновлен с Tunes на BD RUS!Просьба перекачать торрент файл!

03-10-2017 08:52 Три девятки Скачать торрент  

ну где это HDRIP - экранка блин

03-10-2017 15:53 Три девятки Скачать торрент  

смотрел этот фильм по триколору...мне очень понравлся

Дорогой пользователь! Огромная просьба, поблагодарите релизера, оцените раздачу и оставьте свои комментарий, если Вы скачали Три девятки через торрент бесплатно! Внесите свою лепту в развитие PiratBit!

Комментировать посты могут только пользователи прошедшие не сложную регистрацию

Три девятки через торрент Скачать бесплатно Три девятки Три девятки скачать торрент Три девятки смотреть онлайн Cкачать фильм Три девятки бесплатно Три девятки скачать торрент в хорошем качестве Три девятки смотреть онлайн бесплатно в хорошем качестве

Вы не можете начинать темыВы не можете отвечать на сообщенияВы не можете редактировать свои сообщенияВы не можете удалять свои сообщенияВы не можете голосовать в опросахВы не можете прикреплять файлы к сообщениямВы можете скачивать файлы

piratbit.ru

Скачать фильм Три девятки через торрент в хорошем качестве бесплатно BDRip-AVC от sokol_ok

ОбщееУникальный идентификатор : 218083985071760465404237319441125012806 (0xA411729E0BF02A35AB016D3C54FCF546)Полное имя : M:\1Rips\Triple 9\Triple.9.2016.BDRip-AVC.Dub.1.45Gb.stalkerok.new-team.mkvФормат : MatroskaВерсия формата : Version 4 / Version 2Размер файла : 1,46 ГбайтПродолжительность : 1 ч. 55 м.Общий поток : 1803 Кбит/секНазвание фильма : Triple 9 (2016) (New-Team) (Rip by stalkerok)Дата кодирования : UTC 2016-05-19 13:21:13Программа кодирования : mkvmerge v8.6.1 ('Flying') 64bitБиблиотека кодирования : libebml v1.3.3 + libmatroska v1.4.4

ВидеоИдентификатор : 1Формат : AVCФормат/Информация : Advanced Video CodecПрофиль формата : [email protected]Параметр CABAC формата : ДаПараметр ReFrames формата : 14 кадровИдентификатор кодека : V_MPEG4/ISO/AVCПродолжительность : 1 ч. 55 м.Битрейт : 1417 Кбит/секШирина : 936 пикселейВысота : 392 пикселяСоотношение сторон : 2,40:1Режим частоты кадров : ПостоянныйЧастота кадров : 23,976 (24000/1001) кадра/секЦветовое пространство : YUVСубдискретизация насыщенности : 4:2:0Битовая глубина : 8 битТип развёртки : ПрогрессивнаяБит/(Пиксели*Кадры) : 0.161Размер потока : 1,15 Гбайт (79%)Заголовок : Triple 9 (2016) (New-Team) (Rip by stalkerok)Библиотека кодирования : x264 core 148 r2665kMod a01e339Настройки программы : cabac=1 / ref=14 / deblock=1:-3:-2 / analyse=0x3:0x133 / me=umh / subme=10 / psy=1 / fade_compensate=0.00 / psy_rd=1.00:0.00 / mixed_ref=1 / me_range=32 / chroma_me=1 / trellis=2 / 8x8dct=1 / cqm=0 / deadzone=21,11 / fast_pskip=0 / chroma_qp_offset=-2 / threads=12 / lookahead_threads=3 / sliced_threads=0 / nr=0 / decimate=0 / interlaced=0 / bluray_compat=0 / constrained_intra=0 / fgo=0 / bframes=14 / b_pyramid=2 / b_adapt=2 / b_bias=0 / direct=3 / weightb=1 / open_gop=0 / weightp=2 / keyint=240 / keyint_min=23 / scenecut=40 / intra_refresh=0 / rc_lookahead=60 / rc=2pass / mbtree=0 / bitrate=1417 / ratetol=1.0 / qcomp=0.65 / qpmin=0 / qpmax=69 / qpstep=4 / cplxblur=20.0 / qblur=0.5 / vbv_maxrate=50000 / vbv_bufsize=62500 / nal_hrd=none / filler=0 / ip_ratio=1.30 / pb_ratio=1.25 / aq=1:0.85Default : ДаForced : Нет

АудиоИдентификатор : 2Формат : AC-3Формат/Информация : Audio Coding 3Расширение режима : CM (complete main)Параметр Endianness формата : BigИдентификатор кодека : A_AC3Продолжительность : 1 ч. 55 м.Вид битрейта : ПостоянныйБитрейт : 384 Кбит/секКаналы : 6 каналовРасположение каналов : Front: L C R, Side: L R, LFEЧастота : 48,0 КГцЧастота кадров : 31,250 кадров/сек (1536 spf)Метод сжатия : С потерямиРазмер потока : 318 Мбайт (21%)Язык : RussianDefault : ДаForced : Нет

Текст #1Идентификатор : 3Формат : UTF-8Идентификатор кодека : S_TEXT/UTF8Идентификатор кодека/Информация : UTF-8 Plain TextПродолжительность : 1 ч. 48 м.Битрейт : 52 бит/секCount of elements : 1403Размер потока : 41,6 Кбайт (0%)Язык : EnglishDefault : НетForced : Нет

Текст #2Идентификатор : 4Формат : UTF-8Идентификатор кодека : S_TEXT/UTF8Идентификатор кодека/Информация : UTF-8 Plain TextПродолжительность : 1 ч. 49 м.Битрейт : 60 бит/секCount of elements : 1650Размер потока : 48,4 Кбайт (0%)Заголовок : SDHЯзык : EnglishDefault : НетForced : Нет

Меню00:00:00.000 : en:Chapter 100:05:34.459 : en:Chapter 200:12:18.028 : en:Chapter 300:15:57.038 : en:Chapter 400:20:25.723 : en:Chapter 500:28:39.467 : en:Chapter 600:34:28.940 : en:Chapter 700:39:29.574 : en:Chapter 800:44:32.878 : en:Chapter 900:48:10.887 : en:Chapter 1000:56:32.639 : en:Chapter 1101:02:03.177 : en:Chapter 1201:07:03.018 : en:Chapter 1301:12:12.618 : en:Chapter 1401:16:22.493 : en:Chapter 1501:21:41.645 : en:Chapter 1601:26:30.100 : en:Chapter 1701:32:35.675 : en:Chapter 1801:41:34.253 : en:Chapter 1901:50:13.314 : en:Chapter 20

piratbit.ru

Скачать фильм Три девятки через торрент в хорошем качестве бесплатно BDRip

Раздают: 4 [ 0 KB/s ]
Размер: 2.18 GB | Добавлен: 1 год назад | Торрент скачан:233 раза
Реклама Дарим 3000 рублей за регистрацию, не упусти свой шанс получить шикарный бонус!!!

19-10-2016 20:23 Три девятки Скачать торрент  

Три девятки / Triple 9

Год выпуска: 2016Страна: СШАЖанр: криминал, драма, триллерПродолжительность: 01:55:46Перевод: Профессиональный (многоголосый)Переулок Переводмана ,Авторский (одноголосый) Юрий Немахов Субтитры: отсутствуют

Режиссер: Джон Хиллкоут

Бюджет: $20 000 000Премьера в мире: 16.02.2016 (США)

В ролях:

Аарон Пол, Кейт Уинслет, Вуди Харрельсон, Кейси Аффлек, Энтони Маки, Чиветель Эджиофор,Галь Гадот, Норман Ридус, Тереза Палмер, Майкл Кеннет Уильямс

Описание:

Банда преступников и коррумпированных копов планирует убить полицейского, чтобы провернуть ограбление на другом конце города.

Качество: BDRipФормат: AVIВидео кодек: XviDАудио кодек: AC3

Видео: 720x304 (2.37:1), 23,976 fps, XviD build 65 ~1806 kbps avg, 0.34 bit/pixel Аудио #1: RUS: 48 kHz, AC3 Dolby Digital, 3/2 (L,C,R,l,r) + LFE ch, ~448 kbps avg Профессиональный (многоголосый)Переулок ПереводманаАудио #2: RUS: 48 kHz, AC3 Dolby Digital, 3/2 (L,C,R,l,r) + LFE ch, ~448 kbps avg Авторский (одноголосый)Юрий Немахов

Внимание!: Присутствует ненормативная лексика.

Скачать Три девятки через торрент http://pic1.pb.wtf/images/10/2k6yj.jpg Скачать фильм Три девятки через торрент бесплантно в хорошем качестве Описание: Банда преступников и коррумпированных копов планирует убить полицейского, чтобы провернуть ограбление на другом конце ... 2016-10-19 20:23 7.7 10 9

Loading...

Loading...

Рекламный пират

ЛебронИванович

20-10-2016 13:39 Три девятки Скачать торрент  

"Банда преступников и коррумпированных копов планирует убить полицейского, чтобы провернуть ограбление на другом конце города."

ШТА?!?

20-10-2016 14:44 Три девятки Скачать торрент  

JoraPoker писал(а):

"Банда преступников и коррумпированных копов планирует убить полицейского, чтобы провернуть ограбление на другом конце города."

ШТА?!?

Банда накуренных преступников

Дорогой пользователь! Огромная просьба, поблагодарите релизера, оцените раздачу и оставьте свои комментарий, если Вы скачали Три девятки через торрент бесплатно! Внесите свою лепту в развитие PiratBit!

Комментировать посты могут только пользователи прошедшие не сложную регистрацию

Три девятки через торрент Скачать бесплатно Три девятки Три девятки скачать торрент Три девятки смотреть онлайн Cкачать фильм Три девятки бесплатно Три девятки скачать торрент в хорошем качестве Три девятки смотреть онлайн бесплатно в хорошем качестве

Вы не можете начинать темыВы не можете отвечать на сообщенияВы не можете редактировать свои сообщенияВы не можете удалять свои сообщенияВы не можете голосовать в опросахВы не можете прикреплять файлы к сообщениямВы можете скачивать файлы

piratbit.ru


Смотрите также