Скачать торрент мобильник в хорошем качестве


Мобильник (2016) скачать торрент фильм бесплатно в хорошем качестве

Скачал сам?! Дай скачать другим, не уходи с раздачи!!!

Информация о фильме Название: МобильникОригинальное название: CellГод выхода: 2016Жанр: ужасы, фантастика, триллерРежиссер: Тод «Кип» УильямсВ ролях: Оуэн Тиг, Сэмюэл Л. Джексон, Джон Кьюсак, Изабель Фурман, Стейси Кич, Джошуа Микель, Ллойд Кауфман, Алекс тер Авест, Майкл Бисли, Гриффин Фриман

Описание: Совершенно случайно главный персонаж фантастического триллера Мобильник отличный художник Клайтон Ридделл увидел необычное явление, которое связанное с мобильными телефонами. Через эти устройства прошел весьма необыкновенный сигнал, в результате которого люди, державшие в руках мобильники в реальности сошли с ума. Главный герой смог спастись от данного импульса и начал поиски подобных ему людей, которые сумели сохранить свое здравое сознание. Клайтон пытается отыскать свою любимую жену и сына для того, что бы узнать подверглись ли они импульсу.

Выпущено: США / Benaroya Pictures, Cargo Entertainment, Genre Co., TheПродолжительность: 01:37:23Озвучивание: Дублированный (iTunes)

ФайлФормат: AVI (XviD)Качество: WEB-DLRipВидео: XviD, 1752 Кбит/с, 720x304Аудио: Русский (AC3, 6 ch, 384 Кбит/с)

Размер файла: 1.46 GB

Поиск торрент раздач, пожалуйста подождите!

ufreetorrent.ru

Скачать фильм Мобильник через торрент в хорошем качестве бесплатно 1080p

ОбщееУникальный идентификатор                 : 229323638138079714337181720117599629182 (0xAC86204C52A9A3129D0F38BD75F56F7E)Полное имя                               : E:\Mobila.2O16.D.WEBDL.1080p.mkvФормат                                   : MatroskaВерсия формата                           : Version 4 / Version 2Размер файла                             : 3,37 ГбайтПродолжительность                        : 1 ч. 37 м.Общий поток                              : 4960 Кбит/секДата кодирования                         : UTC 2016-07-31 04:02:06Программа кодирования                    : mkvmerge v6.8.0 ('Theme for Great Cities') 64bit built on Mar  2 2014 21:34:26Библиотека кодирования                   : libebml v1.3.0 + libmatroska v1.4.1

ВидеоИдентификатор                            : 1Формат                                   : AVCФормат/Информация                        : Advanced Video CodecПрофиль формата                          : [email protected]Параметр CABAC формата                   : ДаПараметр ReFrames формата                : 5 кадровИдентификатор кодека                     : V_MPEG4/ISO/AVCПродолжительность                        : 1 ч. 37 м.Битрейт                                  : 4477 Кбит/секШирина                                   : 1920 пикселейВысота                                   : 800 пикселейСоотношение сторон                       : 2,40:1Режим частоты кадров                     : ПостоянныйЧастота кадров                           : 24,000 кадра/секЦветовое пространство                    : YUVСубдискретизация насыщенности            : 4:2:0Битовая глубина                          : 8 битТип развёртки                            : ПрогрессивнаяБит/(Пиксели*Кадры)                      : 0.121Размер потока                            : 3,05 Гбайт (90%)Язык                                     : EnglishDefault                                  : ДаForced                                   : НетЦветовой диапазон                        : LimitedОсновные цвета                           : BT.709Характеристики трансфера                 : BT.709Коэффициенты матрицы                     : BT.709

АудиоИдентификатор                            : 2Формат                                   : AC-3Формат/Информация                        : Audio Coding 3Расширение режима                        : CM (complete main)Параметр Endianness формата              : BigИдентификатор кодека                     : A_AC3Продолжительность                        : 1 ч. 37 м.Вид битрейта                             : ПостоянныйБитрейт                                  : 384 Кбит/секКаналы                                   : 6 каналовРасположение каналов                     : Front: L C R, Side: L R, LFEЧастота                                  : 48,0 КГцЧастота кадров                           : 31,250 кадров/сек (1536 spf)Метод сжатия                             : С потерямиРазмер потока                            : 268 Мбайт (8%)Язык                                     : RussianDefault                                  : ДаForced                                   : Нет

Меню00:00:00.000                             : en:Глава 100:06:07.958                             : en:Глава 200:11:44.416                             : en:Глава 300:17:38.582                             : en:Глава 400:23:28.623                             : en:Глава 500:28:58.164                             : en:Глава 600:34:58.205                             : en:Глава 700:40:45.288                             : en:Глава 800:47:36.871                             : en:Глава 900:53:48.954                             : en:Глава 1001:00:27.162                             : en:Глава 1101:06:02.662                             : en:Глава 1201:12:14.078                             : en:Глава 1301:19:20.036                             : en:Глава 1401:25:14.702                             : en:Глава 1501:30:51.202                             : en:Глава 16

piratbit.ru

Скачать фильм Мобильник через торрент в хорошем качестве бесплатно BDRip-AVC

ОбщееУникальный идентификатор                 : 206657925137502489631972890693263337718 (0x9B78DE5E52310B9C924E703B465AA8F6)Полное имя                               : D:\download\Cell.2016.BDRip-AVC by schultz R.G.Resident.mkvФормат                                   : MatroskaВерсия формата                           : Version 4 / Version 2Размер файла                             : 2,37 ГбайтПродолжительность                        : 1 ч. 37 м.Общий поток                              : 3484 Кбит/секДата кодирования                         : UTC 2016-08-12 13:19:00Программа кодирования                    : mkvmerge v6.7.0 ('Back to the Ground') 64bit built on Jan  8 2014 15:10:52Библиотека кодирования                   : libebml v1.3.0 + libmatroska v1.4.1

ВидеоИдентификатор                            : 1Формат                                   : AVCФормат/Информация                        : Advanced Video CodecПрофиль формата                          : [email protected]Параметр CABAC формата                   : ДаПараметр ReFrames формата                : 12 кадровИдентификатор кодека                     : V_MPEG4/ISO/AVCПродолжительность                        : 1 ч. 37 м.Битрейт                                  : 2207 Кбит/секШирина                                   : 1024 пикселяВысота                                   : 426 пикселейСоотношение сторон                       : 2,40:1Режим частоты кадров                     : ПостоянныйЧастота кадров                           : 23,976 кадра/секЦветовое пространство                    : YUVСубдискретизация насыщенности            : 4:2:0Битовая глубина                          : 8 битТип развёртки                            : ПрогрессивнаяБит/(Пиксели*Кадры)                      : 0.211Размер потока                            : 1,45 Гбайт (61%)Библиотека кодирования                   : x264 core 146 r2538 121396cНастройки программы                      : cabac=1 / ref=12 / deblock=1:-3:-3 / analyse=0x3:0x113 / me=umh / subme=11 / psy=1 / psy_rd=1.00:0.00 / mixed_ref=1 / me_range=48 / chroma_me=1 / trellis=2 / 8x8dct=1 / cqm=0 / deadzone=21,11 / fast_pskip=0 / chroma_qp_offset=-2 / threads=12 / lookahead_threads=3 / sliced_threads=0 / nr=0 / decimate=0 / interlaced=0 / bluray_compat=0 / constrained_intra=0 / bframes=13 / b_pyramid=2 / b_adapt=2 / b_bias=0 / direct=3 / weightb=1 / open_gop=0 / weightp=2 / keyint=240 / keyint_min=23 / scenecut=40 / intra_refresh=0 / rc_lookahead=40 / rc=2pass / mbtree=1 / bitrate=2207 / ratetol=1.0 / qcomp=0.60 / qpmin=0 / qpmax=69 / qpstep=4 / cplxblur=20.0 / qblur=0.5 / vbv_maxrate=14000 / vbv_bufsize=14000 / nal_hrd=none / filler=0 / ip_ratio=1.40 / aq=1:1.00Язык                                     : EnglishDefault                                  : ДаForced                                   : Нет

Аудио #1Идентификатор                            : 2Формат                                   : AC-3Формат/Информация                        : Audio Coding 3Расширение режима                        : CM (complete main)Параметр Endianness формата              : BigИдентификатор кодека                     : A_AC3Продолжительность                        : 1 ч. 37 м.Вид битрейта                             : ПостоянныйБитрейт                                  : 384 Кбит/секКаналы                                   : 6 каналовРасположение каналов                     : Front: L C R, Side: L R, LFEЧастота                                  : 48,0 КГцБитовая глубина                          : 16 битМетод сжатия                             : С потерямиРазмер потока                            : 268 Мбайт (11%)Язык                                     : RussianDefault                                  : ДаForced                                   : Нет

Аудио #2Идентификатор                            : 3Формат                                   : AC-3Формат/Информация                        : Audio Coding 3Расширение режима                        : CM (complete main)Параметр Endianness формата              : BigИдентификатор кодека                     : A_AC3Продолжительность                        : 1 ч. 37 м.Вид битрейта                             : ПостоянныйБитрейт                                  : 448 Кбит/секКаналы                                   : 6 каналовРасположение каналов                     : Front: L C R, Side: L R, LFEЧастота                                  : 48,0 КГцБитовая глубина                          : 16 битМетод сжатия                             : С потерямиЗадержка видео                           : 28 мс.Размер потока                            : 312 Мбайт (13%)Язык                                     : RussianDefault                                  : НетForced                                   : Нет

Аудио #3Идентификатор                            : 6Формат                                   : AC-3Формат/Информация                        : Audio Coding 3Расширение режима                        : CM (complete main)Параметр Endianness формата              : BigИдентификатор кодека                     : A_AC3Продолжительность                        : 1 ч. 37 м.Вид битрейта                             : ПостоянныйБитрейт                                  : 448 Кбит/секКаналы                                   : 6 каналовРасположение каналов                     : Front: L C R, Side: L R, LFEЧастота                                  : 48,0 КГцБитовая глубина                          : 16 битМетод сжатия                             : С потерямиРазмер потока                            : 312 Мбайт (13%)Язык                                     : EnglishDefault                                  : НетForced                                   : Нет

Текст #1Идентификатор                            : 4Формат                                   : UTF-8Идентификатор кодека                     : S_TEXT/UTF8Идентификатор кодека/Информация          : UTF-8 Plain TextЗаголовок                                : FullЯзык                                     : RussianDefault                                  : НетForced                                   : Нет

Текст #2Идентификатор                            : 5Формат                                   : UTF-8Идентификатор кодека                     : S_TEXT/UTF8Идентификатор кодека/Информация          : UTF-8 Plain TextЗаголовок                                : FullЯзык                                     : EnglishDefault                                  : НетForced                                   : Нет

Меню00:00:00.000                             : en:Chapter 0100:09:20.768                             : en:Chapter 0200:23:27.697                             : en:Chapter 0300:40:51.949                             : en:Chapter 0400:55:54.559                             : en:Chapter 0501:09:27.788                             : en:Chapter 0601:20:39.209                             : en:Chapter 0701:32:47.061                             : en:Chapter 08

piratbit.ru

Скачать фильм Мобильник через торрент в хорошем качестве бесплатно BDRip от Twi7ter

piratbit.ru

Раздают: 2 [ 0 KB/s ]
Размер: 1.42 GB | Добавлен: 1 год 2 мес. назад | Торрент скачан:1866 раз
Реклама Дарим 3000 рублей за регистрацию, не упусти свой шанс получить шикарный бонус!!!

14-08-2016 12:04 Мобильник Скачать торрент  

Мобильник / Cell

«When everyone is connected no one is safe»

Год выпуска: 2016Страна: США / Genre Co., The, Benaroya Pictures, Cargo EntertainmentЖанр: Ужасы, фантастика, триллерПродолжительность: 01:37:25Перевод: Профессиональный (полное дублирование) [iTunes]Субтитры: НетРежиссер: Тод «Кип» УильямсВ ролях: Джон Кьюсак, Сэмюэл Л. Джексон, Изабель Фурман, Кларк Сарулло, Итан Эндрю Касто, Оуэн Тиг, Джошуа Микель, Энтони Рейнольдс, Эрин Элизабет БарнсОписание: История художника Клайтона Ридделла, становящегося свидетелем разрушительного действия некоего опасного импульса, источающегося сотовыми телефонами (скорость его распространения невероятно высока) и превращающего попавших под его влияние людей в безумцев. В компании нескольких незараженных героев он отправляется на поиски своей супруги и сына, чтобы выяснить, удалось ли спастись его семье.Рейтинг:

MPAA: R - Лицам до 17 лет обязательно присутствие взрослого

Качество: BDRip | исх. CELL_2016_REMUX_HDCLUB |Формат: AVIВидео кодек: XviDАудио кодек: AC3Видео: 720x304 (2.37:1), 23.976 fps, XviD build 73 ~1690 kbps avg, 0.32 bit/pixelАудио: 48 kHz, AC3 Dolby Digital, 3/2 (L,C,R,l,r) + LFE ch, ~384 kbps

Релиз: &

Скачать Мобильник через торрент http://s018.radikal.ru/i500/1608/e1/a21326284b78.png Скачать фильм Мобильник через торрент бесплантно в хорошем качестве Описание: История художника Клайтона Ридделла, становящегося свидетелем разрушительного действия некоего опасного импульса, источающегося ... 2016-08-14 12:04 9.4 10 33

Loading...

Loading...

Рекламный пират

14-08-2016 13:32 Мобильник Скачать торрент  

Книгу прочитал на одном дыхании. Кинг - может. Вроде те же зомбаки, но подача, на мой взгляд, интересная. Посмотрим, не испортили ли произведение сценаристы с продюсерами.

14-08-2016 14:43 Мобильник Скачать торрент  

Поддайте скорости

14-08-2016 15:08 Мобильник Скачать торрент  

Книга половчей чем фильм)

Последний раз редактировалось: bober100 (2016-08-14 16:08), всего редактировалось 1 раз

14-08-2016 15:29 Мобильник Скачать торрент  

mirage10081988 писал(а):

Поддайте скорости Добавили)

14-08-2016 17:13 Мобильник Скачать торрент  

Полный бред, особенно концовка. Раздающему респект.

15-08-2016 14:31 Мобильник Скачать торрент  

В целом кин неплохой но могли бы концовку раскочать по грамотнее

17-08-2016 19:00 Мобильник Скачать торрент  

Читал книгу, не самое сильное произведение Кинга, но и не плохое. А фильм откровенно слабый! Жаль! Раздающему спасибо!

Дорогой пользователь! Огромная просьба, поблагодарите релизера, оцените раздачу и оставьте свои комментарий, если Вы скачали Мобильник через торрент бесплатно! Внесите свою лепту в развитие PiratBit!

Комментировать посты могут только пользователи прошедшие не сложную регистрацию

Мобильник через торрент Скачать бесплатно Мобильник Мобильник скачать торрент Мобильник смотреть онлайн Cкачать фильм Мобильник бесплатно Мобильник скачать торрент в хорошем качестве Мобильник смотреть онлайн бесплатно в хорошем качестве

Вы не можете начинать темыВы не можете отвечать на сообщенияВы не можете редактировать свои сообщенияВы не можете удалять свои сообщенияВы не можете голосовать в опросахВы не можете прикреплять файлы к сообщениямВы можете скачивать файлы

Мобильник торрент скачать | Скачать торренты в BDRip и HDRip качестве

Мобильник / Cell (2016) WEB-DLRip | iTunes1.46 GBМобильник / Cell (2016) WEB-DL 1080p | iTunes3.37 GBМобильник / Cell (2016) WEB-DLRip от MegaPeer | iTunes746.34 MBМобильник / Cell (2016) WEB-DL 720p | iTunes3.31 GBМобильник / Cell (2016) WEB-DL 720p | A3.66 GBМобильник / Cell (2016) WEB-DLRip-AVC | L2.15 GBНиколай Нестеров | Мобильник для героя (2017) [FB2]1.28 MBМобильник / Cell (2016) WEB-DLRip от MegaPeer | A1.77 GBМобильник / Cell (Тод «Кип» Уильямс / Tod «Kip» Williams) [2016, США, ужасы, фантастика, триллер, BDRip] Dub (iTunes)1.46 GBМобильник / Cell (Тод «Кип» Уильямс / Tod «Kip» Williams) [2016, США, ужасы, фантастика, триллер, BDRip] DUB (iTunes) + Original + Subs (rus,eng)2.13 GBСтивен Кинг - Мобильник (2016) MP31.28 GBМобильник / Cell / 2016 / ДБ / BDRip / 1.37 ГБ1.37 GBМобильник / Cell (Тод «Кип» Уильямс / Tod Williams) [2016 г., ужасы, фантастика, триллер, WEB-DLRip] MVO (ColdFilm) + Original (Eng)1.46 GBМобильник / Cell (Тод «Кип» Уильямс / Tod Williams) [2016 г., ужасы, фантастика, триллер, BDRip 720p] Dub (iTunes) + Original (Eng)5.32 GBМобильник / Cell (2016) BDRip 720p | iTunes5.32 GBМобильник / Cell (2016) BDRip от ExKinoRay | D | iTunes1.42 GBМобильник / Cell (2016) BDRip 720p от ExKinoRay | D, A | iTunes4.49 GBМобильник / Cell (Тод «Кип» Уильямс / Tod Williams) [2016 г., ужасы, фантастика, триллер, WEB-DLRip-AVC] MVO (ColdFilm) + Original (Eng) + Sub (Eng)2.15 GBМобильник / Cell (2016) HDRip от Scarabey | A1.45 GBМобильник / Cell (Тод «Кип» Уильямс / Tod Williams) [2016 г., ужасы, фантастика, триллер, HDRip] Dub (iTunes)1.37 GBКинг Стивен - Мобильник [BIGBAG, (ЛИ), 2016 г., 192 kbps, MP3]1.29 GBМобильник / Cell / 2016 / ДБ, АП (Матвеев), СТ / BDRip (1080p) / 10.71 ГБ10.71 GBМобильник / Cell (Тод «Кип» Уильямс / Tod Williams) [2016 г., ужасы, фантастика, триллер, BDRip] AVO (Матвеев) + Sub (Rus)1.45 GBМобильник / Cell (2016) BDRip [H.264/720p]4.49 GBКинг Стивен - Мобильник [Герасимов Вячеслав, 2012 г., 128 kbps, 44 kHz, Mono, MP3]871.4 MBМобильник / Cell (Тод «Кип» Уильямс / Tod «Kip» Williams ) [2016, США, Ужасы, фантастика, триллер, WEB-DL, HD (720p)] VO + Original + sub (rus, eng)3.58 GBМобильник / Cell / 2016 / АП (Есарев) / HDRip / 1.46 ГБ1.46 GBМобильник / Cell (Тод Кип Уильямс) [2016 г., ужасы, фантастика, триллер, WEB-DLRip] MVO1.37 GBМобильник / Cell / 2016 / ДБ / BDRip (720p) / 5.32 ГБ5.32 GBРингтоны на мобильник для металлистов и рокеров (2011) MP384.32 MBМобильник / Cell (2016) BDRip [H.264]2.37 GBСтивен Кинг - Мобильник / Фантастика / 2016 / BIGBAG / MP3 / 1.28 ГБ1.28 GBCell - Stephen King ("Мобильник" - Стивен Кинг) (2006) (English AudioBook)341.6 MB[Рингтоны] Музыка кино СССР и др. интересные мелодии для мобильника, mp3 [256 kbps] ч.1, ч.2, ч.3 +Bonus.198.2 MBМобильник / Cell (Тод Кип Уильямс) [2016 г., ужасы, фантастика, триллер, WEB-DL 1080p] Dub (iTunes)3.37 GBМобильник / Cell / 2016 / ДБ, АП (Матвеев) / BDRip (AVC) / 2.59 ГБ2.59 GBСпрашивали-отвечаем - Инджиев А.А. - Мобильный телефон. 20 новых советов для эффективного использования вашего мобильника [2008, PDF, RUS]21.5 MBМобильник / Cell (Тод Кип Уильямс) [2016 г., ужасы, фантастика, триллер, WEB-DLRip] Dub (iTunes)1.46 GBМобильник / Cell / 2016 / ДБ, АП (Матвеев), СТ / Blu-Ray Remux (1080p) / 18.87 ГБ18.87 GBИДДК - Немецкий язык Экспресс-курс (для ПК и мобильников) [2006]71.6 MBМобильник / Cell (Тод Уильямс / Tod Williams) [2016, США, ужасы, фантастика, триллер, WEB-DLRip] Dub (iTunes)746.3 MBЧертов мобильник / Hellphone (2007) HDTVRip от Deadmauvlad | D748.51 MBМобильник / Cell (Тод «Кип» Уильямс / Tod Williams) [2016 г., ужасы, фантастика, триллер, HDRip] Dub (iTunes)746 MBМобильник / Сотовый / Телефон / Handphone / Haendeupon (Ким Хан Мин / Kim Han-min) [2009, Южная Корея, триллер, криминал, драма, DVDRip] DVO (den904, DeadSno)1.47 GBКинг Стивен - Мобильник [Герасимов Вячеслав, 2012, 96 kbps, MP3]630 MBМобильник / Cell (Тод Кип Уильямс) [2016 г., ужасы, фантастика, триллер, WEB-DL 720p] Dub (iTunes) + Original + Subs3.31 GB[ATV3] Мобильник / Cell (Тод «Кип» Уильямс / Tod «Kip» Williams ) [2016, США, Ужасы, фантастика, триллер, WEB-DL, HD (1080p)] DUB3.49 GBЧертов мобильник / Hellphone (Джеймс Ют / James Huth) [2007, Франция, черная комедия, DVD5] Dub + Rus Sub + Original Fre3.83 GB(Польский язык) Stephen King / Стивен Кинг - Komorka / Мобильник [Zbigniew Zapasiewicz, 2008, 64 kbps]400.2 MBСтивен Кинг - Мобильник [2016 г., фантастика, триллер, аудиокнига, MP3, 192 kbps] RUS1.28 GB tparser.org – торрент поисковик по популярным торрент трекерам. Находить и скачивать новинки кино в HDRip и BDRip качестве через tparser намного проще! Добро пожаловать на крупный торрент архив фильмов и игр tparser.org. Вам больше не придется искать торренты на основных торрент трекерах в поисках нужной раздачи – мы предлагаем найти и скачать фильмы в хорошем качестве прямо на нашем сайте. Наш сервис поиска торрентов в реальном времени собирает информацию с крупных торрент трекеров и сортирует полученные результаты в удобную таблицу. Скачивайте торренты без ограничений и без всяких регистраций на трекерах. Начните скачивать торрент Мобильник прямо сейчас!

tparser.org


Смотрите также