Скачать торрент ип ман 2 в хорошем качестве


Ип Ман 2 торрент скачать

Ип Ман 2 / Yip Man 2 / Ip Man 2 (2010) BDRip 720p | GER Transfer4.37 GBИп Ман 2 / Yip Man 2: Chung si chuen kei (2010) HDRip от Scarabey744.83 MBИп Ман 2 / Yip Man 2: Chung si chuen kei (2010) HDRip1.37 GBИп Ман 2 / Ip Man 2 (2010) BDRip-AVC от ExKinoRay | P22.54 GBИп Ман 2 / Ip Man 2 / Yip Man 2 (2010) BDRip от HELLYWOOD2.18 GBИп Ман (Квадрология) / Yip Man. Quadrology / 2008-2013 / 2 x ПМ, 4 x ПД, АП (Сербин), ПО, СТ / BDRip (AVC) / 10.86 ГБ10.86 GBИп Ман 2 / Yip Man 2 / Ip Man 2 (Уилсон Ип / Wilson Yip) [2010, Китай, Боевик, драма, биография, история, спорт, BDRip] MVO (BBC Saint-Petersburg)1.46 GBИп Ман 2 / Yip Man 2 / Ip Man 2 (2010) BDRip 1080p12.07 GBИп Ман 2 / Yip Man 2 / Ip Man 2 (Уилсон Ип / Wilson Yip) [2010, боевик, биография, история, BDRip 1080p]12.07 GBИп Ман 2 / Yip Man 2 / 2010 / ПМ / BDRip / 2.18 ГБ2.18 GBИп Ман 2 / Yip Man 2 (2010) BDRip-AVC от HQCLUB3.58 GBИп Ман 2 / Ip Man 2 / Yip Man 2 (2010) BDRip2.47 GBИп Ман 2 / Yip Man 2 / Ip Man 2 (Уилсон Ип / Wilson Yip) [2010, Китай, Гонконг, боевик, драма, биография, история, BDRip-AVC] DVO743.9 MBИп Ман 2 / Yip Man 2 (2010) BDRip-AVC | iPhone | P21.65 GBИп Ман 2 / Yip Man 2 / Ip Man 2 (Уилсон Ип / Wilson Yip) [2010, боевик, биография, история, BDRip 720p]7.68 GBИп Ман 2 / Yip Man 2: Chung si chuen kei (2010) BDRip 720p6.83 GBИп Ман 2 / Ip Man 2 / Yip Man 2 (2010) BDRip [H.264/720p]5.39 GBИп Ман 2 / Yip Man 2 / Ip Man 2 (Уилсон Ип / Wilson Yip) [2010, Гонконг, боевик, биография, история, BDRip] DVO + Original2.18 GBИп Ман 2 / Yip Man 2 (2010) BDRip 1080p4.34 GBИп Ман 2 / Yip Man 2 / 2010 / ПМ / HDRip / 1.37 ГБ1.37 GBИп Ман 2 / Ip Man 2 / Yip Man 2 (2010) BDRip [H.264/1080p]10.6 GBИп Ман 2 / Yip Man 2 / Ip Man 2 (2010) BDRip от HQCLUB2.18 GBИп Ман 2 / Ip Man 2 / Yip Man 2 (Уилсон Ип / Wilson Yip) [2010,Гонконг, Китай, боевик, биография, история, BDRip, HD (720p)] DVO, Original + sub (RUS)6.49 GB(Score) Ip Man 2 / Ип Мэн 2 / Ип Ман 2 (Kenji Kawai) - 2010, MP3 (tracks), 320 kbps139.5 MBИп Ман 2 / Yip Man 2 / 2010 / ПМ / HDRip / 745 МБ745 MBИп Ман 2 / Yip Man 2 / Ip Man 2 (Уилсон Ип / Wilson Yip) [2010, Гонконг, боевик, биография, история, BDRip] DVO (Кубик в Кубике)1.45 GBИп Ман 2 / Yip Man 2 (2010) BDRip2.19 GBИп Ман 2 / Yip Man 2 / 2010 / ПД, СТ / BDRip (1080p) / 10.59 ГБ10.59 GBИп Ман / Ip Man / 2008 / 2 x ПМ, 2 x ПД, СТ / BDRip (1080p) / 15.24 ГБ15.24 GBИп Ман / Ip Man (Уилсон Йип / Wilson Yip) [2008, Китай, Гонконг, Боевик, биография, история, BDRip-AVC] 2 x VO + Original + Subs (rus, eng)2.71 GBИп Ман 2 / Ip Man 2 / Yip Man 2: Chung si chuen kei (Уилсон Ип / Wilson Yip) [2010, Боевик, биография, история, BDRemux 1080p] DVO(BBC Saint-Petersburg)+ORG28.17 GBИп Ман 2 / Yip Man 2 (2010) BDRip от Wegas Digital2.19 GBИп Ман 2 / Ip Man 2 / Yip Man 2 : Chung si chuen kei (Уилсон Ип / Wilson Yip) [2010, Гонконг, боевик, биография, история, BDRip-AVC] DVO (BBC Saint-Petersburg) + Orig + Subs (rus , eng)3.1 GB[VIDEO4PDA] Ип Ман 2 / Yip Man 2: Chung si chuen kei (Уилсон Ип / Wilson Yip)[2010, боевик, биография, история, DVDScreener][AVI, 320x144]341.2 MBИп Ман 2 / Yip Man 2: Chung si chuen kei (Уилсон Ип / Wilson Yip)[2010, боевик, биография, история, DVDRip]573.8 MBИп Ман 2 / Yip Man 2 / Ip Man 2 (Уилсон Ип / Wilson Yip) [2010, боевик, биография, история, BDRip, 720p / DVD5]5.39 GBИп Ман / Ip Man / 2008 / 2 x ПМ, 2 x ПД, ПО, АП (Сербин), СТ / BDRip (AVC) / 3.84 ГБ3.84 GBИп Ман 2 / Yip Man 2 (Уилсон Ип / Wilson Yip) [2010, Китай, боевик, биография, история, DVDScreener]680.8 MBИп Ман, Ип Ман 2 (Полная версия: 2 фильма) / Yip Man, Yip Man 2 / 2008, 2010 / ПМ / DVD-9 / 7.35 ГБ7.35 GBИп Ман 2 / Yip Man 2 (Уилсон Ип / Wilson Yip) [2010, Китай, Гонконг, Боевик, биография, история, BDRemux>DVD9 (Custom)] DVO (BBC Saint-Petersburg) + DVO (Кубик в кубе) Sub rus7.31 GB[VIDEO4PSP] Ип Ман 2 / Yip Man 2 / Ip Man 2 (Уилсон Ип) [2010, Боевые искусства, боевик, биография, история, BDRip]626.6 MBИп Ман 2 / Yip Man 2: Chung si chuen kei (Уилсон Ип / Wilson Yip) [2010, Гонконг, Боевик, биография, история, HDRip] DVO744.8 MBИп Ман 2 / Ip Man 2 / Yip Man 2 (2010) BDRip-AVC от ed_rez2.46 GBИп Ман 2 / Yip Man 2 (2010) [720p] BDRip6.83 GBИп Ман 2 / Yip Man 2: Chung si chuen kei (2010) [1080p] BDRemux28.2 GBИп Ман 2 / Yip Man 2 (2010) BDRip [720p]10.6 GBИп Ман 2 / Yip Man 2 / 2010 / ПД / BDRip (1080p) / 11.87 ГБ11.87 GBИп Ман 2 / Yip Man 2 (2010) (Уилсон Ип) [2010 г., биография, боевик, DVDRip]1.4 GBИп Ман 2 / Yip Man 2 (Ip Man 2) / 2010 / ПД / Blu-ray Remux (1080p) / 28.17 ГБ28.17 GBИп Ман 2 / Yip Man II: Chung si chuen kei / 2010 / ПД / BDRip (720p) / 7.68 ГБ7.68 GB tparser.org – торрент поисковик по популярным торрент трекерам. Находить и скачивать новинки кино в HDRip и BDRip качестве через tparser намного проще! Добро пожаловать на крупный торрент архив фильмов и игр tparser.org. Вам больше не придется искать торренты на основных торрент трекерах в поисках нужной раздачи – мы предлагаем найти и скачать фильмы в хорошем качестве прямо на нашем сайте. Наш сервис поиска торрентов в реальном времени собирает информацию с крупных торрент трекеров и сортирует полученные результаты в удобную таблицу. Скачивайте торренты без ограничений и без всяких регистраций на трекерах. Начните скачивать торрент Ип Ман 2 прямо сейчас!

tparser.org

Скачать фильм Ип Ман 2 через торрент в хорошем качестве бесплатно 1080p

GeneralUnique ID : 194689535493703181193402436363747574125 (0x9277D7334E51D2198314D282DA63C16D)Complete name : /home/sb753/files/Ip.Man.2.2010.1080p.BluRay.Rus.Chi.HDCLUB.mkvFormat : MatroskaFormat version : Version 2File size : 10.6 GiBDuration : 1h 48mnOverall bit rate : 14.0 MbpsMovie name : Ip Man 2 (2010) - Release for HDCLUBEncoded date : UTC 2014-10-09 20:02:10Writing application : mkvmerge v5.7.0 ('The Whirlwind') built on Jul 8 2012 20:08:51Writing library : libebml v1.2.3 + libmatroska v1.3.0

VideoID : 1Format : AVCFormat/Info : Advanced Video CodecFormat profile : [email protected] settings, CABAC : YesFormat settings, ReFrames : 5 framesCodec ID : V_MPEG4/ISO/AVCDuration : 1h 48mnBit rate : 11.0 MbpsWidth : 1 920 pixelsHeight : 816 pixelsDisplay aspect ratio : 2.35:1Frame rate : 24.000 fpsColor space : YUVChroma subsampling : 4:2:0Bit depth : 8 bitsScan type : ProgressiveBits/(Pixel*Frame) : 0.293Stream size : 8.10 GiB (76%)Writing library : x264 core 100 r1659 57b2e56Encoding settings : cabac=1 / ref=5 / deblock=1:-3:-3 / analyse=0x3:0x113 / me=tesa / subme=10 / psy=1 / psy_rd=1.05:0.00 / mixed_ref=1 / me_range=16 / chroma_me=1 / trellis=2 / 8x8dct=1 / cqm=0 / deadzone=21,11 / fast_pskip=0 / chroma_qp_offset=-2 / threads=12 / sliced_threads=0 / nr=0 / decimate=0 / interlaced=0 / constrained_intra=0 / bframes=6 / b_pyramid=2 / b_adapt=2 / b_bias=0 / direct=3 / weightb=1 / open_gop=1 / weightp=2 / keyint=250 / keyint_min=25 / scenecut=40 / intra_refresh=0 / rc=2pass / mbtree=0 / bitrate=11000 / ratetol=1.0 / qcomp=0.60 / qpmin=10 / qpmax=51 / qpstep=4 / cplxblur=20.0 / qblur=0.5 / ip_ratio=1.40 / pb_ratio=1.30 / aq=1:0.90Language : ChineseDefault : YesForced : No

Audio #1ID : 2Format : DTSFormat/Info : Digital Theater SystemsCodec ID : A_DTSDuration : 1h 48mnBit rate mode : ConstantBit rate : 1 510 KbpsChannel(s) : 6 channelsChannel positions : Front: L C R, Side: L R, LFESampling rate : 48.0 KHzBit depth : 16 bitsCompression mode : LossyStream size : 1.14 GiB (11%)Title : |??????????? ??????????, BBC Saint-Petersburg|Language : RussianDefault : YesForced : No

Audio #2ID : 3Format : DTSFormat/Info : Digital Theater SystemsCodec ID : A_DTSDuration : 1h 48mnBit rate mode : ConstantBit rate : 1 510 KbpsChannel(s) : 6 channelsChannel positions : Front: L C R, Side: L R, LFESampling rate : 48.0 KHzBit depth : 16 bitsCompression mode : LossyStream size : 1.14 GiB (11%)Language : ChineseDefault : NoForced : No

Text #1ID : 4Format : UTF-8Codec ID : S_TEXT/UTF8Codec ID/Info : UTF-8 Plain TextLanguage : RussianDefault : NoForced : No

Text #2ID : 5Format : UTF-8Codec ID : S_TEXT/UTF8Codec ID/Info : UTF-8 Plain TextLanguage : EnglishDefault : NoForced : No

Menu00:00:00.000 : :00:00:00.00000:06:24.458 : :00:06:24.45800:13:42.375 : :00:13:42.37500:20:08.333 : :00:20:08.33300:29:15.333 : :00:29:15.33300:35:17.417 : :00:35:17.41700:42:39.500 : :00:42:39.50000:50:46.708 : :00:50:46.70800:55:07.833 : :00:55:07.83301:03:11.375 : :01:03:11.37501:12:21.208 : :01:12:21.20801:17:21.792 : :01:17:21.79201:23:56.792 : :01:23:56.79201:30:05.792 : :01:30:05.79201:36:41.000 : :01:36:41.000

piratbit.ru

Скачать фильм Ип Ман 2 через торрент в хорошем качестве бесплатно BDRip

piratbit.ru

Размер: 2.19 GB | Добавлен: 6 лет 10 мес. назад | Торрент скачан:1047 раз
Реклама Дарим 3000 рублей за регистрацию, не упусти свой шанс получить шикарный бонус!!!

02-12-2010 18:50 Ип Ман 2 Скачать торрент  

Ип Ман 2 / Yip Man 2 (2010) BDRip Русское название: Ип Ман 2Оригинальное название: Yip Man 2Год выпуска: 2010Страна: Гонконг, Mandarin Films Co. Ltd.Жанр: Боевик, ДрамаОписание фильма:Сиквел известного фильма «Ип Ман». Полубиографический фильм, основанный на жизни Ип Мана, мастера боевого искусства Вин Чунь, учителя Брюса Ли. События этой части начинаются как раз в то время, когда заканчиваются события предыдущей — после того, как раненый Ип Ман бежит из Фошаня в Гонконг. Чтобы заработать на жизнь, он пытается преподавать Вин Чунь и берет себе группу учеников, среди них паренек по имени Хуан Лян. Лян ввязывается в драку с учениками школы другого мастера Хун Чжэньнаня (Саммо Хунг) и мастер Хун конфликтует с Ип Маном. Оказывается, что все мастера школ Гонконга состоят в некотором сообществе, для вступления в которое нужно бросить вызов другим мастерам и заплатить определенную сумму. Ип Ман побеждает вызвавшихся мастеров, но платить отказывается, за что оказывается без поддержки и в результате теряет место для занятий своей школы.Чуть позже в боксерском матче, организованном местной полицией, европейский чемпион Твистер ведет себя совершенно хамски, мастер Хун вызывает его на бой, но Твистер убивает его. Все китайское сообщество возмущено. Чтобы как-то разрядить обстановку, европейцы организуют матч-реванш, в котором любой китаец может бросить вызов Твистеру. Конечно же, вызывается Ип Ман.Режиссер: Уилсон Ип / Wilson YipАктеры:Донни Ен (Ip Man), Линн Хунг (Zhang Yong Cheng), Саймон Ям (Zhou Qing Quan), Саммо Хунг Кам-Бо (Hung Jan Nam), Хуан Сяомин (Wong Leung), Сю-Вонг Фан (Jin Shan Zhao), Кент Чэн (Fatso), Даррен Шахлави (Twister), Эмбер Чиа, Jiang Dai-Yan (Bruce Lee), Хак-Он Фанг, Calvin Cheng Ka-Sing (Zhou Guang Yao)Продолжительность: 01:47:49Перевод: Двухголосый закадровыйАвтор перевода: Кубик в кубе, BBC Saint-PetersburgЯзык: РусскийIMDb-рейтинг: 7.6/10 Качество: BDRipИсходник: BDRip 1080Автор Рипа: Wegas DigitalФормат: AVIВидео кодек: XviDАудио кодек: AC3Видео: 720x304 (2.37:1), 23.976 fps, XviD MPEG-4, 1745 kbps, 0.33 bit/pixelАудио 1: Русский AC3 5.1, 48 KHz, 384 kbps Профессиональный двухголосый (Кубик в кубе)Аудио 2: Русский AC3 5.1, 48 KHz, 384 kbps Профессиональный двухголосый (BBC Saint-Petersburg)Аудио 3: Китайский AC3 5.1, 48 KHz, 384 kbps (Оригинал)Размер: 2240.12 Mb (1/2 DVD-R)Релиз: Скачать Ип Ман 2 через торрент http://i13.fastpic.ru/big/2010/1202/36/71f33f3e4a9dab1cb62c978c64c13c36.png Скачать фильм Ип Ман 2 через торрент бесплантно в хорошем качестве Описание фильма:Сиквел известного фильма «Ип Ман». Полубиографический фильм, основанный на жизни Ип Мана, мастера боевого искусства Вин ... 2010-12-02 18:50 10 10 10

Loading...

Loading...

Рекламный пират

Дорогой пользователь! Огромная просьба, поблагодарите релизера, оцените раздачу и оставьте свои комментарий, если Вы скачали Ип Ман 2 через торрент бесплатно! Внесите свою лепту в развитие PiratBit!

Комментировать посты могут только пользователи прошедшие не сложную регистрацию

Ип Ман 2 через торрент Скачать бесплатно Ип Ман 2 Ип Ман 2 скачать торрент Ип Ман 2 смотреть онлайн Cкачать фильм Ип Ман 2 бесплатно Ип Ман 2 скачать торрент в хорошем качестве Ип Ман 2 смотреть онлайн бесплатно в хорошем качестве

Вы не можете начинать темыВы не можете отвечать на сообщенияВы не можете редактировать свои сообщенияВы не можете удалять свои сообщенияВы не можете голосовать в опросахВы не можете прикреплять файлы к сообщениямВы можете скачивать файлы

Скачать фильм Ип Ман 2 (2010) через торрент

gig-torrent.net

7 июля 2016 10:42 Ип Ман 2 / Yip Man 2 (2010) BDRip-AVC | iPhone | P2 .torrent   [Информация о файле (нажмите для просмотра)] Перевод: Русский профессиональный двухголосый закадровый (BBC Saint-Petersburg)Кодек: H.264Качество: BDRip-AVC 480p iPhoneВидео: 640x362 (851x362) at 23.976 fps, AVC at 1800 kbpsЗвук: 1: 48 kHz, AAC 2.0, 180 kbps - Русский профессиональный двухголосый закадровый (BBC Saint-Petersburg) 2: 48 kHz, AAC 2.0, 192 kbps - КитайскийСубтитры: Русские, АнглийскиеВидео #1: Идентификатор : 1 Формат : AVC Формат/Информация : Advanced Video Codec Профиль формата : [email protected] Параметр CABAC формата : Нет Параметр ReFrames формата : 2 кадра Идентификатор кодека : avc1 Идентификатор кодека/Информация : Advanced Video Coding Продолжительность : 1 ч. 48 м. Битрейт : 1800 Кбит/сек Максимальный битрейт : 6960 Кбит/сек Ширина : 640 пикселей Высота : 362 пикселя Соотношение сторон : 2,35:1 Режим частоты кадров : Постоянный Частота кадров : 24,000 кадра/сек Цветовое пространство : YUV Субдискретизация насыщенности : 4:2:0 Битовая глубина : 8 бит Тип развёртки : Прогрессивная Бит/(Пиксели*Кадры) : 0.324 Размер потока : 1,36 Гбайт (83%) Заголовок : Yip Man II (2010) Released for NNM-Club by gekka Библиотека кодирования : x264 core 133 r2334+704+50 a7549b7 tMod [[email protected]:2:0 X86_64] Настройки программы : cabac=0 / ref=2 / deblock=1:-1:-1 / analyse=0x1:0x131 / me=tesa / subme=7 / psy=1 / fade_compensate=1.00 / psy_rd=1.05:0.10 / mixed_ref=1 / me_range=32 / chroma_me=1 / trellis=2 / 8x8dct=0 / cqm=0 / deadzone=21,11 / fast_pskip=0 / chroma_qp_offset=-3 / threads=12 / lookahead_threads=2 / sliced_threads=0 / nr=0 / decimate=0 / interlaced=0 / bluray_compat=0 / constrained_intra=0 / fgo=0 / bframes=0 / weightp=0 / keyint=250 / keyint_min=24 / scenecut=40 / intra_refresh=0 / rc_lookahead=120 / rc=2pass / mbtree=1 / bitrate=1800 / ratetol=1.0 / qcomp=0.70 / qpmin=0 / qpmax=69 / qpstep=4 / cplxblur=20.0 / qblur=0.5 / vbv_maxrate=5000 / vbv_bufsize=5000 / nal_hrd=none / ip_ratio=1.30 / aq=4:0.90 / aq-sensitivity=10.00 / aq-factor=1.00:1.00:1.00 / aq2=0 / aq3=0 Язык : Chinese Дата кодирования : UTC 2013-07-28 06:08:47 Дата пометки : UTC 2013-07-28 06:09:10 Коэффициенты матрицы : BT.709Видео #2: Идентификатор : 7 Формат : JPEG Идентификатор кодека : jpeg Продолжительность : 1 ч. 48 м. Вид битрейта : Переменный Битрейт : 695 бит/сек Ширина : 640 пикселей Высота : 272 пикселя Соотношение сторон : 2,35:1 Режим частоты кадров : Переменный Частота кадров : 0,002 кадр/сек Минимальная частота кадров : 0,001 кадр/сек Максимальная частота кадров : 0,004 кадр/сек Цветовое пространство : YUV Субдискретизация насыщенности : 4:2:0 Битовая глубина : 8 бит Метод сжатия : С потерями Бит/(Пиксели*Кадры) : 1.996 Размер потока : 636 Кбайт (0%) Язык : Chinese Дата кодирования : UTC 2013-07-29 08:17:25 Дата пометки : UTC 2013-07-29 08:17:25Аудио #1: Идентификатор : 2 Формат : AAC Формат/Информация : Advanced Audio Codec Профиль формата : LC Идентификатор кодека : 40 Продолжительность : 1 ч. 48 м. Вид битрейта : Переменный Битрейт : 186 Кбит/сек Максимальный битрейт : 234 Кбит/сек Каналы : 2 канала Расположение каналов : Front: L R Частота : 48,0 КГц Метод сжатия : С потерями Размер потока : 144 Мбайт (9%) Заголовок : AAC Russian DVO (BBC Saint-Petersburg) Язык : Russian Дата кодирования : UTC 2013-07-28 06:09:00 Дата пометки : UTC 2013-07-28 06:09:10Аудио #2: Идентификатор : 3 Формат : AAC Формат/Информация : Advanced Audio Codec Профиль формата : LC Идентификатор кодека : 40 Продолжительность : 1 ч. 48 м. Вид битрейта : Переменный Битрейт : 192 Кбит/сек Максимальный битрейт : 232 Кбит/сек Каналы : 2 канала Расположение каналов : Front: L R Частота : 48,0 КГц Метод сжатия : С потерями Размер потока : 146 Мбайт (9%) Заголовок : AAC Chinese Язык : Chinese Дата кодирования : UTC 2013-07-28 06:09:05 Дата пометки : UTC 2013-07-28 06:09:10 Текст #1 Идентификатор : 4 Формат : Timed Text Режим смешивания : sbtl Идентификатор кодека : tx3g Продолжительность : 1 ч. 45 м. Вид битрейта : Переменный Битрейт : 63 бит/сек Размер потока : 48,2 Кбайт (0%) Заголовок : Subtitle Russian Язык : Russian Дата кодирования : UTC 2013-07-28 06:09:10 Дата пометки : UTC 2013-07-28 06:09:10 Текст #2 Идентификатор : 5 Формат : Timed Text Режим смешивания : sbtl Идентификатор кодека : tx3g Продолжительность : 1 ч. 45 м. Вид битрейта : Переменный Битрейт : 44 бит/сек Размер потока : 34,0 Кбайт (0%) Заголовок : Subtitle English Язык : English Дата кодирования : UTC 2013-07-28 06:09:10 Дата пометки : UTC 2013-07-28 06:09:10 Меню #1 00:00:00.000 : 00:00:00.000 00:06:24.458 : 00:06:24.458 00:13:42.375 : 00:13:42.375 00:20:08.333 : 00:20:08.333 00:29:15.333 : 00:29:15.333 00:35:17.417 : 00:35:17.417 00:42:39.500 : 00:42:39.500 00:50:46.708 : 00:50:46.708 00:55:07.833 : 00:55:07.833 01:03:11.375 : 01:03:11.375 01:12:21.208 : 01:12:21.208 01:17:21.792 : 01:17:21.792 01:23:56.792 : 01:23:56.792 01:30:05.792 : 01:30:05.792 01:36:41.000 : 01:36:41.000 Меню #2 Идентификатор : 6 Идентификатор кодека : text Продолжительность : 1 ч. 48 м. Язык : Chinese Дата кодирования : UTC 2013-07-29 08:17:22 Дата пометки : UTC 2013-07-29 08:17:22 Вид битрейта : CBR 00:00:00.000 : 00:00:00.000 00:06:24.458 : 00:06:24.458 00:13:42.375 : 00:13:42.375 00:20:08.333 : 00:20:08.333 00:29:15.333 : 00:29:15.333 00:35:17.417 : 00:35:17.417 00:42:39.500 : 00:42:39.500 00:50:46.708 : 00:50:46.708 00:55:07.833 : 00:55:07.833 01:03:11.375 : 01:03:11.375 01:12:21.208 : 01:12:21.208 01:17:21.792 : 01:17:21.792 01:23:56.792 : 01:23:56.792 01:30:05.792 : 01:30:05.792 01:36:41.000 : 01:36:41.000x264 x264 [info]: frame I:3090 Avg QP:18.92 size: 27613 x264 [info]: frame P:152575 Avg QP:20.95 size: 9006 x264 [info]: mb I I16..4: 24.2% 0.0% 75.8% x264 [info]: mb P I16..4: 1.8% 0.0% 3.5% P16..4: 48.1% 20.9% 10.4% 2.4% 0.9% skip:12.0% x264 [info]: coded y,uvDC,uvAC intra: 67.1% 78.0% 49.7% inter: 47.4% 42.8% 18.9% x264 [info]: i16 v,h,dc,p: 36% 14% 8% 41% x264 [info]: i4 v,h,dc,ddl,ddr,vr,hd,vl,hu: 28% 15% 13% 7% 9% 10% 7% 8% 5% x264 [info]: i8c dc,h,v,p: 47% 16% 26% 11% x264 [info]: ref P L0: 80.6% 19.4% x264 [info]: kb/s:1800.16 1,65 Gb 3 2
7 июля 2016 10:42 Ип Ман 2 / Yip Man 2 / Ip Man 2 (2010) BDRip 720p | GER Transfer .torrent   [Информация о файле (нажмите для просмотра)] Перевод: Профессиональный (двухголосый, закадровый)[BBC Saint-Petersburg] + Любительский (двухголосый) [Кубик в кубе]Качество: BDRipКонтейнер: MKVВидео: AVC, 1280x544 (2.35:1), 4959 kbps, 23.976 fps, 0.297 bppАудио №1: русский / AC3 / 5.1 / 48 kHz / 448 kbpsАудио №2: русский / AC3 / 5.1 / 48 kHz / 384 kbps 4,37 Gb 18 3
7 июля 2016 10:42 Ип Ман 2 / Ip Man 2 (2010) BDRip-AVC от ExKinoRay | P2 .torrent   [Информация о файле (нажмите для просмотра)] Перевод: Профессиональный двухголосыйСубтитры: Русские, английскиеКодек: H.264Формат: MKVКачество: BDRip-AVC (Blu-Ray Remux (1080р))Видео: MPEG-4 AVC, 2600 Кбит/с, 1024х432Звук: Русский (АС3, 6 ch, 384 Кбит/с)Перевод: AC3, 6 ch, 384 Кбит/с - 2,54 Gb 10 2
7 июля 2016 10:42 Ип Ман 2 / Yip Man 2: Chung si chuen kei (2010) HDRip от Scarabey .torrent   [Информация о файле (нажмите для просмотра)] Перевод: Профессиональный (двухголосый закадровый) - "Кубик в кубе"Кодек: XviDКачество: HDRipВидео: 688x288 (2.39:1), 23.976 fps, XviD build 50 ~828 kbps avg, 0.17 bit/pixelЗвук: 48 kHz, MPEG Layer 3, 2 ch, ~128.00 kbps avgСубтитры: нет 744,83 Mb 9 2
7 июля 2016 10:42 Ип Ман 2 / Yip Man 2 (2010) BDRip-AVC от HQCLUB .torrent   [Информация о файле (нажмите для просмотра)] Перевод: Профессиональный (двухголосый закадровый)|BBC Saint-Petersburg| + Профессиональный (двухголосый закадровый) |Кубик в Кубике| + Оригинальная звуковая дорожка (китайская)Субтитры: Русские (полные, ChinaFilm), Английские (полные)Формат: MKVКачество: BDRip-AVC (Источник:Видео: 1040x442 (2,35:1), 23.976 fps, [email protected], 2pass ~3600 kbps avg, 0.327 bit/pixelЗвук #1: 48 kHz, AC3 Dolby Digital, 3/2 (L,C,R,l,r) + LFE ch, ~384 kbps(BBC Saint-Petersburg)Звук #2: 48 kHz, AC3 Dolby Digital, 3/2 (L,C,R,l,r) + LFE ch, ~384 kbps(Кубик в Кубике)Звук #3: 48 kHz, AC3 Dolby Digital, 3/2 (L,C,R,l,r) + LFE ch, ~384 kbpsОригинальная звуковая дорожка (китайская)Видео: Идентификатор : 1 Формат : AVC Формат/Информация : Advanced Video Codec Профиль формата : [email protected] Параметр CABAC формата : Да Параметр ReFrames формата : 9 кадров Идентификатор кодека : V_MPEG4/ISO/AVC Продолжительность : 1 ч. 47 м. Битрейт : 3600 Кбит/сек Ширина : 1040 пикселей Высота : 442 пикселя Соотношение сторон : 2,35:1 Частота кадров : 23,976 кадра/сек Цветовое пространство : YUV Субдискретизация насыщенности : 4:2:0 Битовая глубина : 8 бит Тип развёртки : Прогрессивная Бит/(Пиксели*Кадры) : 0.327 Размер потока : 2,64 Гбайт (74%) Заголовок : Ип Ман 2 / Yip Man 2: Chung si chuen kei (2010) BDRip-AVC | HQCLUB Библиотека кодирования : x264 core 125 r2200 999b753 Настройки программы : cabac=1 / ref=9 / deblock=1:-3:-3 / analyse=0x3:0x113 / me=umh / subme=11 / psy=1 / psy_rd=1.05:0.05 / mixed_ref=1 / me_range=64 / chroma_me=1 / trellis=2 / 8x8dct=1 / cqm=0 / deadzone=21,11 / fast_pskip=0 / chroma_qp_offset=-5 / threads=6 / lookahead_threads=1 / sliced_threads=0 / nr=0 / decimate=1 / interlaced=0 / bluray_compat=0 / constrained_intra=0 / bframes=11 / b_pyramid=2 / b_adapt=2 / b_bias=0 / direct=1 / weightb=1 / open_gop=0 / weightp=2 / keyint=240 / keyint_min=23 / scenecut=40 / intra_refresh=0 / rc_lookahead=60 / rc=2pass / mbtree=0 / bitrate=3600 / ratetol=1.0 / qcomp=0.60 / qpmin=10 / qpmax=69 / qpstep=4 / cplxblur=20.0 / qblur=0.5 / vbv_maxrate=62500 / vbv_bufsize=50000 / nal_hrd=none / ip_ratio=1.40 / pb_ratio=1.30 / aq=1:0.70 Язык : Chinese Default : Да Forced : НетАудио #1: Идентификатор : 2 Формат : AC-3 Формат/Информация : Audio Coding 3 Расширение режима : CM (complete main) Параметр Endianness формата : Big Идентификатор кодека : A_AC3 Продолжительность : 1 ч. 47 м. Вид битрейта : Постоянный Битрейт : 384 Кбит/сек Каналы : 6 каналов Расположение каналов : Front: L C R, Side: L R, LFE Частота : 48,0 КГц Битовая глубина : 16 бит Метод сжатия : С потерями Размер потока : 296 Мбайт (8%) Заголовок : Профессиональный (двухголосый закадровый) |BBC Saint-Petersburg| Язык : Russian Default : Да Forced : НетАудио #2: Идентификатор : 3 Формат : AC-3 Формат/Информация : Audio Coding 3 Расширение режима : CM (complete main) Параметр Endianness формата : Big Идентификатор кодека : A_AC3 Продолжительность : 1 ч. 47 м. Вид битрейта : Постоянный Битрейт : 384 Кбит/сек Каналы : 6 каналов Расположение каналов : Front: L C R, Side: L R, LFE Частота : 48,0 КГц Битовая глубина : 16 бит Метод сжатия : С потерями Размер потока : 296 Мбайт (8%) Заголовок : Профессиональный (двухголосый закадровый) |Кубик в Кубике| Язык : Russian Default : Нет Forced : НетАудио #3: Идентификатор : 4 Формат : AC-3 Формат/Информация : Audio Coding 3 Расширение режима : CM (complete main) Параметр Endianness формата : Big Идентификатор кодека : A_AC3 Продолжительность : 1 ч. 47 м. Вид битрейта : Постоянный Битрейт : 384 Кбит/сек Каналы : 6 каналов Расположение каналов : Front: L C R, Side: L R, LFE Частота : 48,0 КГц Битовая глубина : 16 бит Метод сжатия : С потерями Размер потока : 296 Мбайт (8%) Заголовок : Оригинальная звуковая дорожка (китайская) Язык : Chinese Default : Нет Forced : Нет 3,58 Gb 5 2
7 июля 2016 10:42 Ип Ман 2 / Yip Man 2 / Ip Man 2 (2010) BDRip 1080p .torrent   [Информация о файле (нажмите для просмотра)] Перевод: Профессиональный (двухголосый) |BBC Saint-Petersburg|Кодек: H.264, DTSКачество: BDRip 1080pВидео: 1920 x 816 / 23.976 fps / 13011kbpsАудио 1: Chinese DTS, 1 536 Kbps, 6 канала(ов), 48,0 КГцАудио 2: Russian DTS, 1 536 Kbps, 6 канала(ов), 48,0 КГцСубтитры: Eng 12,07 Gb 8 3
7 июля 2016 10:42 Ип Ман 2 / Ip Man 2 / Yip Man 2 (2010) BDRip-AVC от ed_rez .torrent   [Информация о файле (нажмите для просмотра)] Качество: BDRip-AVC (Исходник: Blu-ray Remux (1080p) - HDClub)Видео: MPEG-4 AVC, 2500 Kбит/с, 1024x436, 23.976 кадр/сАудио: AC3, 6 ch, 384 Кбит/с 2,46 Gb 4 2
7 июля 2016 10:42 Ип Ман 2 / Yip Man 2 (2010) BDRip от Wegas Digital .torrent   [Информация о файле (нажмите для просмотра)] Качество: BDRipФормат: AVIВидео: 720x304 (2.37:1), 23.976 fps, XviD MPEG-4, 1745 kbps, 0.33 bit/pixelАудио 1: Русский AC3 5.1, 48 KHz, 384 kbps Профессиональный двухголосый(Кубик в кубе)Аудио 2: Русский AC3 5.1, 48 KHz, 384 kbps Профессиональный двухголосый(BBC Saint-Petersburg)Аудио 3: Китайский AC3 5.1, 48 KHz, 384 kbps(Оригинал) 2,19 Gb 3 1
7 июля 2016 10:42 Ип Ман 2 / Yip Man 2 (2010) BDRip 1080p .torrent   [Информация о файле (нажмите для просмотра)] Перевод: Профессиональный (двухголосый - BBC Saint-Petersburg)Кодек: x.264Качество: BDRip 1080pВидео: 1920x816, 5395 kb/s, 23.976 fpsЗвук: AC3, 448 kb/s (6Ch)Субтитры: нет 4,34 Gb 3 4
7 июля 2016 10:42 Ип Ман 2 / Yip Man 2 / Ip Man 2 (2010) BDRip от HQCLUB .torrent   [Информация о файле (нажмите для просмотра)] Перевод: профессиональный (двухголосый, BBC Saint-Petersburg) + оригинал + любительский (двухголосый, Кубик в кубе) (отдельно на Narod.ru)Субтитры: русские, английскиеФормат: AVIКачество: BDRip (источник: HD-TRACKER / Blu-Ray Remux / 1080p)Видео: 720x304 (2.37:1), 23.976 fps, XviD build 50 ~2120 kbps avg, 0.40 bit/pixelАудио #1: (DVO) 48 kHz, AC3 Dolby Digital, 3/2 (L,C,R,l,r) + LFE ch, 384.00 kbps avgАудио #2: (CHI) 48 kHz, AC3 Dolby Digital, 3/2 (L,C,R,l,r) + LFE ch, 384.00 kbps avgАудио #3: (KUBIK) 48 kHz, AC3 Dolby Digital, 3/2 (L,C,R,l,r) + LFE ch, 384.00 kbps avg (отдельно на Narod.ru) 2,18 Gb 4 5
7 июля 2016 10:42 Ип Ман 2 / Ip Man 2 / Yip Man 2 (2010) BDRip от HELLYWOOD .torrent   [Информация о файле (нажмите для просмотра)] Перевод: Русский профессиональный перевод (BBC Saint-Petersburg) + Оригинальная китайская звуковая дорожкаСубтитры: НетФормат: AVIКачество: BDRip (источник: Видео: 720x304 (2.37:1), 23.976 fps, XviD build 50 ~1995 kbps avg, 0.38 bit/pixelЗвук #1: 48 kHz, AC3 Dolby Digital, 3/2 (L,C,R,l,r) + LFE ch, ~448 kbpsЗвук #2: 48 kHz, AC3 Dolby Digital, 3/2 (L,C,R,l,r) + LFE ch, ~448 kbps 2,18 Gb 4 1
7 июля 2016 10:42 Ип Ман 2 / Yip Man 2: Chung si chuen kei (2010) HDRip .torrent   [Информация о файле (нажмите для просмотра)] Перевод: Профессиональный многоголосыйКачество: HDRipВидео: XviD, 1359 Кбит/с, 720x304Аудио: AC3, 6 ch, 448 Кбит/с 1,37 Gb 23 3
7 июля 2016 10:42 Ип Ман 2 / Yip Man 2: Chung si chuen kei (2010) BDRip 720p .torrent   [Информация о файле (нажмите для просмотра)] Качество: BDRip (720p)Видео: MPEG-4 AVC, 7182 Кбит/с, 1280x544Аудио: Русский (AC3, 6 ch, 384 Кбит/с), английский (DTS, 6 ch, 1510 Кбит/с) 6,83 Gb 4 2

Скачать фильм Ип Ман через торрент в хорошем качестве бесплатно 1080p

GeneralUnique ID : 198451241640659129062143633867014117243 (0x954C51A1F75554C994D99CF320EF977B)Complete name : /home/sb1855/files/Yip.Man.2008.1080p.BluRay.6xRus.Ukr.Chi.HDCLUB.mkvFormat : MatroskaFormat version : Version 2File size : 15.6 GiBDuration : 1h 46mnOverall bit rate : 21.0 MbpsMovie name : Yip Man (2008) - Release for HDCLUBEncoded date : UTC 2014-10-07 22:09:24Writing application : mkvmerge v5.7.0 ('The Whirlwind') built on Jul 8 2012 20:08:51Writing library : libebml v1.2.3 + libmatroska v1.3.0

VideoID : 1Format : AVCFormat/Info : Advanced Video CodecFormat profile : [email protected] settings, CABAC : YesFormat settings, ReFrames : 5 framesCodec ID : V_MPEG4/ISO/AVCDuration : 1h 46mnBit rate : 15.2 MbpsWidth : 1 920 pixelsHeight : 816 pixelsDisplay aspect ratio : 2.35:1Frame rate : 24.000 fpsColor space : YUVChroma subsampling : 4:2:0Bit depth : 8 bitsScan type : ProgressiveBits/(Pixel*Frame) : 0.405Stream size : 11.3 GiB (73%)Writing library : x264 core 138 r2358 9e941d1Encoding settings : cabac=1 / ref=5 / deblock=1:-3:-3 / analyse=0x3:0x133 / me=umh / subme=10 / psy=1 / psy_rd=1.04:0.00 / mixed_ref=1 / me_range=48 / chroma_me=1 / trellis=2 / 8x8dct=1 / cqm=0 / deadzone=21,11 / fast_pskip=0 / chroma_qp_offset=-2 / threads=4 / lookahead_threads=1 / sliced_threads=0 / nr=0 / decimate=1 / interlaced=0 / bluray_compat=0 / constrained_intra=0 / bframes=9 / b_pyramid=2 / b_adapt=2 / b_bias=0 / direct=3 / weightb=1 / open_gop=0 / weightp=2 / keyint=250 / keyint_min=23 / scenecut=40 / intra_refresh=0 / rc_lookahead=60 / rc=crf / mbtree=0 / crf=20.0 / qcomp=0.81 / qpmin=0 / qpmax=69 / qpstep=4 / vbv_maxrate=50000 / vbv_bufsize=62500 / crf_max=0.0 / nal_hrd=none / ip_ratio=1.10 / pb_ratio=1.10 / aq=1:0.60Language : EnglishDefault : YesForced : No

Audio #1ID : 2Format : AC-3Format/Info : Audio Coding 3Mode extension : CM (complete main)Format settings, Endianness : BigCodec ID : A_AC3Duration : 1h 46mnBit rate mode : ConstantBit rate : 192 KbpsChannel(s) : 2 channelsChannel positions : Front: L RSampling rate : 48.0 KHzBit depth : 16 bitsCompression mode : LossyStream size : 146 MiB (1%)Title : |???????????? ??????????, CTC|Language : RussianDefault : YesForced : No

Audio #2ID : 3Format : AC-3Format/Info : Audio Coding 3Mode extension : CM (complete main)Format settings, Endianness : BigCodec ID : A_AC3Duration : 1h 46mnBit rate mode : ConstantBit rate : 192 KbpsChannel(s) : 2 channelsChannel positions : Front: L RSampling rate : 48.0 KHzBit depth : 16 bitsCompression mode : LossyStream size : 146 MiB (1%)Title : |??????????? ??????????, HTB+|Language : RussianDefault : NoForced : No

Audio #3ID : 4Format : AC-3Format/Info : Audio Coding 3Mode extension : CM (complete main)Format settings, Endianness : BigCodec ID : A_AC3Duration : 1h 46mnBit rate mode : ConstantBit rate : 384 KbpsChannel(s) : 6 channelsChannel positions : Front: L C R, Side: L R, LFESampling rate : 48.0 KHzBit depth : 16 bitsCompression mode : LossyStream size : 292 MiB (2%)Title : |??????????? ??????????, R5|Language : RussianDefault : NoForced : No

Audio #4ID : 5Format : AC-3Format/Info : Audio Coding 3Mode extension : CM (complete main)Format settings, Endianness : BigCodec ID : A_AC3Duration : 1h 46mnBit rate mode : ConstantBit rate : 448 KbpsChannel(s) : 6 channelsChannel positions : Front: L C R, Side: L R, LFESampling rate : 48.0 KHzBit depth : 16 bitsCompression mode : LossyStream size : 341 MiB (2%)Title : |???????????? ??????????, Gremlin Creative Studio|Language : RussianDefault : NoForced : No

Audio #5ID : 6Format : AC-3Format/Info : Audio Coding 3Mode extension : CM (complete main)Format settings, Endianness : BigCodec ID : A_AC3Duration : 1h 46mnBit rate mode : ConstantBit rate : 640 KbpsChannel(s) : 6 channelsChannel positions : Front: L C R, Side: L R, LFESampling rate : 48.0 KHzBit depth : 16 bitsCompression mode : LossyStream size : 487 MiB (3%)Title : |??????????? ??????????, ??????|Language : RussianDefault : NoForced : No

Audio #6ID : 7Format : DTSFormat/Info : Digital Theater SystemsCodec ID : A_DTSDuration : 1h 46mnBit rate mode : ConstantBit rate : 1 510 KbpsChannel(s) : 6 channelsChannel positions : Front: L C R, Side: L R, LFESampling rate : 48.0 KHzBit depth : 24 bitsCompression mode : LossyStream size : 1.12 GiB (7%)Title : |??????????? ??????????, CinemaSET|Language : RussianDefault : NoForced : No

Audio #7ID : 8Format : AC-3Format/Info : Audio Coding 3Mode extension : CM (complete main)Format settings, Endianness : BigCodec ID : A_AC3Duration : 1h 46mnBit rate mode : ConstantBit rate : 448 KbpsChannel(s) : 6 channelsChannel positions : Front: L C R, Side: L R, LFESampling rate : 48.0 KHzBit depth : 16 bitsCompression mode : LossyStream size : 341 MiB (2%)Title : |???????????? ??????????, ?????? ????|Language : UkrainianDefault : NoForced : No

Audio #8ID : 9Format : DTSFormat/Info : Digital Theater SystemsCodec ID : A_DTSDuration : 1h 46mnBit rate mode : ConstantBit rate : 1 510 KbpsChannel(s) : 6 channelsChannel positions : Front: L C R, Side: L R, LFESampling rate : 48.0 KHzBit depth : 24 bitsCompression mode : LossyStream size : 1.12 GiB (7%)Title : CantoneseLanguage : ChineseDefault : NoForced : No

Text #1ID : 10Format : UTF-8Codec ID : S_TEXT/UTF8Codec ID/Info : UTF-8 Plain TextTitle : ForcedLanguage : RussianDefault : YesForced : No

Text #2ID : 11Format : UTF-8Codec ID : S_TEXT/UTF8Codec ID/Info : UTF-8 Plain TextLanguage : RussianDefault : NoForced : No

Text #3ID : 12Format : UTF-8Codec ID : S_TEXT/UTF8Codec ID/Info : UTF-8 Plain TextTitle : OCR'dLanguage : EnglishDefault : NoForced : No

Text #4ID : 13Format : UTF-8Codec ID : S_TEXT/UTF8Codec ID/Info : UTF-8 Plain TextLanguage : DanishDefault : NoForced : No

Text #5ID : 14Format : UTF-8Codec ID : S_TEXT/UTF8Codec ID/Info : UTF-8 Plain TextLanguage : DutchDefault : NoForced : No

Text #6ID : 15Format : UTF-8Codec ID : S_TEXT/UTF8Codec ID/Info : UTF-8 Plain TextLanguage : PersianDefault : NoForced : No

Text #7ID : 16Format : UTF-8Codec ID : S_TEXT/UTF8Codec ID/Info : UTF-8 Plain TextLanguage : FrenchDefault : NoForced : No

Text #8ID : 17Format : UTF-8Codec ID : S_TEXT/UTF8Codec ID/Info : UTF-8 Plain TextLanguage : RomanianDefault : NoForced : No

Text #9ID : 18Format : UTF-8Codec ID : S_TEXT/UTF8Codec ID/Info : UTF-8 Plain TextLanguage : ChineseDefault : NoForced : No

Menu00:00:00.000 : :00:00:00.00000:07:36.708 : :00:07:36.70800:14:28.667 : :00:14:28.66700:17:39.500 : :00:17:39.50000:20:06.333 : :00:20:06.33300:23:17.958 : :00:23:17.95800:24:27.250 : :00:24:27.25000:28:06.042 : :00:28:06.04200:34:52.292 : :00:34:52.29200:40:47.208 : :00:40:47.20800:46:28.292 : :00:46:28.29200:51:10.792 : :00:51:10.79200:55:58.000 : :00:55:58.00001:01:38.750 : :01:01:38.75001:06:26.875 : :01:06:26.87501:09:15.000 : :01:09:15.00001:12:25.167 : :01:12:25.16701:18:31.833 : :01:18:31.83301:25:52.958 : :01:25:52.95801:29:21.250 : :01:29:21.25001:33:39.458 : :01:33:39.45801:41:22.583 : :01:41:22.58301:43:17.875 : :01:43:17.875

piratbit.ru


Смотрите также