Скачать торрент эверест в хорошем качестве


Скачать фильм Эверест через торрент в хорошем качестве бесплатно WEB-DLRip

piratbit.ru

Раздают: 5 [ 1 KB/s ]
Размер: 1.46 GB | Добавлен: 1 год 11 мес. назад | Торрент скачан:3997 раз
Реклама Дарим 3000 рублей за регистрацию, не упусти свой шанс получить шикарный бонус!!!

18-11-2015 20:44 Эверест Скачать торрент  

Эверест / Everest ««Самое опасное место на планете»» ИНФОРМАЦИЯ: Год выпуска:2015 Страна: США, Великобритания, Исландия Жанр: триллер, драма, приключения, биография, история Продолжительность: 02:01:11 Перевод: Дубляж - [Лицензия / iTunes] Режиссер: Бальтасар КормакурВ Ролях: Джейсон Кларк (Rob Hall), Джош Бролин (Beck Weathers), Джейк Джилленхол (Scott Fischer), Сэм Уортингтон (Guy Cotter), Джон Хоукс (Doug Hansen), Майкл Келли (Jon Krakauer), Ингвар Эггерт Сигюрдссон (Anatoli Boukreev), Кира Найтли (Jan Arnold), Эмили Уотсон (Helen Wilton), Робин Райт (Peach Weathers), Мартин Хендерсон (Andy «Harold» Harris), Томас М. Райт (Michael Groom)Описание: Эверест - великая неприступная гора, покорить вершину которой мечтают многие профессиональные альпинисты. Одна из экспедиций на ее вершину закончилась настоящей трагедией, однако этот факт не останавливает отважных альпинистов.Опытный инструктор Роб Холл, собрав группу из лучших альпинистов, собирается совершить восхождение на самую высокую вершину планеты. Все эти люди полны мужества и отваги и они не остановятся ни перед чем, пока не поднимутся на вершину Эвереста. Но даже если эта гора покорится им, смогут ли они вернуться обратно живыми и невредимыми?..
  • Мировая премьера:2 сентября 2015 ТЕХ.ДАННЫЕ: Качество: WEB-DLRip Формат: AVI Видео: XviD, 720x304 (2.35:1), 1332 kbps, 23,976 fps, 0,254 bpp Аудио: AC3 / 5.1 / 48 kHz / 384 kbps / 16 bit GeneralComplete name : D:\Торенты\3B3P3Ct.2015.D.WEB-DLRip.1.46GB.aviFormat : AVIFormat/Info : Audio Video InterleaveFile size : 1.46 GiBDuration : 2h 1mnOverall bit rate : 1 726 KbpsWriting application : VirtualDubMod 1.5.10.3 | www.virtualdub-fr.org || (build 2550/release)Writing library : VirtualDubMod build 2550/release

    VideoID : 0Format : MPEG-4 VisualFormat profile : Advanced [email protected] settings, BVOP : 2Format settings, QPel : NoFormat settings, GMC : No warppointsFormat settings, Matrix : Default (MPEG)Codec ID : XVIDCodec ID/Hint : XviDDuration : 2h 1mnBit rate : 1 333 KbpsWidth : 720 pixelsHeight : 304 pixelsDisplay aspect ratio : 2.35:1Frame rate : 23.976 fpsColor space : YUVChroma subsampling : 4:2:0Bit depth : 8 bitsScan type : ProgressiveCompression mode : LossyBits/(Pixel*Frame) : 0.254Stream size : 1.13 GiB (77%)Writing library : XviD 1.2.1 (UTC 2008-12-04)

    AudioID : 1Format : AC-3Format/Info : Audio Coding 3Mode extension : CM (complete main)Codec ID : 2000Duration : 2h 1mnBit rate mode : ConstantBit rate : 384 KbpsChannel(s) : 6 channelsChannel positions : Front: L C R, Side: L R, LFESampling rate : 48.0 KHzBit depth : 16 bitsCompression mode : LossyStream size : 333 MiB (22%)Alignment : Split accross interleavesInterleave, duration : 42 ms (1.00 video frame)Interleave, preload duration : 500 ms

    Скриншоты: © Оформление by .::Ворон::.
  • Скачать Эверест через торрент http://pic.pb.wtf/images/6/ordi9.jpg Скачать фильм Эверест через торрент бесплантно в хорошем качестве Описание: Эверест - великая неприступная гора, покорить вершину которой мечтают многие профессиональные альпинисты. Одна из экспедиций на ... 2015-11-18 20:44 9.8 10 93

    Loading...

    Loading...

    Рекламный пират

    20-11-2015 10:28 Эверест Скачать торрент  

    Просто ни о чем! 2/10

    21-11-2015 12:04 Эверест Скачать торрент  

    Тяжелый фильм, но очень зрелищный + на основе реальных событий. Смотреть лучше в кинотеатре, на обычном экране так не торкнет.

    25-11-2015 19:08 Эверест Скачать торрент  

    Grogan писал(а):

    Тяжелый фильм, но очень зрелищный + на основе реальных событий. Смотреть лучше в кинотеатре, на обычном экране так не торкнет.

    согласен , смотрел в кинотеатре , лично мне понравилось !

    26-11-2015 09:56 Эверест Скачать торрент  

    Ребят, как торрент? Китайских субтитров нет???

    26-11-2015 10:18 Эверест Скачать торрент  

    29-11-2015 12:12 Эверест Скачать торрент  

    Мне фильм понравился, автору спс! Всегда поражает в альпинистах то, что ставят на кон свою жизнь, для достижения вершины!

    12-12-2015 16:30 Эверест Скачать торрент  

    Фильм сильный, стоит смотреть только с середины.

    14-12-2015 23:32 Эверест Скачать торрент  

    Думал всё будет драматичней, понятно что на реальных, но как то режиссёр не дал мне всё это прочувствовать.

    Pекламный агент PB

    24-12-2015 23:03 Эверест Скачать торрент  

    Фильм крутой но можно было как-нибудь позахватывающей.а то кроме вида на гору больше нечего нет.

    Дорогой пользователь! Огромная просьба, поблагодарите релизера, оцените раздачу и оставьте свои комментарий, если Вы скачали Эверест через торрент бесплатно! Внесите свою лепту в развитие PiratBit!

    Комментировать посты могут только пользователи прошедшие не сложную регистрацию

    Эверест через торрент Скачать бесплатно Эверест Эверест скачать торрент Эверест смотреть онлайн Cкачать фильм Эверест бесплатно Эверест скачать торрент в хорошем качестве Эверест смотреть онлайн бесплатно в хорошем качестве

    Вы не можете начинать темыВы не можете отвечать на сообщенияВы не можете редактировать свои сообщенияВы не можете удалять свои сообщенияВы не можете голосовать в опросахВы не можете прикреплять файлы к сообщениямВы можете скачивать файлы

    Скачать фильм Эверест через торрент в хорошем качестве бесплатно DVD9

    ОбщееПолное имя : F:\Новинки 2015\Jeverest.2015.D.DVD9\VIDEO_TS\VTS_08_2.VOBФормат : MPEG-PSРазмер файла : 1024 МбайтПродолжительность : 15 м.Режим общего битрейта : ПеременныйОбщий поток : 9299 Кбит/сек

    ВидеоИдентификатор : 224 (0xE0)Формат : MPEG VideoВерсия формата : Version 2Профиль формата : [email protected]Параметр BVOP формата : ДаПараметр матрицы формата : ВыборочнаяПараметр GOP формата : VariableСтруктура изображения : FrameПродолжительность : 15 м.Вид битрейта : ПеременныйБитрейт : 7194 Кбит/секМаксимальный битрейт : 9800 Кбит/секШирина : 720 пикселейВысота : 576 пикселейСоотношение сторон : 16:9Частота кадров : 25,000 кадров/секСтандарт вещания : PALЦветовое пространство : YUVСубдискретизация насыщенности : 4:2:0Битовая глубина : 8 битТип развёртки : ЧересстрочнаяПорядок развёртки : Верхнее поле первоеМетод сжатия : С потерямиБит/(Пиксели*Кадры) : 0.694Временной код первого кадра : 01:15:53:16Оригинал временного кода : Group of pictures headerGOP, открыто/закрыто : ОткрытоРазмер потока : 792 Мбайт (77%)

    Аудио #1Идентификатор : 189 (0xBD)-128 (0x80)Формат : AC-3Формат/Информация : Audio Coding 3Расширение режима : CM (complete main)Параметр Endianness формата : BigРежим смешивания : DVD-VideoПродолжительность : 15 м.Вид битрейта : ПостоянныйБитрейт : 384 Кбит/секКаналы : 6 каналовРасположение каналов : Front: L C R, Side: L R, LFEЧастота : 48,0 КГцЧастота кадров : 31,250 кадров/сек (1536 spf)Метод сжатия : С потерямиЗадержка видео : -448 мс.Размер потока : 42,3 Мбайт (4%)

    Аудио #2Идентификатор : 189 (0xBD)-129 (0x81)Формат : AC-3Формат/Информация : Audio Coding 3Расширение режима : CM (complete main)Параметр Endianness формата : BigРежим смешивания : DVD-VideoПродолжительность : 15 м.Вид битрейта : ПостоянныйБитрейт : 384 Кбит/секКаналы : 6 каналовРасположение каналов : Front: L C R, Side: L R, LFEЧастота : 48,0 КГцЧастота кадров : 31,250 кадров/сек (1536 spf)Метод сжатия : С потерямиЗадержка видео : -448 мс.Размер потока : 42,3 Мбайт (4%)

    Аудио #3Идентификатор : 189 (0xBD)-130 (0x82)Формат : AC-3Формат/Информация : Audio Coding 3Расширение режима : CM (complete main)Параметр Endianness формата : BigРежим смешивания : DVD-VideoПродолжительность : 15 м.Вид битрейта : ПостоянныйБитрейт : 384 Кбит/секКаналы : 6 каналовРасположение каналов : Front: L C R, Side: L R, LFEЧастота : 48,0 КГцЧастота кадров : 31,250 кадров/сек (1536 spf)Метод сжатия : С потерямиЗадержка видео : -448 мс.Размер потока : 42,3 Мбайт (4%)

    Аудио #4Идентификатор : 189 (0xBD)-131 (0x83)Формат : AC-3Формат/Информация : Audio Coding 3Расширение режима : CM (complete main)Параметр Endianness формата : BigРежим смешивания : DVD-VideoПродолжительность : 15 м.Вид битрейта : ПостоянныйБитрейт : 384 Кбит/секКаналы : 6 каналовРасположение каналов : Front: L C R, Side: L R, LFEЧастота : 48,0 КГцЧастота кадров : 31,250 кадров/сек (1536 spf)Метод сжатия : С потерямиЗадержка видео : -448 мс.Размер потока : 42,3 Мбайт (4%)

    Аудио #5Идентификатор : 189 (0xBD)-132 (0x84)Формат : AC-3Формат/Информация : Audio Coding 3Расширение режима : CM (complete main)Параметр Endianness формата : BigРежим смешивания : DVD-VideoПродолжительность : 15 м.Вид битрейта : ПостоянныйБитрейт : 384 Кбит/секКаналы : 6 каналовРасположение каналов : Front: L C R, Side: L R, LFEЧастота : 48,0 КГцЧастота кадров : 31,250 кадров/сек (1536 spf)Метод сжатия : С потерямиЗадержка видео : -448 мс.Размер потока : 42,3 Мбайт (4%)

    Текст #1Идентификатор : 189 (0xBD)-32 (0x20)Формат : RLEФормат/Информация : Run-length encodingРежим смешивания : DVD-VideoПродолжительность : 15 м.Задержка видео : 2 с. 200 мс.

    Текст #2Идентификатор : 189 (0xBD)-33 (0x21)Формат : RLEФормат/Информация : Run-length encodingРежим смешивания : DVD-VideoПродолжительность : 15 м.Задержка видео : 2 с. 200 мс.

    Текст #3Идентификатор : 189 (0xBD)-34 (0x22)Формат : RLEФормат/Информация : Run-length encodingРежим смешивания : DVD-VideoПродолжительность : 15 м.Задержка видео : 2 с. 360 мс.

    Текст #4Идентификатор : 189 (0xBD)-35 (0x23)Формат : RLEФормат/Информация : Run-length encodingРежим смешивания : DVD-VideoПродолжительность : 15 м.Задержка видео : 2 с. 360 мс.

    Текст #5Идентификатор : 189 (0xBD)-36 (0x24)Формат : RLEФормат/Информация : Run-length encodingРежим смешивания : DVD-VideoПродолжительность : 15 м.Задержка видео : 2 с. 360 мс.

    Текст #6Идентификатор : 189 (0xBD)-37 (0x25)Формат : RLEФормат/Информация : Run-length encodingРежим смешивания : DVD-VideoПродолжительность : 15 м.Задержка видео : 2 с. 400 мс.

    Текст #7Идентификатор : 189 (0xBD)-38 (0x26)Формат : RLEФормат/Информация : Run-length encodingРежим смешивания : DVD-VideoПродолжительность : 15 м.Задержка видео : 2 с. 360 мс.

    Текст #8Идентификатор : 189 (0xBD)-39 (0x27)Формат : RLEФормат/Информация : Run-length encodingРежим смешивания : DVD-VideoПродолжительность : 15 м.Задержка видео : 2 с. 360 мс.

    Текст #9Идентификатор : 189 (0xBD)-40 (0x28)Формат : RLEФормат/Информация : Run-length encodingРежим смешивания : DVD-VideoПродолжительность : 15 м.Задержка видео : 2 с. 360 мс.

    Текст #10Идентификатор : 189 (0xBD)-41 (0x29)Формат : RLEФормат/Информация : Run-length encodingРежим смешивания : DVD-VideoПродолжительность : 15 м.Задержка видео : 2 с. 360 мс.

    Текст #11Идентификатор : 189 (0xBD)-42 (0x2A)Формат : RLEФормат/Информация : Run-length encodingРежим смешивания : DVD-VideoПродолжительность : 15 м.Задержка видео : 2 с. 360 мс.

    Текст #12Идентификатор : 189 (0xBD)-43 (0x2B)Формат : RLEФормат/Информация : Run-length encodingРежим смешивания : DVD-VideoПродолжительность : 15 м.Задержка видео : 2 с. 360 мс.

    Текст #13Идентификатор : 189 (0xBD)-44 (0x2C)Формат : RLEФормат/Информация : Run-length encodingРежим смешивания : DVD-VideoПродолжительность : 15 м.Задержка видео : 2 с. 280 мс.

    Текст #14Идентификатор : 189 (0xBD)-45 (0x2D)Формат : RLEФормат/Информация : Run-length encodingРежим смешивания : DVD-VideoПродолжительность : 15 м.Задержка видео : 2 с. 360 мс.

    Текст #15Идентификатор : 189 (0xBD)-46 (0x2E)Формат : RLEФормат/Информация : Run-length encodingРежим смешивания : DVD-VideoПродолжительность : 15 м.Задержка видео : 2 с. 240 мс.

    piratbit.ru

    Скачать фильм Эверест через торрент в хорошем качестве бесплатно BDRip-AVC от potroks

    GeneralUnique ID                                : 210556837721967352089279456368969557293 (0x9E67C599B1756606A4F89D7D5F6AA52D)Complete name                            : N:\Триллер\Everest.2015.RUS.BDRip.x264.-HELLYWOOD.mkvFormat                                   : MatroskaFormat version                           : Version 4 / Version 2File size                                : 1.46 GiBDuration                                 : 2h 1mnOverall bit rate                         : 1 728 KbpsMovie name                               : Everest (2015) - HELLYWOODEncoded date                             : UTC 2010-02-22 21:41:31Writing application                      : mkvmerge v5.8.0 ('No Sleep / Pillow') built on Sep 30 2012 10:57:14Writing library                          : libebml v1.3.0 + libmatroska v1.4.0

    VideoID                                       : 1Format                                   : AVCFormat/Info                              : Advanced Video CodecFormat profile                           : [email protected] settings, CABAC                   : YesFormat settings, ReFrames                : 12 framesCodec ID                                 : V_MPEG4/ISO/AVCDuration                                 : 2h 1mnBit rate                                 : 1 277 KbpsWidth                                    : 912 pixelsHeight                                   : 382 pixelsDisplay aspect ratio                     : 2.40:1Frame rate                               : 23.976 fpsColor space                              : YUVChroma subsampling                       : 4:2:0Bit depth                                : 8 bitsScan type                                : ProgressiveBits/(Pixel*Frame)                       : 0.153Stream size                              : 1.05 GiB (72%)Title                                    : potroksWriting library                          : x264 core 146 r2538 121396cEncoding settings                        : cabac=1 / ref=12 / deblock=1:-2:-2 / analyse=0x3:0x113 / me=umh / subme=11 / psy=1 / psy_rd=1.03:0.07 / mixed_ref=1 / me_range=48 / chroma_me=1 / trellis=2 / 8x8dct=1 / cqm=0 / deadzone=21,11 / fast_pskip=0 / chroma_qp_offset=-3 / threads=9 / lookahead_threads=2 / sliced_threads=0 / nr=0 / decimate=0 / interlaced=0 / bluray_compat=0 / constrained_intra=0 / bframes=13 / b_pyramid=2 / b_adapt=2 / b_bias=0 / direct=3 / weightb=1 / open_gop=0 / weightp=2 / keyint=250 / keyint_min=23 / scenecut=40 / intra_refresh=0 / rc_lookahead=150 / rc=2pass / mbtree=1 / bitrate=1277 / ratetol=1.0 / qcomp=0.70 / qpmin=0 / qpmax=69 / qpstep=4 / cplxblur=20.0 / qblur=0.5 / vbv_maxrate=14000 / vbv_bufsize=14000 / nal_hrd=none / filler=0 / ip_ratio=1.40 / aq=2:0.80Language                                 : EnglishDefault                                  : YesForced                                   : No

    AudioID                                       : 2Format                                   : AC-3Format/Info                              : Audio Coding 3Mode extension                           : CM (complete main)Codec ID                                 : A_AC3Duration                                 : 2h 1mnBit rate mode                            : ConstantBit rate                                 : 448 KbpsChannel(s)                               : 6 channelsChannel positions                        : Front: L C R, Side: L R, LFESampling rate                            : 48.0 KHzBit depth                                : 16 bitsCompression mode                         : LossyStream size                              : 388 MiB (26%)Title                                    : Dub | DD 5.1 @ 448 kbps - Blu-Ray CEELanguage                                 : RussianDefault                                  : YesForced                                   : No

    Text #1ID                                       : 3Format                                   : UTF-8Codec ID                                 : S_TEXT/UTF8Codec ID/Info                            : UTF-8 Plain TextTitle                                    : ForcedLanguage                                 : RussianDefault                                  : YesForced                                   : No

    Text #2ID                                       : 4Format                                   : UTF-8Codec ID                                 : S_TEXT/UTF8Codec ID/Info                            : UTF-8 Plain TextTitle                                    : iTunesLanguage                                 : RussianDefault                                  : NoForced                                   : No

    Text #3ID                                       : 5Format                                   : UTF-8Codec ID                                 : S_TEXT/UTF8Codec ID/Info                            : UTF-8 Plain TextTitle                                    : ForcedLanguage                                 : UkrainianDefault                                  : NoForced                                   : No

    Text #4ID                                       : 6Format                                   : UTF-8Codec ID                                 : S_TEXT/UTF8Codec ID/Info                            : UTF-8 Plain TextTitle                                    : iTunesLanguage                                 : UkrainianDefault                                  : NoForced                                   : No

    Text #5ID                                       : 7Format                                   : UTF-8Codec ID                                 : S_TEXT/UTF8Codec ID/Info                            : UTF-8 Plain TextTitle                                    : FullLanguage                                 : EnglishDefault                                  : NoForced                                   : No

    Text #6ID                                       : 8Format                                   : UTF-8Codec ID                                 : S_TEXT/UTF8Codec ID/Info                            : UTF-8 Plain TextTitle                                    : SDHLanguage                                 : EnglishDefault                                  : NoForced                                   : No

    Menu00:00:00.000                             : en:(01)00:00:00:00000:05:12.145                             : en:(02)00:05:12:14500:09:36.075                             : en:(03)00:09:36:07500:15:13.162                             : en:(04)00:15:13:16200:20:58.423                             : en:(05)00:20:58:42300:26:30.714                             : en:(06)00:26:30:71400:33:15.118                             : en:(07)00:33:15:11800:40:23.754                             : en:(08)00:40:23:75400:47:23.382                             : en:(09)00:47:23:38200:52:14.589                             : en:(10)00:52:14:58900:57:49.174                             : en:(11)00:57:49:17401:01:54.794                             : en:(12)01:01:54:79401:07:22.079                             : en:(13)01:07:22:07901:15:40.577                             : en:(14)01:15:40:57701:21:03.900                             : en:(15)01:21:03:90001:26:59.589                             : en:(16)01:26:59:58901:32:39.136                             : en:(17)01:32:39:13601:41:20.449                             : en:(18)01:41:20:44901:46:47.651                             : en:(19)01:46:47:65101:54:06.464                             : en:(20)01:54:06:464

    piratbit.ru

    Скачать фильм Эверест через торрент в хорошем качестве бесплатно BDRip-AVC от potroks

    Общее Уникальный идентификатор : 212705189551063712229387998242143436191 (0xA0058785FDC8BE3EA568B6AD94E37D9F) Полное имя : Everest.2015.DUAL.BDRip.x264.-HELLYWOOD.mkv Формат : Matroska Версия формата : Version 4 / Version 2 Размер файла : 2,18 Гбайт Продолжительность : 2 ч. 1 м. Общий поток : 2579 Кбит/сек Название фильма : Everest (2015) - HELLYWOOD Дата кодирования : UTC 2010-02-22 21:41:31 Программа кодирования : mkvmerge v5.8.0 ('No Sleep / Pillow') built on Sep 30 2012 10:57:14 Библиотека кодирования : libebml v1.3.0 + libmatroska v1.4.0

    Видео Идентификатор : 1 Формат : AVC Формат/Информация : Advanced Video Codec Профиль формата : [email protected] Параметр CABAC формата : Да Параметр ReFrames формата : 11 кадров Идентификатор кодека : V_MPEG4/ISO/AVC Продолжительность : 2 ч. 1 м. Битрейт : 1680 Кбит/сек Ширина : 1032 пикселя Высота : 432 пикселя Соотношение сторон : 2,40:1 Режим частоты кадров : Постоянный Частота кадров : 23,976 кадра/сек Цветовое пространство : YUV Субдискретизация насыщенности : 4:2:0 Битовая глубина : 8 бит Тип развёртки : Прогрессивная Бит/(Пиксели*Кадры) : 0.157 Размер потока : 1,38 Гбайт (63%) Заголовок : potroks Библиотека кодирования : x264 core 146 r2538 121396c Настройки программы : cabac=1 / ref=11 / deblock=1:-2:-2 / analyse=0x3:0x113 / me=umh / subme=11 / psy=1 / psy_rd=1.05:0.07 / mixed_ref=1 / me_range=48 / chroma_me=1 / trellis=2 / 8x8dct=1 / cqm=0 / deadzone=21,11 / fast_pskip=0 / chroma_qp_offset=-3 / threads=9 / lookahead_threads=2 / sliced_threads=0 / nr=0 / decimate=0 / interlaced=0 / bluray_compat=0 / constrained_intra=0 / bframes=12 / b_pyramid=2 / b_adapt=2 / b_bias=0 / direct=3 / weightb=1 / open_gop=0 / weightp=2 / keyint=250 / keyint_min=23 / scenecut=40 / intra_refresh=0 / rc_lookahead=60 / rc=2pass / mbtree=0 / bitrate=1680 / ratetol=1.0 / qcomp=0.70 / qpmin=0 / qpmax=69 / qpstep=4 / cplxblur=20.0 / qblur=0.5 / vbv_maxrate=14000 / vbv_bufsize=14000 / nal_hrd=none / filler=0 / ip_ratio=1.40 / pb_ratio=1.30 / aq=2:0.80 Язык : English Default : Да Forced : Нет

    Аудио #1 Идентификатор : 2 Формат : AC-3 Формат/Информация : Audio Coding 3 Расширение режима : CM (complete main) Параметр Endianness формата : Big Идентификатор кодека : A_AC3 Продолжительность : 2 ч. 1 м. Вид битрейта : Постоянный Битрейт : 448 Кбит/сек Каналы : 6 каналов Расположение каналов : Front: L C R, Side: L R, LFE Частота : 48,0 КГц Метод сжатия : С потерями Размер потока : 388 Мбайт (17%) Заголовок : Dub | DD 5.1 @ 448 kbps - Blu-Ray CEE Язык : Russian Default : Да Forced : Нет

    Аудио #2 Идентификатор : 3 Формат : AC-3 Формат/Информация : Audio Coding 3 Расширение режима : CM (complete main) Параметр Endianness формата : Big Идентификатор кодека : A_AC3 Продолжительность : 2 ч. 1 м. Вид битрейта : Постоянный Битрейт : 448 Кбит/сек Каналы : 6 каналов Расположение каналов : Front: L C R, Side: L R, LFE Частота : 48,0 КГц Метод сжатия : С потерями Размер потока : 388 Мбайт (17%) Заголовок : Original | DD 5.1 @ 448 kbps Язык : English Default : Нет Forced : Нет

    Текст #1 Идентификатор : 4 Формат : UTF-8 Идентификатор кодека : S_TEXT/UTF8 Идентификатор кодека/Информация : UTF-8 Plain Text Заголовок : Forced Язык : Russian Default : Да Forced : Нет

    Текст #2 Идентификатор : 5 Формат : UTF-8 Идентификатор кодека : S_TEXT/UTF8 Идентификатор кодека/Информация : UTF-8 Plain Text Заголовок : iTunes Язык : Russian Default : Нет Forced : Нет

    Текст #3 Идентификатор : 6 Формат : UTF-8 Идентификатор кодека : S_TEXT/UTF8 Идентификатор кодека/Информация : UTF-8 Plain Text Заголовок : Forced Язык : Ukrainian Default : Нет Forced : Нет

    Текст #4 Идентификатор : 7 Формат : UTF-8 Идентификатор кодека : S_TEXT/UTF8 Идентификатор кодека/Информация : UTF-8 Plain Text Заголовок : iTunes Язык : Ukrainian Default : Нет Forced : Нет

    Текст #5 Идентификатор : 8 Формат : UTF-8 Идентификатор кодека : S_TEXT/UTF8 Идентификатор кодека/Информация : UTF-8 Plain Text Заголовок : Full Язык : English Default : Нет Forced : Нет

    Текст #6 Идентификатор : 9 Формат : UTF-8 Идентификатор кодека : S_TEXT/UTF8 Идентификатор кодека/Информация : UTF-8 Plain Text Заголовок : SDH Язык : English Default : Нет Forced : Нет

    Меню 00:00:00.000 : en:(01)00:00:00:000 00:05:12.145 : en:(02)00:05:12:145 00:09:36.075 : en:(03)00:09:36:075 00:15:13.162 : en:(04)00:15:13:162 00:20:58.423 : en:(05)00:20:58:423 00:26:30.714 : en:(06)00:26:30:714 00:33:15.118 : en:(07)00:33:15:118 00:40:23.754 : en:(08)00:40:23:754 00:47:23.382 : en:(09)00:47:23:382 00:52:14.589 : en:(10)00:52:14:589 00:57:49.174 : en:(11)00:57:49:174 01:01:54.794 : en:(12)01:01:54:794 01:07:22.079 : en:(13)01:07:22:079 01:15:40.577 : en:(14)01:15:40:577 01:21:03.900 : en:(15)01:21:03:900 01:26:59.589 : en:(16)01:26:59:589 01:32:39.136 : en:(17)01:32:39:136 01:41:20.449 : en:(18)01:41:20:449 01:46:47.651 : en:(19)01:46:47:651 01:54:06.464 : en:(20)01:54:06:464

    piratbit.ru

    Скачать фильм Эверест через торрент в хорошем качестве бесплатно 720p

    ОбщееУникальный идентификатор : 182460077052964553714311792261567852074 (0x89448858CFA7D91EBB2D9CE65AFFAE2A)Полное имя : E:\3B3P3Ct.2015.D.WEB-DL.720p.mkvФормат : MatroskaВерсия формата : Version 4 / Version 2Размер файла : 3,80 ГбайтПродолжительность : 2 ч. 1 м.Общий поток : 4484 Кбит/секДата кодирования : UTC 2015-11-18 19:12:08Программа кодирования : mkvmerge v8.3.0 ('Over the Horizon') 64bitБиблиотека кодирования : libebml v1.3.1 + libmatroska v1.4.2DURATION : 02:01:11.488000000NUMBER_OF_FRAMES : 227234NUMBER_OF_BYTES : 349031424_STATISTICS_WRITING_APP : mkvmerge v8.3.0 ('Over the Horizon') 64bit_STATISTICS_WRITING_DATE_UTC : 2015-11-18 19:12:08_STATISTICS_TAGS : BPS DURATION NUMBER_OF_FRAMES NUMBER_OF_BYTES

    ВидеоИдентификатор : 1Формат : AVCФормат/Информация : Advanced Video CodecПрофиль формата : [email protected]Параметр CABAC формата : НетПараметр ReFrames формата : 2 кадраИдентификатор кодека : V_MPEG4/ISO/AVCПродолжительность : 2 ч. 1 м.Битрейт : 4011 Кбит/секШирина : 1280 пикселейВысота : 534 пикселяСоотношение сторон : 2,40:1Режим частоты кадров : ПостоянныйЧастота кадров : 23,976 кадра/секЦветовое пространство : YUVСубдискретизация насыщенности : 4:2:0Битовая глубина : 8 битТип развёртки : ПрогрессивнаяБит/(Пиксели*Кадры) : 0.245Размер потока : 3,39 Гбайт (89%)Язык : EnglishDefault : ДаForced : НетОсновные цвета : BT.709Характеристики трансфера : BT.709Коэффициенты матрицы : BT.709

    АудиоИдентификатор : 2Формат : AC-3Формат/Информация : Audio Coding 3Расширение режима : CM (complete main)Параметр Endianness формата : BigИдентификатор кодека : A_AC3Продолжительность : 2 ч. 1 м.Вид битрейта : ПостоянныйБитрейт : 384 Кбит/секКаналы : 6 каналовРасположение каналов : Front: L C R, Side: L R, LFEЧастота : 48,0 КГцБитовая глубина : 16 битМетод сжатия : С потерямиРазмер потока : 333 Мбайт (9%)Язык : RussianDefault : ДаForced : Нет

    Меню00:00:00.000 : en:глава 100:05:14.000 : en:глава 200:09:38.000 : en:глава 300:15:15.000 : en:глава 400:21:00.000 : en:глава 500:26:32.000 : en:глава 600:33:17.000 : en:глава 700:40:25.000 : en:глава 800:47:25.000 : en:глава 900:52:16.000 : en:глава 1000:57:51.000 : en:глава 1101:01:56.000 : en:глава 1201:07:24.000 : en:глава 1301:15:42.000 : en:глава 1401:21:05.000 : en:глава 1501:27:01.000 : en:глава 1601:32:41.000 : en:глава 1701:41:22.000 : en:глава 1801:46:49.000 : en:глава 1901:54:06.000 : en:глава 20

    piratbit.ru

    1 2017 hd 720

    vtorrents.net

    !

    : 1+ : L'ascension : 2017: : : , , , , Waly Dia, , ', , , Umesh Tamang

    IMDB: 6.7/10 (124 )

    :, - . , , , .

    : : 1 43 : (, ) |

    : VI: HDRip

    1+

    831

    725

    udp://shubt.net:2710

    74 4 3

    http://xbtrutor.com:2710/announce

    80 43 34

    http://tracker.filetracker.pl:8089/announce

    66 41 74

    http://tracker2.wasabii.com.tw:6969/announce

    16 90 93

    http://tracker.grepler.com:6969/announce

    43 15 56

    http://125.227.35.196:6969/announce

    34 55 36

    http://tracker.tiny-vps.com:6969/announce

    86 87 47

    http://87.248.186.252:8080/announce

    11 86 86

    http://210.244.71.25:6969/announce

    73 1 452

    http://46.4.109.148:6969/announce

    68 99 47

    udp://46.148.18.250:2710

    74 4 3

    http://tracker.dler.org:6969/announce

    79 61 99

    udp://[2001:67c:28f8:92::1111:1]:2710

    94 51 61

    udp://ipv6.leechers-paradise.org:6969

    33 88 20

    1,37 Gb

    984

    L.Ascension.2017.P.HDRip.14OOMB_KOSHARA.avi (1,37 Gb)

    651

    694

    udp://shubt.net:2710

    44 6 7

    http://xbtrutor.com:2710/announce

    17 90 46

    http://tracker.filetracker.pl:8089/announce

    37 42 49

    http://tracker2.wasabii.com.tw:6969/announce

    53 98 99

    http://tracker.grepler.com:6969/announce

    79 71 46

    http://125.227.35.196:6969/announce

    55 93 46

    http://tracker.tiny-vps.com:6969/announce

    12 88 23

    http://87.248.186.252:8080/announce

    14 1 23

    http://210.244.71.25:6969/announce

    45 1 306

    http://46.4.109.148:6969/announce

    80 99 61

    udp://46.148.18.250:2710

    44 5 7

    http://tracker.dler.org:6969/announce

    75 68 54

    udp://[2001:67c:28f8:92::1111:1]:2710

    83 15 37

    udp://ipv6.leechers-paradise.org:6969

    13 17 97

    3,32 Gb

    121

    L.Ascension.2017.P.BDRip.72Op_KOSHARA.mkv (3,32 Gb)

    Смотрите также