Скачать торрент джиа в хорошем качестве


Джиа 1998 - скачать бесплатно через торрент в хорошем качестве. Без регистрации

www.kinovit.net

Название: Джиа / Gia (1998) BDRip от MediaClub | КПК | Расширенная версия
Качество видео: BDRip
Перевод: Профессиональный многоголосый
Видео: MPEG-4 AVC 500 Кбит/с, 480x272, 23.976 кадр/с
Аудио: Русский (AAC, 2 ch, 128 Кбит/с)
Скачать

Загрузка начнется в течение 5 сек.

567.33 MB

Название: Джиа / Gia (1998) BDRip 1080p by msltel | P2, A | Расширенная версия
Качество видео: BDRip 1080p Сравнение с исходником
Перевод: профессиональный двухголосый. авторский
Формат видео: MKV
Видео: H.264 18.1 Mбит/с, 1920x1080, 23.976 кадра/с, 0.364 bpp
Аудио: AC3, DTS AC3, DTSрусский, AC3, 192 kbps, 2 ch, 48 kHz [профессиональный двухголосый]русский, AC3, 192 kbps, 2 ch, 48 kHz [профессиональный двухголосый, VHS]русский, DTS, 1509 kbps, 6 ch, 48 kHz [авторский, Алексей Матвеев (Doctor Joker), с ненормативной лексикой]английский, DTS, 1509 kbps, 6 ch, 48 kHz [оригинал]
Скачать

Загрузка начнется в течение 5 сек.

19.17 GB

Название: Джиа / Gia (1998) BDRip 720p by msltel | P2, A | Расширенная версия
Качество видео: BDRip 720p Сравнение с исходником
Перевод: профессиональный двухголосый. авторский
Формат видео: MKV
Видео: H.264 7864 Kбит/с, 1280x720, 23.976 кадра/с, 0.356 bpp
Аудио: AC3 AC3русский, AC3, 192 kbps, 2 ch, 48 kHz [профессиональный двухголосый]русский, AC3, 192 kbps, 2 ch, 48 kHz [профессиональный двухголосый, VHS]русский, AC3, 448 kbps, 6 ch, 48 kHz [авторский, Алексей Матвеев (Doctor Joker), с ненормативной лексикой]английский, AC3, 640 kbps, 6 ch, 48 kHz [оригинал]
Скачать

Загрузка начнется в течение 5 сек.

8.33 GB

Название: Джиа / Gia (1998) НDRip от Scarabey | P2 | Расширенная версия
Качество видео: НDRip
Перевод: Профессиональный (двухголосый закадровы) [vhs]
Формат видео: AVI
Видео: 688x384 (1.79:1), 23.976 fps, XviD build 73 ~1458 kbps avg, 0.23 bit/pixel
Аудио: 48 kHz, AC3 Dolby Digital, 2/0 (L,R) ch, ~192.00 kbps avg
Скачать

Загрузка начнется в течение 5 сек.

1.45 GB

Название: Джиа / Gia (1998) BDRip 720p от Sheikn | Расширенная версия / Unrated
Качество видео: BDRip [720p]
Перевод: Профессиональный, двухголосый / Профессиональный, двухголосый
Видео: MPEG-4 AVC 1280x720, 5500 Кбит/с
Аудио: ПД (АС3, 2 ch, 192 Кбит/с) / ПД (АС3, 2 ch, 192 Кбит/с) / Английский (АС3, 6 ch, 640 Кбит/с)
Скачать

Загрузка начнется в течение 5 сек.

5.70 GB

Название: Джиа / Gia (1998) BDRip | Расширенная версия / Unrated
Качество видео: BDRip
Перевод: Профессиональный (многоголосый, закадровый) [VHS]
Видео: XviD / AC3 704x400 (1.76:1), 23.976 fps, XviD, ~1467 kbps avg, 0.22 bit/pixel
Аудио: AC3, 48 kHz, 2/0 (L,R) ch, ~192.00 kbps
Скачать

Загрузка начнется в течение 5 сек.

1.46 GB

Название: Джиа / Gia (1998) BDRip от HELLYWOOD | UNRATED
Качество видео: BDRip (источник: /BDRemux/ 1080p)
Перевод: Профессиональный (двухголосый закадровый) 2 варианта + Оригинал (отдельно на narod.ru)
Формат видео: AVI
Видео: 704x400 (1.76:1), 23.976 fps, XviD build 65 ~2106 kbps avg, 0.31 bit/pixel
Аудио: 48 kHz, AC3 Dolby Digital, 2/0 (L,R) ch, ~192 kbps|DVO #1|48 kHz, AC3 Dolby Digital, 2/0 (L,R) ch, ~192 kbps|DVO #2|48 kHz, AC3 Dolby Digital, 3/2 (L,C,R,l,r) + LFE ch, ~384 kbps|ENG| (отдельно)
Скачать

Загрузка начнется в течение 5 сек.

2.18 GB

Название: Джиа / Gia (1998) BDRip-AVC от ExKinoRay | Расширенная версия / Unrated
Качество видео: BDRip (AVC)
Перевод: Профессиональный, двухголосый
Видео: x264 MPEG-4 AVC, 2289 Кбит/с, 1024x576
Аудио: AC3, 2 ch, 192 Кбит/с
Скачать

Загрузка начнется в течение 5 сек.

2.17 GB

Скачать фильм Джиа (1998) через торрент

gig-torrent.net

23 мая 2016 13:34 Джиа / Gia (1998) BDRip от MediaClub | КПК | Расширенная версия .torrent   [Информация о файле (нажмите для просмотра)] Перевод: Профессиональный многоголосыйКодек: MPEG-4 AVCКачество: BDRipВидео: 500 Кбит/с, 480x272, 23.976 кадр/сЗвук: Русский (AAC, 2 ch, 128 Кбит/с) 567,33 Mb 3 3
23 мая 2016 13:34 Джиа / Gia (1998) BDRip 1080p by msltel | P2, A | Расширенная версия .torrent   [Информация о файле (нажмите для просмотра)] Перевод: профессиональный двухголосый. авторскийСубтитры: английскиеКачество: BDRip 1080pСравнение с исходникомФормат: MKVВидео: 18.1 Mбит/с, 1920x1080, 23.976 кадра/с, 0.364 bppАудио 1: русский, AC3, 192 kbps, 2 ch, 48 kHz [профессиональный двухголосый]Аудио 2: русский, AC3, 192 kbps, 2 ch, 48 kHz [профессиональный двухголосый, VHS]Аудио 3: русский, DTS, 1509 kbps, 6 ch, 48 kHz [авторский, Алексей Матвеев (Doctor Joker), с ненормативной лексикой]Аудио 4: английский, DTS, 1509 kbps, 6 ch, 48 kHz [оригинал]Видео: Идентификатор : 1 Формат : AVC Формат/Информация : Advanced Video Codec Профиль формата : [email protected] Параметр CABAC формата : Да Параметр ReFrames формата : 4 кадра Идентификатор кодека : V_MPEG4/ISO/AVC Продолжительность : 2 ч. 5 м. Битрейт : 18,1 Мбит/сек Ширина : 1920 пикселей Высота : 1080 пикселей Соотношение сторон : 16:9 Режим частоты кадров : Постоянный Частота кадров : 23,976 кадра/сек Цветовое пространство : YUV Субдискретизация насыщенности : 4:2:0 Битовая глубина : 8 бит Тип развёртки : Прогрессивная Бит/(Пиксели*Кадры) : 0.364 Размер потока : 15,8 Гбайт (82%) Заголовок : BDRip -- STarankov Библиотека кодирования : x264 core 142 r2431 ac76440 Настройки программы : cabac=1 / ref=4 / deblock=1:-1:-1 / analyse=0x3:0x113 / me=umh / subme=10 / psy=1 / psy_rd=1.00:0.15 / mixed_ref=1 / me_range=32 / chroma_me=1 / trellis=2 / 8x8dct=1 / cqm=0 / deadzone=21,11 / fast_pskip=1 / chroma_qp_offset=-3 / threads=6 / lookahead_threads=1 / sliced_threads=0 / nr=0 / decimate=1 / interlaced=0 / bluray_compat=0 / constrained_intra=0 / bframes=8 / b_pyramid=2 / b_adapt=2 / b_bias=0 / direct=3 / weightb=1 / open_gop=0 / weightp=2 / keyint=230 / keyint_min=23 / scenecut=40 / intra_refresh=0 / rc_lookahead=40 / rc=crf / mbtree=0 / crf=21.1 / qcomp=0.60 / qpmin=0 / qpmax=69 / qpstep=4 / vbv_maxrate=50000 / vbv_bufsize=62500 / crf_max=0.0 / nal_hrd=none / filler=0 / ip_ratio=1.40 / pb_ratio=1.30 / aq=1:1.00 Язык : English Default : Да Forced : Нет DURATION : 02:05:07.459000000 NUMBER_OF_FRAMES : 179999 NUMBER_OF_BYTES : 17386111811 _STATISTICS_WRITING_APP : mkvmerge v7.3.0 ('Nouages') 64bit built on Oct 22 2014 18:53:34 _STATISTICS_WRITING_DATE_UTC : 2014-11-11 03:06:03 _STATISTICS_TAGS : BPS DURATION NUMBER_OF_FRAMES NUMBER_OF_BYTESАудио #1: Идентификатор : 2 Формат : AC-3 Формат/Информация : Audio Coding 3 Расширение режима : CM (complete main) Параметр Endianness формата : Big Идентификатор кодека : A_AC3 Продолжительность : 2 ч. 5 м. Вид битрейта : Постоянный Битрейт : 192 Кбит/сек Каналы : 2 канала Расположение каналов : Front: L R Частота : 48,0 КГц Битовая глубина : 16 бит Метод сжатия : С потерями Размер потока : 172 Мбайт (1%) Заголовок : DVO Язык : Russian Default : Да Forced : НетАудио #2: Идентификатор : 3 Формат : AC-3 Формат/Информация : Audio Coding 3 Расширение режима : CM (complete main) Параметр Endianness формата : Big Идентификатор кодека : A_AC3 Продолжительность : 2 ч. 5 м. Вид битрейта : Постоянный Битрейт : 192 Кбит/сек Каналы : 2 канала Расположение каналов : Front: L R Частота : 48,0 КГц Битовая глубина : 16 бит Метод сжатия : С потерями Размер потока : 172 Мбайт (1%) Заголовок : DVO (VHS) Язык : Russian Default : Нет Forced : НетАудио #3: Идентификатор : 4 Формат : DTS Формат/Информация : Digital Theater Systems Режим : 16 Параметр Endianness формата : Big Идентификатор кодека : A_DTS Продолжительность : 2 ч. 5 м. Вид битрейта : Постоянный Битрейт : 1509 Кбит/сек Каналы : 6 каналов Расположение каналов : Front: L C R, Side: L R, LFE Частота : 48,0 КГц Битовая глубина : 16 бит Метод сжатия : С потерями Размер потока : 1,32 Гбайт (7%) Заголовок : AVO (Алексей Матвеев (Doctor Joker), с ненормативной лексикой) Язык : Russian Default : Нет Forced : НетАудио #4: Идентификатор : 5 Формат : DTS Формат/Информация : Digital Theater Systems Режим : 16 Параметр Endianness формата : Big Идентификатор кодека : A_DTS Продолжительность : 2 ч. 5 м. Вид битрейта : Постоянный Битрейт : 1509 Кбит/сек Каналы : 6 каналов Расположение каналов : Front: L C R, Side: L R, LFE Частота : 48,0 КГц Битовая глубина : 16 бит Метод сжатия : С потерями Размер потока : 1,32 Гбайт (7%) Заголовок : Original Язык : English Default : Нет Forced : Нет 19,17 Gb 4 1
23 мая 2016 13:34 Джиа / Gia (1998) BDRip 720p by msltel | P2, A | Расширенная версия .torrent   [Информация о файле (нажмите для просмотра)] Перевод: профессиональный двухголосый. авторскийСубтитры: английскиеКачество: BDRip 720pСравнение с исходникомФормат: MKVВидео: 7864 Kбит/с, 1280x720, 23.976 кадра/с, 0.356 bppАудио 1: русский, AC3, 192 kbps, 2 ch, 48 kHz [профессиональный двухголосый]Аудио 2: русский, AC3, 192 kbps, 2 ch, 48 kHz [профессиональный двухголосый, VHS]Аудио 3: русский, AC3, 448 kbps, 6 ch, 48 kHz [авторский, Алексей Матвеев (Doctor Joker), с ненормативной лексикой]Аудио 4: английский, AC3, 640 kbps, 6 ch, 48 kHz [оригинал]Видео: Идентификатор : 1 Формат : AVC Формат/Информация : Advanced Video Codec Профиль формата : [email protected] Параметр CABAC формата : Да Параметр ReFrames формата : 9 кадров Идентификатор кодека : V_MPEG4/ISO/AVC Продолжительность : 2 ч. 5 м. Битрейт : 7864 Кбит/сек Ширина : 1280 пикселей Высота : 720 пикселей Соотношение сторон : 16:9 Режим частоты кадров : Постоянный Частота кадров : 23,976 кадра/сек Цветовое пространство : YUV Субдискретизация насыщенности : 4:2:0 Битовая глубина : 8 бит Тип развёртки : Прогрессивная Бит/(Пиксели*Кадры) : 0.356 Размер потока : 6,87 Гбайт (83%) Заголовок : BDRip -- STarankov Библиотека кодирования : x264 core 142 r2431 ac76440 Настройки программы : cabac=1 / ref=9 / deblock=1:-1:-1 / analyse=0x3:0x113 / me=umh / subme=10 / psy=1 / psy_rd=1.00:0.15 / mixed_ref=1 / me_range=32 / chroma_me=1 / trellis=2 / 8x8dct=1 / cqm=0 / deadzone=21,11 / fast_pskip=1 / chroma_qp_offset=-3 / threads=6 / lookahead_threads=1 / sliced_threads=0 / nr=0 / decimate=1 / interlaced=0 / bluray_compat=0 / constrained_intra=0 / bframes=8 / b_pyramid=2 / b_adapt=2 / b_bias=0 / direct=3 / weightb=1 / open_gop=0 / weightp=2 / keyint=230 / keyint_min=23 / scenecut=40 / intra_refresh=0 / rc_lookahead=40 / rc=crf / mbtree=0 / crf=20.5 / qcomp=0.60 / qpmin=0 / qpmax=69 / qpstep=4 / vbv_maxrate=50000 / vbv_bufsize=62500 / crf_max=0.0 / nal_hrd=none / filler=0 / ip_ratio=1.40 / pb_ratio=1.30 / aq=1:1.00 Язык : English Default : Да Forced : Нет DURATION : 02:05:07.459000000 NUMBER_OF_FRAMES : 179999 NUMBER_OF_BYTES : 7554747232 _STATISTICS_WRITING_APP : mkvmerge v7.3.0 ('Nouages') 64bit built on Oct 22 2014 18:53:34 _STATISTICS_WRITING_DATE_UTC : 2014-11-09 08:59:52 _STATISTICS_TAGS : BPS DURATION NUMBER_OF_FRAMES NUMBER_OF_BYTESАудио #1: Идентификатор : 2 Формат : AC-3 Формат/Информация : Audio Coding 3 Расширение режима : CM (complete main) Параметр Endianness формата : Big Идентификатор кодека : A_AC3 Продолжительность : 2 ч. 5 м. Вид битрейта : Постоянный Битрейт : 192 Кбит/сек Каналы : 2 канала Расположение каналов : Front: L R Частота : 48,0 КГц Битовая глубина : 16 бит Метод сжатия : С потерями Размер потока : 172 Мбайт (2%) Заголовок : DVO Язык : Russian Default : Да Forced : НетАудио #2: Идентификатор : 3 Формат : AC-3 Формат/Информация : Audio Coding 3 Расширение режима : CM (complete main) Параметр Endianness формата : Big Идентификатор кодека : A_AC3 Продолжительность : 2 ч. 5 м. Вид битрейта : Постоянный Битрейт : 192 Кбит/сек Каналы : 2 канала Расположение каналов : Front: L R Частота : 48,0 КГц Битовая глубина : 16 бит Метод сжатия : С потерями Размер потока : 172 Мбайт (2%) Заголовок : DVO (VHS) Язык : Russian Default : Нет Forced : НетАудио #3: Идентификатор : 4 Формат : AC-3 Формат/Информация : Audio Coding 3 Расширение режима : CM (complete main) Параметр Endianness формата : Big Идентификатор кодека : A_AC3 Продолжительность : 2 ч. 5 м. Вид битрейта : Постоянный Битрейт : 448 Кбит/сек Каналы : 6 каналов Расположение каналов : Front: L C R, Side: L R, LFE Частота : 48,0 КГц Битовая глубина : 16 бит Метод сжатия : С потерями Размер потока : 401 Мбайт (5%) Заголовок : AVO (Алексей Матвеев (Doctor Joker)) Язык : Russian Default : Нет Forced : НетАудио #4: Идентификатор : 5 Формат : AC-3 Формат/Информация : Audio Coding 3 Расширение режима : CM (complete main) Параметр Endianness формата : Big Идентификатор кодека : A_AC3 Продолжительность : 2 ч. 5 м. Вид битрейта : Постоянный Битрейт : 640 Кбит/сек Каналы : 6 каналов Расположение каналов : Front: L C R, Side: L R, LFE Частота : 48,0 КГц Битовая глубина : 16 бит Метод сжатия : С потерями Размер потока : 573 Мбайт (7%) Заголовок : Original Язык : English Default : Нет Forced : Нет 8,33 Gb 3 1
23 мая 2016 13:34 Джиа / Gia (1998) BDRip от HQCLUB | Unrated .torrent   [Информация о файле (нажмите для просмотра)] Перевод: Профессиональный (двухголосый, закадровый) [#1] vhs + Оригинальная звуковая дорожка +Профессиональный (двухголосый, закадровый) [#2]Субтитры: Русские, английские (внешние srt*) (спасибо lankano) +Русские (по Матвееву) (внешние srt*)Формат: AVIКачество: BDRip (источник: Diablo /Blu-ray Remux / 1080p)Видео: 720x400 (1.80:1), 23,976 fps, XviD build 64 ~1852 kbps avg, 0.27 bit/pixelАудио #1: 48 kHz, AC3 Dolby Digital, 2/0 (L,R), ~192.00 kbps avgАудио #2: 48 kHz, AC3 Dolby Digital, 3/2 (L,C,R,l,r) + LFE ch, ~448.00 kbps avgАудио #3: 48 kHz, AC3 Dolby Digital, 2/0 (L,R), ~192.00 kbps avg(отдельно, http)Аудио #4: 48 kHz, AC3 Dolby Digital, 3/2 (L,C,R,l,r) + LFE ch, ~448.00 kbps avg(отдельно, http)Аудио #5: 48 kHz, AC3 Dolby Digital, 2/0 (L,R), ~192.00 kbps avg(отдельно, http) 2,18 Gb 7 2
23 мая 2016 13:34 Джиа / Gia (1998) НDRip от Scarabey | P2 | Расширенная версия .torrent   [Информация о файле (нажмите для просмотра)] Перевод: Профессиональный (двухголосый закадровы) [vhs]Качество: НDRipФормат: AVIВидео: 688x384 (1.79:1), 23.976 fps, XviD build 73 ~1458 kbps avg, 0.23 bit/pixelАудио: 48 kHz, AC3 Dolby Digital, 2/0 (L,R) ch, ~192.00 kbps avg 1,45 Gb 23 2
23 мая 2016 13:34 Джиа / Gia (1998) BDRip 720p от Sheikn | Расширенная версия / Unrated .torrent   [Информация о файле (нажмите для просмотра)] Перевод: Профессиональный, двухголосый / Профессиональный, двухголосыйКодек: MPEG-4 AVCКачество: BDRip [720p]Видео: 1280x720, 5500 Кбит/сЗвук: ПД (АС3, 2 ch, 192 Кбит/с) / ПД (АС3, 2 ch, 192 Кбит/с) / Английский (АС3, 6 ch, 640 Кбит/с) 5,7 Gb 4 3
23 мая 2016 13:34 Джиа / Gia (1998) BDRip | Расширенная версия / Unrated .torrent   [Информация о файле (нажмите для просмотра)] Перевод: Профессиональный (многоголосый, закадровый) [VHS]Кодек: XviD / AC3Качество: BDRipВидео: 704x400 (1.76:1), 23.976 fps, XviD, ~1467 kbps avg, 0.22 bit/pixelЗвук: AC3, 48 kHz, 2/0 (L,R) ch, ~192.00 kbps 1,46 Gb 29 5
23 мая 2016 13:33 Джиа / Gia (1998) BDRip от HELLYWOOD | UNRATED .torrent   [Информация о файле (нажмите для просмотра)] Перевод: Профессиональный (двухголосый закадровый) 2 варианта +Оригинал Субтитры: русские, английские - Softsub (SRT) (отдельным файлом)Формат: AVIКачество: BDRip (источник: /BDRemux/ 1080p)Видео: 704x400 (1.76:1), 23.976 fps, XviD build 65 ~2106 kbps avg, 0.31 bit/pixelАудио #1: 48 kHz, AC3 Dolby Digital, 2/0 (L,R) ch, ~192 kbps|DVO #1|Аудио #2: 48 kHz, AC3 Dolby Digital, 2/0 (L,R) ch, ~192 kbps|DVO #2|Аудио #3: 48 kHz, AC3 Dolby Digital, 3/2 (L,C,R,l,r) + LFE ch, ~384 kbps|ENG| (отдельно) 2,18 Gb 5 6
23 мая 2016 13:33 Джиа / Gia (1998) BDRip-AVC от ExKinoRay | Расширенная версия / Unrated .torrent   [Информация о файле (нажмите для просмотра)] Перевод: Профессиональный, двухголосыйКодек: x264Качество: BDRip (AVC)Видео: MPEG-4 AVC, 2289 Кбит/с, 1024x576Аудио: AC3, 2 ch, 192 Кбит/с 2,17 Gb 6 1
23 мая 2016 13:33 Джиа / Gia (1998) BDRip 1080p | Unrated .torrent   [Информация о файле (нажмите для просмотра)] Качество: BDRip 1080pСубтитры: русские, английскиеФормат: MKVВидео: MPEG-4 AVC, 11.0 Mbps, 1920x1080p, 23.976 fps, 16:9, High Profile 4.1Аудио 1: Dolby Digital 2.0, 48 kHz, 192 kbpsАудио 2: Dolby Digital 2.0, 48 kHz, 192 kbpsАудио 3: DTS 5.1, 48 kHz, 1509 kbps, 16-bitMediaInfoКод: General Complete name : X: -= Фильмы =-Джиа (1998. Gia).mkv Format : Matroska File size : 11.3 GiB Duration : 2h 5mn Overall bit rate : 12.9 Mbps Movie name : Gia.Unrated.1998.BluRay.1080p.x264.DTS.MySilu Encoded date : UTC 2011-11-01 03:43:12 Writing application : mkvmerge v4.9.1 ('Ich will') сборка от Jul 11 2011 23:53:15 Writing library : libebml v1.2.1 + libmatroska v1.1.1 11,27 Gb 4 2
23 мая 2016 13:33 Джиа / Gia (1998) BDRemux | Unrated .torrent   [Информация о файле (нажмите для просмотра)] Качество: BDRemuxСубтитры: русские, английские - 2 видаФормат: MKVВидео: MPEG-4 AVC, 18998 kbps, 1080p, 23.976 fps, 16:9, High Profile 4.1Аудио 1: Dolby Digital 2.0, 48 kHz, 192 kbpsАудио 2: Dolby Digital 2.0, 48 kHz, 192 kbpsАудио 3: DTS-HD Master 5.1, 48 kHz, 2035 kbps, 16-bit (DTS Core: 5.1, 48 kHz, 1509 kbps, 16-bit)MediaInfoGeneral Unique ID : 224502287111021504534076913743225757746 (0xA8E59156F412753996A5501259E92032) Complete name : J:Gia.1998.1080p.Bluray.Unrated.AVC.Remux.mkv Format : Matroska Format version : Version 2 File size : 18.7 GiB Duration : 2h 5mn Overall bit rate : 21.4 Mbps Movie name : Gia.1998.1080p.Bluray.Unrated.AVC.Remux Encoded date : UTC 2011-10-31 03:47:48 Writing application : mkvmerge v4.9.1 ('Ich will') сборка от Jul 11 2011 23:53:15 Writing library : libebml v1.2.1 + libmatroska v1.1.1 18,72 Gb 3 2
23 мая 2016 13:33 Джиа / Gia (1998) DVDRip .torrent   [Информация о файле (нажмите для просмотра)] Перевод: Двухголосый профессиональный закадровыйКодек: XviDКачество: DVDRipВидео: XviD MPEG-4 codec 725 Kbps 25,00 0,15 b/pxЗвук: MPEG 1 or 2 Audio Layer 3 (MP3) 44100 Hz 106 Kbps 690,01 Mb 3 2

Скачать фильм Джиа через торрент в хорошем качестве бесплатно 720p] DVO

frame I:1191 Avg QP:20.64 size:139481frame P:33545 Avg QP:21.58 size: 66938frame B:145263 Avg QP:23.72 size: 35406

ОбщееУникальный идентификатор : 254992672118061564847817568857352802392 (0xBFD5CD626DAF818B85C2FB1AE34B9058)Полное имя : D:VideoGia.UnrCut.1998.BDRip.720p.mkvФормат : MatroskaВерсия формата : Version 4 / Version 2Размер файла : 8,33 ГбайтПродолжительность : 2 ч. 5 м.Общий поток : 9525 Кбит/секДата кодирования : UTC 2014-11-09 08:59:52Программа кодирования : mkvmerge v7.3.0 ('Nouages') 64bit built on Oct 22 2014 18:53:34Библиотека кодирования : libebml v1.3.0 + libmatroska v1.4.1DURATION : 02:00:22.423000000NUMBER_OF_FRAMES : 1322NUMBER_OF_BYTES : 43277_STATISTICS_WRITING_APP : mkvmerge v7.3.0 ('Nouages') 64bit built on Oct 22 2014 18:53:34_STATISTICS_WRITING_DATE_UTC : 2014-11-09 08:59:52_STATISTICS_TAGS : BPS DURATION NUMBER_OF_FRAMES NUMBER_OF_BYTES

ВидеоИдентификатор : 1Формат : AVCФормат/Информация : Advanced Video CodecПрофиль формата : [email protected]Параметр CABAC формата : ДаПараметр ReFrames формата : 9 кадровИдентификатор кодека : V_MPEG4/ISO/AVCПродолжительность : 2 ч. 5 м.Битрейт : 7864 Кбит/секШирина : 1280 пикселейВысота : 720 пикселейСоотношение сторон : 16:9Режим частоты кадров : ПостоянныйЧастота кадров : 23,976 кадра/секЦветовое пространство : YUVСубдискретизация насыщенности : 4:2:0Битовая глубина : 8 битТип развёртки : ПрогрессивнаяБит/(Пиксели*Кадры) : 0.356Размер потока : 6,87 Гбайт (83%)Заголовок : BDRip -- STarankovБиблиотека кодирования : x264 core 142 r2431 ac76440Настройки программы : cabac=1 / ref=9 / deblock=1:-1:-1 / analyse=0x3:0x113 / me=umh / subme=10 / psy=1 / psy_rd=1.00:0.15 / mixed_ref=1 / me_range=32 / chroma_me=1 / trellis=2 / 8x8dct=1 / cqm=0 / deadzone=21,11 / fast_pskip=1 / chroma_qp_offset=-3 / threads=6 / lookahead_threads=1 / sliced_threads=0 / nr=0 / decimate=1 / interlaced=0 / bluray_compat=0 / constrained_intra=0 / bframes=8 / b_pyramid=2 / b_adapt=2 / b_bias=0 / direct=3 / weightb=1 / open_gop=0 / weightp=2 / keyint=230 / keyint_min=23 / scenecut=40 / intra_refresh=0 / rc_lookahead=40 / rc=crf / mbtree=0 / crf=20.5 / qcomp=0.60 / qpmin=0 / qpmax=69 / qpstep=4 / vbv_maxrate=50000 / vbv_bufsize=62500 / crf_max=0.0 / nal_hrd=none / filler=0 / ip_ratio=1.40 / pb_ratio=1.30 / aq=1:1.00Язык : EnglishDefault : ДаForced : НетDURATION : 02:05:07.459000000NUMBER_OF_FRAMES : 179999NUMBER_OF_BYTES : 7554747232_STATISTICS_WRITING_APP : mkvmerge v7.3.0 ('Nouages') 64bit built on Oct 22 2014 18:53:34_STATISTICS_WRITING_DATE_UTC : 2014-11-09 08:59:52_STATISTICS_TAGS : BPS DURATION NUMBER_OF_FRAMES NUMBER_OF_BYTES

Аудио #1Идентификатор : 2Формат : AC-3Формат/Информация : Audio Coding 3Расширение режима : CM (complete main)Параметр Endianness формата : BigИдентификатор кодека : A_AC3Продолжительность : 2 ч. 5 м.Вид битрейта : ПостоянныйБитрейт : 192 Кбит/секКаналы : 2 каналаРасположение каналов : Front: L RЧастота : 48,0 КГцБитовая глубина : 16 битМетод сжатия : С потерямиРазмер потока : 172 Мбайт (2%)Заголовок : DVOЯзык : RussianDefault : ДаForced : Нет

Аудио #2Идентификатор : 3Формат : AC-3Формат/Информация : Audio Coding 3Расширение режима : CM (complete main)Параметр Endianness формата : BigИдентификатор кодека : A_AC3Продолжительность : 2 ч. 5 м.Вид битрейта : ПостоянныйБитрейт : 192 Кбит/секКаналы : 2 каналаРасположение каналов : Front: L RЧастота : 48,0 КГцБитовая глубина : 16 битМетод сжатия : С потерямиРазмер потока : 172 Мбайт (2%)Заголовок : DVO (VHS)Язык : RussianDefault : НетForced : Нет

Аудио #3Идентификатор : 4Формат : AC-3Формат/Информация : Audio Coding 3Расширение режима : CM (complete main)Параметр Endianness формата : BigИдентификатор кодека : A_AC3Продолжительность : 2 ч. 5 м.Вид битрейта : ПостоянныйБитрейт : 448 Кбит/секКаналы : 6 каналовРасположение каналов : Front: L C R, Side: L R, LFEЧастота : 48,0 КГцБитовая глубина : 16 битМетод сжатия : С потерямиРазмер потока : 401 Мбайт (5%)Заголовок : AVO (Алексей Матвеев (Doctor Joker))Язык : RussianDefault : НетForced : Нет

Аудио #4Идентификатор : 5Формат : AC-3Формат/Информация : Audio Coding 3Расширение режима : CM (complete main)Параметр Endianness формата : BigИдентификатор кодека : A_AC3Продолжительность : 2 ч. 5 м.Вид битрейта : ПостоянныйБитрейт : 640 Кбит/секКаналы : 6 каналовРасположение каналов : Front: L C R, Side: L R, LFEЧастота : 48,0 КГцБитовая глубина : 16 битМетод сжатия : С потерямиРазмер потока : 573 Мбайт (7%)Заголовок : OriginalЯзык : EnglishDefault : НетForced : Нет

Текст #1Идентификатор : 6Формат : UTF-8Идентификатор кодека : S_TEXT/UTF8Идентификатор кодека/Информация : UTF-8 Plain TextЗаголовок : русскийЯзык : RussianDefault : НетForced : Нет

Текст #2Идентификатор : 7Формат : UTF-8Идентификатор кодека : S_TEXT/UTF8Идентификатор кодека/Информация : UTF-8 Plain TextЗаголовок : английскийDefault : НетForced : Нет

Меню00:00:00.000 : en:Chapter 0100:05:38.337 : en:Chapter 0200:15:26.801 : en:Chapter 0300:21:31.957 : en:Chapter 0400:31:38.645 : en:Chapter 0500:36:43.908 : en:Chapter 0600:46:22.237 : en:Chapter 0700:56:36.475 : en:Chapter 0801:04:55.599 : en:Chapter 0901:15:12.630 : en:Chapter 1001:23:40.180 : en:Chapter 1101:33:43.117 : en:Chapter 1201:41:02.389 : en:Chapter 1301:47:55.468 : en:Chapter 1401:58:27.725 : en:Chapter 15

piratbit.ru

/ Gia ( / Michael Cristofer) [1998 ., , BDRip 1080p] [UNRATED]

General Complete name : X:\ -= =-\ (1998. Gia).mkv Format : Matroska File size : 11.3 GiB Duration : 2h 5mn Overall bit rate : 12.9 Mbps Movie name : Gia.Unrated.1998.BluRay.1080p.x264.DTS.MySilu [http://] Encoded date : UTC 2011-11-01 03:43:12 Writing application : mkvmerge v4.9.1 ('Ich will') Jul 11 2011 23:53:15 Writing library : libebml v1.2.1 + libmatroska v1.1.1

Video

ID : 1 Format : AVC Format/Info : Advanced Video Codec Format profile : [email protected] Format settings, CABAC : Yes Format settings, ReFrames : 4 frames Muxing mode : Container [email protected] Codec ID : V_MPEG4/ISO/AVC Duration : 2h 5mn Bit rate : 11.0 Mbps Width : 1 920 pixels Height : 1 080 pixels Display aspect ratio : 16:9 Frame rate : 23.976 fps Color space : YUV Chroma subsampling : 4:2:0 Bit depth : 8 bits Scan type : Progressive Bits/(Pixel*Frame) : 0.221 Stream size : 9.39 GiB (83%) Title : Gia.Unrated.1998.BluRay.1080p.x264.DTS.MySilu Writing library : x264 core 118 r2085 8a62835 Encoding settings : cabac=1 / ref=4 / deblock=1:-2:-2 / analyse=0x3:0x113 / me=umh / subme=10 / psy=1 / psy_rd=1.20:0.20 / mixed_ref=1 / me_range=32 / chroma_me=1 / trellis=2 / 8x8dct=1 / cqm=0 / deadzone=21,11 / fast_pskip=0 / chroma_qp_offset=-3 / threads=9 / sliced_threads=0 / nr=0 / decimate=0 / interlaced=0 / bluray_compat=0 / constrained_intra=0 / bframes=5 / b_pyramid=2 / b_adapt=2 / b_bias=0 / direct=3 / weightb=1 / open_gop=0 / weightp=2 / keyint=250 / keyint_min=2 / scenecut=40 / intra_refresh=0 / rc_lookahead=72 / rc=2pass / mbtree=1 / bitrate=11000 / ratetol=1.0 / qcomp=0.60 / qpmin=10 / qpmax=51 / qpstep=4 / cplxblur=20.0 / qblur=0.5 / vbv_maxrate=38000 / vbv_bufsize=38000 / nal_hrd=none / ip_ratio=1.40 / aq=1:1.00 Language : English

Audio #1

ID : 2 Format : AC-3 Format/Info : Audio Coding 3 Mode extension : CM (complete main) Codec ID : A_AC3 Duration : 2h 5mn Bit rate mode : Constant Bit rate : 192 Kbps Channel(s) : 2 channels Channel positions : Front: L R Sampling rate : 48.0 KHz Bit depth : 16 bits Stream size : 172 MiB (1%) Title : DVO #1 (from vhs) Language : Russian

Audio #2

ID : 3 Format : AC-3 Format/Info : Audio Coding 3 Mode extension : CM (complete main) Codec ID : A_AC3 Duration : 2h 5mn Bit rate mode : Constant Bit rate : 192 Kbps Channel(s) : 2 channels Channel positions : Front: L R Sampling rate : 48.0 KHz Bit depth : 16 bits Stream size : 172 MiB (1%) Title : DVO #2 Language : Russian

Audio #3

ID : 4 Format : DTS Format/Info : Digital Theater Systems Codec ID : A_DTS Duration : 2h 5mn Bit rate mode : Constant Bit rate : 1 510 Kbps Channel(s) : 6 channels Channel positions : Front: L C R, Side: L R, LFE Sampling rate : 48.0 KHz Bit depth : 16 bits Stream size : 1.32 GiB (12%) Language : English

Text #1

ID : 5 Format : UTF-8 Codec ID : S_TEXT/UTF8 Codec ID/Info : UTF-8 Plain Text Language : Russian

Text #2

ID : 6 Format : UTF-8 Codec ID : S_TEXT/UTF8 Codec ID/Info : UTF-8 Plain Text Language : English

Menu

00:00:00.000 : en:00:00:00.000 00:05:38.338 : en:00:05:38.338 00:15:26.801 : en:00:15:26.801 00:21:31.957 : en:00:21:31.957 00:31:38.647 : en:00:31:38.647 00:36:43.910 : en:00:36:43.910 00:46:22.238 : en:00:46:22.238 00:56:36.476 : en:00:56:36.476 01:04:55.600 : en:01:04:55.600 01:15:12.633 : en:01:15:12.633 01:23:40.182 : en:01:23:40.182 01:33:43.117 : en:01:33:43.117 01:41:02.390 : en:01:41:02.390 01:47:55.469 : en:01:47:55.469 01:58:27.726 : en:01:58:27.726

unionpeer.com


Смотрите также