Скачать торрент двойной удар в хорошем качестве


Скачать фильм Двойной удар (1991) через торрент

gig-torrent.net

17 мая 2016 13:49 Двойной удар / Double Impact (1991) HDRip от Scarabey | D .torrent   [Информация о файле (нажмите для просмотра)] Перевод: Профессиональный (полное дублирование)Субтитры: нетВидео: 704x384 (1.83:1), 23.976 fps, XviD build 50 ~1656 kbps avg, 0.26 bit/pixelАудио: 48 kHz, AC3 Dolby Digital, 2/0 (L,R) ch, ~224.00 kbps avg 1,45 Gb 40 4
17 мая 2016 13:49 Двойной удар / Double Impact (1991) BDRip от HQ-ViDEO | P, A .torrent   [Информация о файле (нажмите для просмотра)] Перевод: Профессиональный (многоголосый, закадровый)|R5| + Профессиональный (многоголосый, закадровый) |ТНТ| + Авторский (одноголосый, закадровый) |А. Гаврилов| + Оригинал (Английский)Субтитры: Русские, Английские.Формат: AVIКачество: BDRip (источник: BLUEBIRD /Blu-ray Disc / 1080p)Кодек: XviD, build 73 codecВидео: 704 x 384; 23.976 fps; 2057 kbps; 0.317 bit/pixelАудио #1: AC3 Dolby Digital; 192 Kbps; 2 channels; 48 KHzАудио #2: AC3 Dolby Digital; 192 Kbps; 2 channels; 48 KHzАудио #3: AC3 Dolby Digital; 192 Kbps; 2 channels; 48 KHzАудио #4: AC3 Dolby Digital; 192 Kbps; 2 channels; 48 KHzАудио #5: AC3 Dolby Digital; 192 Kbps; 2 channels; 48 KHz(отдельно, http)Аудио #6: AC3 Dolby Digital; 384 Kbps; 6 channels; 48 KHz(отдельно, http)Аудио #7: AC3 Dolby Digital; 192 Kbps; 2 channels; 48 KHz(отдельно, http)Аудио #8: AC3 Dolby Digital; 192 Kbps; 2 channels; 48 KHz(отдельно, http) 2,19 Gb 46 11
17 мая 2016 13:49 Двойной удар / Double Impact (1991) BDRip от ExKinoRay | Яроцкий .torrent   [Информация о файле (нажмите для просмотра)] Перевод: Авторский одноголосый (Яроцкий ака kyberpunk), доступен благодаря будулайромановуКачество: BDRipВидео: XviD, 1508 Кбит/с, 720x384Аудио: АС3, 2 ch, 384 Кбит/с 1,46 Gb 3 2
17 мая 2016 13:49 Двойной удар / Double Impact (1991) BDRip 1080p by msltel | D, P, P1, A .torrent   [Информация о файле (нажмите для просмотра)] Перевод: дублированный, профессиональный многоголосый, авторский, одноголосый закадровыйСубтитры: русские, английские (для слабослышащих) (все отдельно)Качество: BDRip 1080pСравнение с исходникомФормат: MKVВидео: 1920x1040, 16.5 Mbps, 23.976 кадра/с, 0.344 bppАудио 1: русский, AC3, 224 kbps, 2 ch, 48 kHz [дублированный, Хлопушка]Аудио 2: русский, AC3, 448 kbps, 6 ch, 48 kHz [профессиональный многоголосый, OPT]Аудио 3: русский, DTS, 1509 kbps, 2 ch, 48 kHz [профессиональный многоголосый, R5]Аудио 4: русский, AC3, 192 kbps, 2 ch, 48 kHz [профессиональный многоголосый, THT]Аудио 5: русский, DTS, 1509 kbps, 2 ch, 48 kHz [авторский, Андрей Гаврилов]Аудио: русский, AC3, 192 kbps, 2 ch, 48 kHz [Профессиональный многоголосый, R5]Аудио: русский, AC3, 192 kbps, 2 ch, 48 kHz [авторский, Андрей Гаврилов]Аудио: английский, DTS, 1509 kbps, 2 ch, 48 kHz [оригинал]Аудио: Формат : AC-3 Формат/Информация : Audio Coding 3 Расширение режима : CM (complete main) Параметр Endianness формата : Big Продолжительность : 1 ч. 49 м. Вид битрейта : Постоянный Битрейт : 192 Кбит/сек Каналы : 2 канала Расположение каналов : Front: L R Частота : 48,0 КГц Битовая глубина : 16 бит Метод сжатия : С потерями Размер потока : 151 Мбайт (100%)Видео: Идентификатор : 1 Формат : AVC Формат/Информация : Advanced Video Codec Профиль формата : [email protected] Параметр CABAC формата : Да Параметр ReFrames формата : 4 кадра Идентификатор кодека : V_MPEG4/ISO/AVC Продолжительность : 1 ч. 49 м. Битрейт : 16,5 Мбит/сек Ширина : 1920 пикселей Высота : 1040 пикселей Соотношение сторон : 1,85:1 Режим частоты кадров : Постоянный Частота кадров : 23,976 кадра/сек Цветовое пространство : YUV Субдискретизация насыщенности : 4:2:0 Битовая глубина : 8 бит Тип развёртки : Прогрессивная Бит/(Пиксели*Кадры) : 0.344 Размер потока : 12,6 Гбайт (79%) Заголовок : BDRip -- STarankov Библиотека кодирования : x264 core 142 r2431 ac76440 Настройки программы : cabac=1 / ref=4 / deblock=1:-1:-1 / analyse=0x3:0x113 / me=umh / subme=10 / psy=1 / psy_rd=1.00:0.15 / mixed_ref=1 / me_range=32 / chroma_me=1 / trellis=2 / 8x8dct=1 / cqm=0 / deadzone=21,11 / fast_pskip=1 / chroma_qp_offset=-3 / threads=6 / lookahead_threads=1 / sliced_threads=0 / nr=0 / decimate=1 / interlaced=0 / bluray_compat=0 / constrained_intra=0 / bframes=8 / b_pyramid=2 / b_adapt=2 / b_bias=0 / direct=3 / weightb=1 / open_gop=0 / weightp=2 / keyint=230 / keyint_min=23 / scenecut=40 / intra_refresh=0 / rc_lookahead=40 / rc=crf / mbtree=0 / crf=19.6 / qcomp=0.60 / qpmin=0 / qpmax=69 / qpstep=4 / vbv_maxrate=40000 / vbv_bufsize=50000 / crf_max=0.0 / nal_hrd=none / filler=0 / ip_ratio=1.40 / pb_ratio=1.30 / aq=1:1.00 Язык : English Default : Да Forced : НетАудио #1: Идентификатор : 2 Формат : AC-3 Формат/Информация : Audio Coding 3 Профиль формата : Dolby Digital Расширение режима : CM (complete main) Параметр Endianness формата : Big Идентификатор кодека : A_AC3 Продолжительность : 1 ч. 49 м. Вид битрейта : Постоянный Битрейт : 224 Кбит/сек Каналы : 2 канала Расположение каналов : Front: L R Частота : 48,0 КГц Битовая глубина : 16 бит Метод сжатия : С потерями Размер потока : 176 Мбайт (1%) Заголовок : DUB (Хлопушка) Язык : Russian Default : Да Forced : НетАудио #2: Идентификатор : 3 Формат : AC-3 Формат/Информация : Audio Coding 3 Расширение режима : CM (complete main) Параметр Endianness формата : Big Идентификатор кодека : A_AC3 Продолжительность : 1 ч. 49 м. Вид битрейта : Постоянный Битрейт : 448 Кбит/сек Каналы : 6 каналов Расположение каналов : Front: L C R, Side: L R, LFE Частота : 48,0 КГц Битовая глубина : 16 бит Метод сжатия : С потерями Размер потока : 351 Мбайт (2%) Заголовок : MVO (OPT) Язык : Russian Default : Нет Forced : НетАудио #3: Идентификатор : 4 Формат : DTS Формат/Информация : Digital Theater Systems Режим : 16 Параметр Endianness формата : Big Идентификатор кодека : A_DTS Продолжительность : 1 ч. 49 м. Вид битрейта : Постоянный Битрейт : 1509 Кбит/сек Каналы : 2 канала Расположение каналов : Front: L R Частота : 48,0 КГц Битовая глубина : 24 бит Метод сжатия : С потерями Размер потока : 1,16 Гбайт (7%) Заголовок : MVO (R5) Язык : Russian Default : Нет Forced : НетАудио #4: Идентификатор : 5 Формат : AC-3 Формат/Информация : Audio Coding 3 Профиль формата : Dolby Digital Расширение режима : CM (complete main) Параметр Endianness формата : Big Идентификатор кодека : A_AC3 Продолжительность : 1 ч. 49 м. Вид битрейта : Постоянный Битрейт : 192 Кбит/сек Каналы : 2 канала Расположение каналов : Front: L R Частота : 48,0 КГц Битовая глубина : 16 бит Метод сжатия : С потерями Размер потока : 151 Мбайт (1%) Заголовок : MVO (THT) Язык : Russian Default : Нет Forced : НетАудио #5: Идентификатор : 6 Формат : DTS Формат/Информация : Digital Theater Systems Режим : 16 Параметр Endianness формата : Big Идентификатор кодека : A_DTS Продолжительность : 1 ч. 49 м. Вид битрейта : Постоянный Битрейт : 1509 Кбит/сек Каналы : 2 канала Расположение каналов : Front: L R Частота : 48,0 КГц Битовая глубина : 24 бит Метод сжатия : С потерями Размер потока : 1,16 Гбайт (7%) Заголовок : AVO (Андрей Гаврилов) Язык : Russian Default : Нет Forced : НетАудио: Формат : AC-3 Формат/Информация : Audio Coding 3 Расширение режима : CM (complete main) Параметр Endianness формата : Big Продолжительность : 1 ч. 49 м. Вид битрейта : Постоянный Битрейт : 192 Кбит/сек Каналы : 2 канала Расположение каналов : Front: L R Частота : 48,0 КГц Битовая глубина : 16 бит Метод сжатия : С потерями Размер потока : 151 Мбайт (100%)Аудио: Формат : DTS Формат/Информация : Digital Theater Systems Режим : 16 Параметр Endianness формата : Big Продолжительность : 1 ч. 49 м. Вид битрейта : Постоянный Битрейт : 1509 Кбит/сек Каналы : 2 канала Расположение каналов : Front: L R Частота : 48,0 КГц Битовая глубина : 24 бит Метод сжатия : С потерями Размер потока : 1,16 Гбайт (100%)Аудио: Формат : AC-3 Формат/Информация : Audio Coding 3 Профиль формата : Dolby Digital Расширение режима : CM (complete main) Параметр Endianness формата : Big Продолжительность : 1 ч. 49 м. Вид битрейта : Постоянный Битрейт : 192 Кбит/сек Каналы : 2 канала Расположение каналов : Front: L R Частота : 48,0 КГц Битовая глубина : 16 бит Метод сжатия : С потерями Размер потока : 151 Мбайт (100%) 17,51 Gb 3 4
17 мая 2016 13:49 Двойной удар / Double Impact (1991) BDRip 720p by msltel | D, P, P1, A .torrent   [Информация о файле (нажмите для просмотра)] Перевод: дублированный, профессиональный многоголосый, авторский, одноголосый закадровыйСубтитры: русские, английские (для слабослышащих) (все отдельно)Качество: BDRip 720pСравнение с исходникомФормат: MKVВидео: 1280x696, 7229 kbps, 23.976 кадра/с, 0.338 bppАудио 1: русский, AC3, 224 kbps, 2 ch, 48 kHz [дублированный, Хлопушка]Аудио 2: русский, AC3, 448 kbps, 6 ch, 48 kHz [профессиональный многоголосый, OPT]Аудио 3: русский, AC3, 192 kbps, 2 ch, 48 kHz [профессиональный многоголосый, R5]Аудио 4: русский, AC3, 192 kbps, 2 ch, 48 kHz [профессиональный многоголосый, THT]Аудио 5: русский, AC3, 192 kbps, 2 ch, 48 kHz [авторский, Андрей Гаврилов]Аудио: русский, DTS, 1509 kbps, 2 ch, 48 kHz [Профессиональный многоголосый, R5]Аудио: русский, DTS, 1509 kbps, 2 ch, 48 kHz [авторский, Андрей Гаврилов]Аудио: английский, AC3, 192 kbps, 2 ch, 48 kHz [оригинал]Аудио: Формат : DTS Формат/Информация : Digital Theater Systems Режим : 16 Параметр Endianness формата : Big Продолжительность : 1 ч. 49 м. Вид битрейта : Постоянный Битрейт : 1509 Кбит/сек Каналы : 2 канала Расположение каналов : Front: L R Частота : 48,0 КГц Битовая глубина : 24 бит Метод сжатия : С потерями Размер потока : 1,16 ГбайтВидео: Идентификатор : 1 Формат : AVC Формат/Информация : Advanced Video Codec Профиль формата : [email protected] Параметр CABAC формата : Да Параметр ReFrames формата : 9 кадров Идентификатор кодека : V_MPEG4/ISO/AVC Продолжительность : 1 ч. 49 м. Битрейт : 7229 Кбит/сек Ширина : 1280 пикселей Высота : 696 пикселей Соотношение сторон : 1,85:1 Режим частоты кадров : Постоянный Частота кадров : 23,976 кадра/сек Цветовое пространство : YUV Субдискретизация насыщенности : 4:2:0 Битовая глубина : 8 бит Тип развёртки : Прогрессивная Бит/(Пиксели*Кадры) : 0.338 Размер потока : 5,54 Гбайт (84%) Заголовок : BDRip -- STarankov Библиотека кодирования : x264 core 142 r2431 ac76440 Настройки программы : cabac=1 / ref=9 / deblock=1:-1:-1 / analyse=0x3:0x113 / me=umh / subme=10 / psy=1 / psy_rd=1.00:0.15 / mixed_ref=1 / me_range=32 / chroma_me=1 / trellis=2 / 8x8dct=1 / cqm=0 / deadzone=21,11 / fast_pskip=1 / chroma_qp_offset=-3 / threads=6 / lookahead_threads=1 / sliced_threads=0 / nr=0 / decimate=1 / interlaced=0 / bluray_compat=0 / constrained_intra=0 / bframes=8 / b_pyramid=2 / b_adapt=2 / b_bias=0 / direct=3 / weightb=1 / open_gop=0 / weightp=2 / keyint=230 / keyint_min=23 / scenecut=40 / intra_refresh=0 / rc_lookahead=40 / rc=crf / mbtree=0 / crf=19.3 / qcomp=0.60 / qpmin=0 / qpmax=69 / qpstep=4 / vbv_maxrate=40000 / vbv_bufsize=50000 / crf_max=0.0 / nal_hrd=none / filler=0 / ip_ratio=1.40 / pb_ratio=1.30 / aq=1:1.00 Язык : English Default : Да Forced : НетАудио #1: Идентификатор : 2 Формат : AC-3 Формат/Информация : Audio Coding 3 Профиль формата : Dolby Digital Расширение режима : CM (complete main) Параметр Endianness формата : Big Идентификатор кодека : A_AC3 Продолжительность : 1 ч. 49 м. Вид битрейта : Постоянный Битрейт : 224 Кбит/сек Каналы : 2 канала Расположение каналов : Front: L R Частота : 48,0 КГц Битовая глубина : 16 бит Метод сжатия : С потерями Размер потока : 176 Мбайт (3%) Заголовок : DUB (Хлопушка) Язык : Russian Default : Да Forced : НетАудио #2: Идентификатор : 3 Формат : AC-3 Формат/Информация : Audio Coding 3 Расширение режима : CM (complete main) Параметр Endianness формата : Big Идентификатор кодека : A_AC3 Продолжительность : 1 ч. 49 м. Вид битрейта : Постоянный Битрейт : 448 Кбит/сек Каналы : 6 каналов Расположение каналов : Front: L C R, Side: L R, LFE Частота : 48,0 КГц Битовая глубина : 16 бит Метод сжатия : С потерями Размер потока : 351 Мбайт (5%) Заголовок : MVO (OPT) Язык : Russian Default : Нет Forced : НетАудио #3: Идентификатор : 4 Формат : AC-3 Формат/Информация : Audio Coding 3 Расширение режима : CM (complete main) Параметр Endianness формата : Big Идентификатор кодека : A_AC3 Продолжительность : 1 ч. 49 м. Вид битрейта : Постоянный Битрейт : 192 Кбит/сек Каналы : 2 канала Расположение каналов : Front: L R Частота : 48,0 КГц Битовая глубина : 16 бит Метод сжатия : С потерями Размер потока : 151 Мбайт (2%) Заголовок : MVO (R5) Язык : Russian Default : Нет Forced : НетАудио #4: Идентификатор : 5 Формат : AC-3 Формат/Информация : Audio Coding 3 Профиль формата : Dolby Digital Расширение режима : CM (complete main) Параметр Endianness формата : Big Идентификатор кодека : A_AC3 Продолжительность : 1 ч. 49 м. Вид битрейта : Постоянный Битрейт : 192 Кбит/сек Каналы : 2 канала Расположение каналов : Front: L R Частота : 48,0 КГц Битовая глубина : 16 бит Метод сжатия : С потерями Размер потока : 151 Мбайт (2%) Заголовок : MVO (THT) Язык : Russian Default : Нет Forced : НетАудио #5: Идентификатор : 6 Формат : AC-3 Формат/Информация : Audio Coding 3 Расширение режима : CM (complete main) Параметр Endianness формата : Big Идентификатор кодека : A_AC3 Продолжительность : 1 ч. 49 м. Вид битрейта : Постоянный Битрейт : 192 Кбит/сек Каналы : 2 канала Расположение каналов : Front: L R Частота : 48,0 КГц Битовая глубина : 16 бит Метод сжатия : С потерями Размер потока : 151 Мбайт (2%) Заголовок : AVO (Андрей Гаврилов) Язык : Russian Default : Нет Forced : НетАудио: Формат : DTS Формат/Информация : Digital Theater Systems Режим : 16 Параметр Endianness формата : Big Продолжительность : 1 ч. 49 м. Вид битрейта : Постоянный Битрейт : 1509 Кбит/сек Каналы : 2 канала Расположение каналов : Front: L R Частота : 48,0 КГц Битовая глубина : 24 бит Метод сжатия : С потерями Размер потока : 1,16 Гбайт (100%)Аудио: Формат : AC-3 Формат/Информация : Audio Coding 3 Расширение режима : CM (complete main) Параметр Endianness формата : Big Продолжительность : 1 ч. 49 м. Вид битрейта : Постоянный Битрейт : 192 Кбит/сек Каналы : 2 канала Расположение каналов : Front: L R Частота : 48,0 КГц Битовая глубина : 16 бит Метод сжатия : С потерями Размер потока : 151 Мбайт (100%)Аудио: Формат : AC-3 Формат/Информация : Audio Coding 3 Профиль формата : Dolby Digital Расширение режима : CM (complete main) Параметр Endianness формата : Big Продолжительность : 1 ч. 49 м. Вид битрейта : Постоянный Битрейт : 192 Кбит/сек Каналы : 2 канала Расположение каналов : Front: L R Частота : 48,0 КГц Битовая глубина : 16 бит Метод сжатия : С потерями Размер потока : 151 Мбайт (100%) 9,23 Gb 3 3
17 мая 2016 13:49 Двойной удар / Double Impact (1991) BDRip-AVC от 0ptimus | D, P, A .torrent   [Информация о файле (нажмите для просмотра)] Перевод: Профессиональный многоголосый, дублированный, авторскийКодек: h.264Качество: BDRip-AVCВидео: 2281 Кбит/с, 1024x554, 23.976 кадр/сЗвук: • №1: Русский (AC3, 2 ch, 192 Кбит/с) Профессиональный многоголосый [R5] • №2: Русский (AC3, 2 ch, 192 Кбит/с) Авторский [Андрей Гаврилов] • №3: Английский (AC3, 2 ch, 192 Кбит/с) Отдельно: • №4: Русский (AC3, 2 ch, 192 Кбит/с) Дублированный [Хлопушка] • №5: Русский (AC3, 6 ch, 384 Кбит/с) Профессиональный многоголосый [ОРТ] • №6: Русский (AC3, 2 ch, 192 Кбит/с) Профессиональный многоголосый [ТНТ] • №7: Украинский (AC3, 2 ch, 192 Кбит/с) Профессиональный многоголосый [2+2]Субтитры: Русские, английскиеВидео: Идентификатор : 1 Формат : AVC Формат/Информация : Advanced Video Codec Профиль формата : [email protected] Параметр CABAC формата : Да Параметр ReFrames формата : 8 кадров Идентификатор кодека : V_MPEG4/ISO/AVC Продолжительность : 1 ч. 49 м. Битрейт : 2281 Кбит/сек Ширина : 1024 пикселя Высота : 554 пикселя Соотношение сторон : 1,85:1 Режим частоты кадров : Постоянный Частота кадров : 23,976 кадра/сек Цветовое пространство : YUV Субдискретизация насыщенности : 4:2:0 Битовая глубина : 8 бит Тип развёртки : Прогрессивная Бит/(Пиксели*Кадры) : 0.168 Размер потока : 1,70 Гбайт (78%) Заголовок : Rip by 0ptimus Библиотека кодирования : x264 core 133 r2334 a3ac64b Настройки программы : cabac=1 / ref=8 / deblock=1:-3:-3 / analyse=0x3:0x113 / me=umh / subme=11 / psy=1 / psy_rd=1.00:0.20 / mixed_ref=1 / me_range=48 / chroma_me=1 / trellis=2 / 8x8dct=1 / cqm=0 / deadzone=21,11 / fast_pskip=0 / chroma_qp_offset=-3 / threads=4 / lookahead_threads=1 / sliced_threads=0 / nr=0 / decimate=0 / interlaced=0 / bluray_compat=0 / constrained_intra=0 / bframes=11 / b_pyramid=2 / b_adapt=2 / b_bias=0 / direct=3 / weightb=1 / open_gop=0 / weightp=2 / keyint=240 / keyint_min=23 / scenecut=40 / intra_refresh=0 / rc_lookahead=40 / rc=2pass / mbtree=0 / bitrate=2281 / ratetol=1.0 / qcomp=0.60 / qpmin=0 / qpmax=69 / qpstep=4 / cplxblur=20.0 / qblur=0.5 / vbv_maxrate=50000 / vbv_bufsize=50000 / nal_hrd=none / ip_ratio=1.40 / pb_ratio=1.30 / aq=1:1.00 Язык : English Default : Да Forced : ДаАудио #1: Идентификатор : 2 Формат : AC-3 Формат/Информация : Audio Coding 3 Расширение режима : CM (complete main) Параметр Endianness формата : Big Идентификатор кодека : A_AC3 Продолжительность : 1 ч. 49 м. Вид битрейта : Постоянный Битрейт : 192 Кбит/сек Каналы : 2 канала Расположение каналов : Front: L R Частота : 48,0 КГц Битовая глубина : 16 бит Метод сжатия : С потерями Размер потока : 151 Мбайт (7%) Заголовок : Многоголосый закадровый [R5] AC3 2.0 @ 192 kbps Язык : Russian Default : Нет Forced : НетАудио #2: Идентификатор : 3 Формат : AC-3 Формат/Информация : Audio Coding 3 Расширение режима : CM (complete main) Параметр Endianness формата : Big Идентификатор кодека : A_AC3 Продолжительность : 1 ч. 49 м. Вид битрейта : Постоянный Битрейт : 192 Кбит/сек Каналы : 2 канала Расположение каналов : Front: L R Частота : 48,0 КГц Битовая глубина : 16 бит Метод сжатия : С потерями Размер потока : 151 Мбайт (7%) Заголовок : Авторский [Андрей Гаврилов] AC3 2.0 @ 192 kbps Язык : Russian Default : Нет Forced : НетАудио #3: Идентификатор : 4 Формат : AC-3 Формат/Информация : Audio Coding 3 Расширение режима : CM (complete main) Параметр Endianness формата : Big Идентификатор кодека : A_AC3 Продолжительность : 1 ч. 49 м. Вид битрейта : Постоянный Битрейт : 192 Кбит/сек Каналы : 2 канала Расположение каналов : Front: L R Частота : 48,0 КГц Битовая глубина : 16 бит Метод сжатия : С потерями Размер потока : 151 Мбайт (7%) Заголовок : AC3 2.0 @ 192 kbps Язык : English Default : Нет Forced : Нет 2,92 Gb 3 3
17 мая 2016 13:49 Двойной удар / Double Impact (1991) HDRip от Assassins Creed | КПК .torrent   [Информация о файле (нажмите для просмотра)] Перевод: Профессиональный (многоголосый закадровый) [ОРТ]Качество: HDRipФормат: MP4Видео: MPEG-4 Visual at 1080 Кбит/сек; 640 x 360 (1.778) at 23.976 fpsАудио: AAC at 128 Кбит/сек; 2 канала, 48,0 КГц 949,37 Mb 3 1
17 мая 2016 13:49 Двойной удар / Double Impact (1991) HDRip .torrent   [Информация о файле (нажмите для просмотра)] Перевод: Профессиональный (многоголосый закадровый)Кодек: x264Качество: HDRip - исх. BDRip 720pВидео: 656x351 (1,86:4), 23,976 fps, ~811 kbps avg, 0.146 bit/pixelЗвук: 48 kHz, MPEG Layer 3, 2 ch, ~128.00 kbps avg 743,67 Mb 3 1
17 мая 2016 13:49 Двойной удар / Double Impact (1991) BDRip от R. G. Jolly Roger .torrent   [Информация о файле (нажмите для просмотра)] Перевод: Профессиональный (многоголосый, закадровый) [OPT]Кодек: XviD, AVIКачество: BDRipВидео: 720x384, 23.976 fps, 1508 kbps avg, 0.227 bit/pixelЗвук: 48 kHz, AC3 Dolby Digital, 3/2 (L,C,R,l,r) + LFE ch, ~384 kbps 1,46 Gb 5 3
17 мая 2016 13:49 Двойной удар / Double Impact (1991) BDRip от HQCLUB .torrent   [Информация о файле (нажмите для просмотра)] Перевод: Профессиональный (многоголосый, закадровый) R5 + Профессиональный (многоголосый, закадровый) ТНТ + Авторский одноголосый А.Гаврилова + Оригинальная звуковая дорожка +Профессиональный (полное дублирование) ХлопушкаСубтитры: Русские, Английские SDH (внешние .srt) (спасибоsociolog_melvas)Формат: AVIКачество: BDRip (источник / Blu-ray / 1080p)Видео: 704x384 (1.83:1), 23.976 fps, XviD build 65 ~2073 kbps avg, 0.32 bit/pixelАудио #1: 48 kHz, AC3 Dolby Digital, 2/0 (L,R), ~192.00 kbps avgАудио #2: 48 kHz, AC3 Dolby Digital, 2/0 (L,R), ~192.00 kbps avgАудио #3: 48 kHz, AC3 Dolby Digital, 2/0 (L,R), ~192.00 kbps avgАудио #4: 48 kHz, AC3 Dolby Digital, 2/0 (L,R), ~192.00 kbps avgАудио #5: 48 kHz, AC3 Dolby Digital, 2/0 (L,R), ~192.00 kbps avg(отдельно Narod.Ru)Аудио #6: 48 kHz, AC3 Dolby Digital, 3/2 (L,C,R,l,r) + LFE ch, ~384.00 kbps avg(отдельно Narod.Ru)Аудио #7: 48 kHz, AC3 Dolby Digital, 2/0 (L,R), ~192.00 kbps avg(отдельно Narod.Ru)Аудио #8: 48 kHz, AC3 Dolby Digital, 2/0 (L,R), ~192.00 kbps avg(отдельно Narod.Ru) 2,18 Gb 7 1
17 мая 2016 13:49 Двойной удар / Double Impact (1991) BDRip 1080p .torrent   [Информация о файле (нажмите для просмотра)] Перевод 1: Профессиональный (Многоголосый закадровый "R5")Перевод 2: Профессиональный (Многоголосый закадровый "ОРТ")Перевод 3: Профессиональный (Многоголосый закадровый "ТНТ")Перевод 4: Профессиональный (Дублированный "Хлопушка")Перевод 5: Профессиональный (Одноголосый закадровый "А.Гаврилов")Кодек: x264Формат: MKVКачество: BDRip 1080p (Источник: Blu-ray "BlueBird")Видео: AVC ([email protected]) 1920x1040 (1.85:1), 23.976 fps, 8240 kbps, 0,172 Bits/(Pixel*Frame)Аудио 1: Dolby Digital (AC-3) 2.0 ch, 384 kbps (Ru) DTS-HDMA 2.0>AC3Аудио 2: Dolby Digital (AC-3) 5.1 ch, 448 kbps (Ru) CopyАудио 3: Dolby Digital (AC-3) 2.0 ch, 192 kbps (Ru) CopyАудио 4: Dolby Digital (AC-3) 2.0 ch, 224 kbps (Ru) CopyАудио 5: Dolby Digital (AC-3) 2.0 ch, 384 kbps (Ru) DTS-HDMA 2.0>AC3Аудио 6: Dolby Digital (AC-3) 2.0 ch, 256 kbps (En) DTS-HDMA 2.0>AC3Субтитры: Русские, Английские 7,75 Gb 3 4
17 мая 2016 13:49 Двойной удар / Double Impact (1991) BDRip 720p .torrent   [Информация о файле (нажмите для просмотра)] Перевод: Дублированный, профессиональный (многоголосый закадровый)Кодек: h.263Качество: BDRip 720pВидео: MPEG4 Video (h364) 1280x696 23.976fps.5 623kbpsЗвук: Audio: Dolby AC3 48000Hz stereo.488kbps [Russian, Дубляж (Audio 1)] Audio: Dolby AC3 48000Hz 6ch.488kbps [Russian, ОРТ (Audio 2)] 4,99 Gb 3 2
17 мая 2016 13:49 Двойной удар / Double Impact (1991) DVDRip .torrent   [Информация о файле (нажмите для просмотра)] Перевод: Профессиональный(многоголосый) + Авторский(Гаврилов) + ОригиналКодек: XviDКачество: DVDRipВидео: 720x400 (1.80:1), 23.976 fps, XviD build 47 ~1393 kbps avg, 0.20 bit/pixelЗвук: Audio #1: 48 kHz, AC3 Dolby Digital, 3/2 (L,C,R,l,r) + LFE ch, ~384 kbps Audio #2: 48 kHz, AC3 Dolby Digital, 3/2 (L,C,R,l,r) + LFE ch, ~384 kbps Audio #3: 48 kHz, AC3 Dolby Digital, 3/2 (L,C,R,l,r) + LFE ch, ~384 kbpsСубтитры: Нет 1,96 Gb 3 3
17 мая 2016 13:49 Двойной удар / Double Impact (1991) DVDRip .torrent   [Информация о файле (нажмите для просмотра)] Перевод: Профессиональный многоголосыйКачество: DVDRipВидео: DivX, 1661 Кбит/с, 640x352Аудио: АС3, 2 ch, 192 Кбит/с 1,36 Gb 3 2

Двойной удар 1991 - скачать бесплатно через торрент в хорошем качестве. Без регистрации

www.kinovit.net

Название: Двойной удар / Double Impact (1991) BDRip | A
Качество видео: BDRip
Перевод: Авторский (одноголосый закадровый) Василий Горчаков
Видео: XviD 704x384 (1.83:1), 23.976 fps, XviD build 50 ~1706 kbps avg, 0.26 bit/pixel
Аудио: AC3 Dolby Digital, 48000Hz, 2/0 (L,R) ch (mono), 192.00 kbps avg
Скачать

Загрузка начнется в течение 5 сек.

1.46 GB

Название: Двойной удар / Double Impact (1991) HDRip от Portablius | P
Качество видео: HDRip
Перевод: Профессиональный (многоголосый, закадровый) Телеканал ТНТ
Видео: XviD 624x336 (1.86:1), 23.976 fps, XviD build 73 ~810 kbps avg, 0.16 bit/pixel
Аудио: 48 kHz, MPEG Layer 3, 2 ch, ~128.00 kbps avg
Скачать

Загрузка начнется в течение 5 сек.

743.73 MB

Название: Двойной удар / Double Impact (1991) HDRip от Scarabey | D
Качество видео: HDRip
Перевод: Профессиональный (полное дублирование)
Видео: 704x384 (1.83:1), 23.976 fps, XviD build 50 ~1656 kbps avg, 0.26 bit/pixel
Аудио: 48 kHz, AC3 Dolby Digital, 2/0 (L,R) ch, ~224.00 kbps avg
Скачать

Загрузка начнется в течение 5 сек.

1.45 GB

Название: Двойной удар / Double Impact (1991) BDRip от HQ-ViDEO | P, A
Качество видео: BDRip (источник: BLUEBIRD / Blu-ray Disc / 1080p)
Перевод: Профессиональный (многоголосый, закадровый) |R5| + Профессиональный (многоголосый, закадровый) |ТНТ| + Авторский (одноголосый, закадровый) |А. Гаврилов| + Оригинал (Английский)
Формат видео: AVI
Видео: XviD, build 73 codec 704 x 384; 23.976 fps; 2057 kbps; 0.317 bit/pixel
Аудио: + Дублированный |Хлопушка|AC3 Dolby Digital; 192 Kbps; 2 channels; 48 KHzAC3 Dolby Digital; 192 Kbps; 2 channels; 48 KHzAC3 Dolby Digital; 192 Kbps; 2 channels; 48 KHzAC3 Dolby Digital; 192 Kbps; 2 channels; 48 KHzAC3 Dolby Digital; 192 Kbps; 2 channels; 48 KHz (DUB) (отдельно)AC3 Dolby Digital; 384 Kbps; 6 channels; 48 KHz (MVO.ORT) (отдельно)AC3 Dolby Digital; 192 Kbps; 2 channels; 48 KHz (VO) (отдельно)AC3 Dolby Digital; 192 Kbps; 2 channels; 48 KHz (UKR.MVO) (отдельно)
Скачать

Загрузка начнется в течение 5 сек.

2.19 GB

Название: Двойной удар / Double Impact (1991) BDRip от ExKinoRay | Яроцкий
Качество видео: BDRip
Перевод: Авторский одноголосый (Яроцкий ака kyberpunk), доступен благодаря будулайроманову
Видео: XviD, 1508 Кбит/с, 720x384
Аудио: АС3, 2 ch, 384 Кбит/с
Скачать

Загрузка начнется в течение 5 сек.

1.46 GB

Название: Двойной удар / Double Impact (1991) BDRip 1080p by msltel | D, P, P1, A
Качество видео: BDRip 1080p Сравнение с исходником
Перевод: дублированный, профессиональный многоголосый, авторский, одноголосый закадровый
Формат видео: MKV
Видео: H.264 1920x1040, 16.5 Mbps, 23.976 кадра/с, 0.344 bpp
Аудио: AC3, DTS русский, AC3, 192 kbps, 2 ch, 48 kHz [авторский, Андрей Гаврилов]английский, DTS, 1509 kbps, 2 ch, 48 kHz [оригинал]
Скачать

Загрузка начнется в течение 5 сек.

17.51 GB

Название: Двойной удар / Double Impact (1991) BDRip 720p by msltel | D, P, P1, A
Качество видео: BDRip 720p Сравнение с исходником
Перевод: дублированный, профессиональный многоголосый, авторский, одноголосый закадровый
Формат видео: MKV
Видео: H.264 1280x696, 7229 kbps, 23.976 кадра/с, 0.338 bpp
Аудио: AC3, DTS русский, DTS, 1509 kbps, 2 ch, 48 kHz [авторский, Андрей Гаврилов]английский, AC3, 192 kbps, 2 ch, 48 kHz [оригинал]
Скачать

Загрузка начнется в течение 5 сек.

9.23 GB

Название: Двойной удар / Double Impact (1991) BDRip-AVC от 0ptimus | D, P, A
Качество видео: BDRip-AVC
Перевод: Профессиональный многоголосый, дублированный, авторский
Видео: h.264 2281 Кбит/с, 1024x554, 23.976 кадр/с
Аудио: • №1: Русский (AC3, 2 ch, 192 Кбит/с) Профессиональный многоголосый [R5]
Скачать

Загрузка начнется в течение 5 сек.

2.92 GB

Название: Двойной удар / Double Impact (1991) HDRip от New-Team | КПК
Качество видео: HDRip
Перевод: Профессиональный (многоголосый закадровый) [ОРТ]
Формат видео: MP4
Видео: XviD MPEG-4 Visual at 1080 Кбит/сек; 640 x 360 (1.778) at 23.976 fps
Аудио: AAC AAC at 128 Кбит/сек; 2 канала, 48,0 КГц
Скачать

Загрузка начнется в течение 5 сек.

949.37 MB

Название: Двойной удар / Double Impact (1991) HDRip
Качество видео: HDRip - исх. BDRip 720p
Перевод: Профессиональный (многоголосый закадровый)
Видео: x264 656x351 (1,86:4), 23,976 fps, ~811 kbps avg, 0.146 bit/pixel
Аудио: 48 kHz, MPEG Layer 3, 2 ch, ~128.00 kbps avg
Скачать

Загрузка начнется в течение 5 сек.

743.67 MB

Название: Двойной удар / Double Impact (1991) BDRip от R. G. Jolly Roger
Качество видео: BDRip
Перевод: Профессиональный (многоголосый, закадровый) [OPT]
Видео: XviD, AVI 720x384, 23.976 fps, 1508 kbps avg, 0.227 bit/pixel
Аудио: 48 kHz, AC3 Dolby Digital, 3/2 (L,C,R,l,r) + LFE ch, ~384 kbps
Скачать

Загрузка начнется в течение 5 сек.

1.46 GB

Название: Двойной удар / Double Impact (1991) Blu-Ray 1080p
Качество видео: Blu-Ray Disc
Перевод: Профессиональный(Многоголосый) x4
Видео: BDMV 1080p / 23,976 fps / 16:9 / High Profile 4.1, H.264, ~ 23993 kbps
Аудио: DTS-HD Master Audio / English / 2084 kbps / 2.0 / 48 kHz / 2084 kbps / 24-bit (DTS Core: 2.0 / 48 kHz / 1509 kbps / 24-bit)
Скачать

Загрузка начнется в течение 5 сек.

26.17 GB

Название: Двойной удар / Double Impact (1991) BDRip от HQCLUB
Качество видео: BDRip (источник: / Blu-ray / 1080p)
Перевод: Профессиональный (многоголосый, закадровый) R5 + Профессиональный (многоголосый, закадровый) ТНТ + Авторский одноголосый А.Гаврилова + Оригинальная звуковая дорожка + Профессиональный (полное дублиров
Формат видео: AVI
Видео: 704x384 (1.83:1), 23.976 fps, XviD build 65 ~2073 kbps avg, 0.32 bit/pixel
Аудио: 48 kHz, AC3 Dolby Digital, 2/0 (L,R), ~192.00 kbps avg48 kHz, AC3 Dolby Digital, 2/0 (L,R), ~192.00 kbps avg48 kHz, AC3 Dolby Digital, 2/0 (L,R), ~192.00 kbps avg48 kHz, AC3 Dolby Digital, 2/0 (L,R), ~192.00 kbps avg48 kHz, AC3 Dolby Digital, 2/0 (L,R), ~192.00 kbps avg (отдельно Narod.Ru)48 kHz, AC3 Dolby Digital, 3/2 (L,C,R,l,r) + LFE ch, ~384.00 kbps avg (отдельно Narod.Ru)48 kHz, AC3 Dolby Digital, 2/0 (L,R), ~192.00 kbps avg (отдельно Narod.Ru)48 kHz, AC3 Dolby Digital, 2/0 (L,R), ~192.00 kbps avg (отдельно Narod.Ru)
Скачать

Загрузка начнется в течение 5 сек.

2.18 GB

Название: Двойной удар / Double Impact (1991) BDRip 1080p
Качество видео: BDRip 1080p (Источник: Blu-ray "BlueBird")
Формат видео: MKV
Видео: x264 AVC ([email protected]) 1920x1040 (1.85:1), 23.976 fps, 8240 kbps, 0,172 Bits/(Pixel*Frame)
Аудио: Dolby Digital (AC-3) 2.0 ch, 384 kbps (Ru) DTS-HDMA 2.0>AC3Dolby Digital (AC-3) 5.1 ch, 448 kbps (Ru) CopyDolby Digital (AC-3) 2.0 ch, 192 kbps (Ru) CopyDolby Digital (AC-3) 2.0 ch, 224 kbps (Ru) CopyDolby Digital (AC-3) 2.0 ch, 384 kbps (Ru) DTS-HDMA 2.0>AC3Dolby Digital (AC-3) 2.0 ch, 256 kbps (En) DTS-HDMA 2.0>AC3
Скачать

Загрузка начнется в течение 5 сек.

7.75 GB

Название: Двойной удар / Double Impact (1991) BDRip 720p от Element team
Качество видео: BDRip 720p
Перевод: профессиональный (многоголосый закадровый)
Видео: h.264 1280x696 23.976fps.2 908kbps,0.128 Bits/(Pixel*Frame)
Аудио: AC3 48000Hz 6ch.448kbps
Скачать

Загрузка начнется в течение 5 сек.

2.49 GB

Название: Двойной удар / Double Impact (1991) BDRip 720p
Качество видео: BDRip 720p
Перевод: Дублированный, профессиональный (многоголосый закадровый)
Видео: h.263 MPEG4 Video (h364) 1280x696 23.976fps.5 623kbps
Аудио: Audio: Dolby AC3 48000Hz stereo.488kbps [Russian, Дубляж (Audio 1)]
Скачать

Загрузка начнется в течение 5 сек.

4.99 GB

Название: Двойной удар / Double Impact (1991) DVDRip-AVC | P, А
Качество видео: DVDRip-AVC
Перевод: Профессиональный(многоголосый, закадровый)
Формат видео: MKV
Видео: H.264 704 x 448, 23.976 fps, 1484 Kbps
Скачать

Загрузка начнется в течение 5 сек.

1.53 GB

Скачать фильм Двойной удар через торрент в хорошем качестве бесплатно 1080p] DUB

frame I:1120 Avg QP:18.56 size:224950frame P:30898 Avg QP:19.34 size:129780frame B:125753 Avg QP:21.39 size: 76557

ОбщееПолное имя : D:VideoDvojnoj udar.1991.BDRip.1080pDvojnoj udar.1991.AVO.rus.А.Гаврилов.ac3Формат : AC-3Формат/Информация : Audio Coding 3Размер файла : 151 МбайтПродолжительность : 1 ч. 49 м.Режим общего битрейта : ПостоянныйОбщий поток : 192 Кбит/сек

АудиоФормат : AC-3Формат/Информация : Audio Coding 3Расширение режима : CM (complete main)Параметр Endianness формата : BigПродолжительность : 1 ч. 49 м.Вид битрейта : ПостоянныйБитрейт : 192 Кбит/секКаналы : 2 каналаРасположение каналов : Front: L RЧастота : 48,0 КГцБитовая глубина : 16 битМетод сжатия : С потерямиРазмер потока : 151 Мбайт (100%)

ОбщееУникальный идентификатор : 212287098026438595582888914614065851088 (0x9FB502050DD61C22801BD05840446AD0)Полное имя : D:VideoDvojnoj udar.1991.BDRip.1080pDvojnoj udar.1991.BDRip.1080p.mkvФормат : MatroskaВерсия формата : Version 4 / Version 2Размер файла : 15,9 ГбайтПродолжительность : 1 ч. 49 м.Общий поток : 20,8 Мбит/секДата кодирования : UTC 2014-10-08 13:07:56Программа кодирования : mkvmerge v6.9.1 ('Blue Panther') 64bit built on Apr 18 2014 18:23:38Библиотека кодирования : libebml v1.3.0 + libmatroska v1.4.1

ВидеоИдентификатор : 1Формат : AVCФормат/Информация : Advanced Video CodecПрофиль формата : [email protected]Параметр CABAC формата : ДаПараметр ReFrames формата : 4 кадраИдентификатор кодека : V_MPEG4/ISO/AVCПродолжительность : 1 ч. 49 м.Битрейт : 16,5 Мбит/секШирина : 1920 пикселейВысота : 1040 пикселейСоотношение сторон : 1,85:1Режим частоты кадров : ПостоянныйЧастота кадров : 23,976 кадра/секЦветовое пространство : YUVСубдискретизация насыщенности : 4:2:0Битовая глубина : 8 битТип развёртки : ПрогрессивнаяБит/(Пиксели*Кадры) : 0.344Размер потока : 12,6 Гбайт (79%)Заголовок : BDRip -- STarankovБиблиотека кодирования : x264 core 142 r2431 ac76440Настройки программы : cabac=1 / ref=4 / deblock=1:-1:-1 / analyse=0x3:0x113 / me=umh / subme=10 / psy=1 / psy_rd=1.00:0.15 / mixed_ref=1 / me_range=32 / chroma_me=1 / trellis=2 / 8x8dct=1 / cqm=0 / deadzone=21,11 / fast_pskip=1 / chroma_qp_offset=-3 / threads=6 / lookahead_threads=1 / sliced_threads=0 / nr=0 / decimate=1 / interlaced=0 / bluray_compat=0 / constrained_intra=0 / bframes=8 / b_pyramid=2 / b_adapt=2 / b_bias=0 / direct=3 / weightb=1 / open_gop=0 / weightp=2 / keyint=230 / keyint_min=23 / scenecut=40 / intra_refresh=0 / rc_lookahead=40 / rc=crf / mbtree=0 / crf=19.6 / qcomp=0.60 / qpmin=0 / qpmax=69 / qpstep=4 / vbv_maxrate=40000 / vbv_bufsize=50000 / crf_max=0.0 / nal_hrd=none / filler=0 / ip_ratio=1.40 / pb_ratio=1.30 / aq=1:1.00Язык : EnglishDefault : ДаForced : Нет

Аудио #1Идентификатор : 2Формат : AC-3Формат/Информация : Audio Coding 3Профиль формата : Dolby DigitalРасширение режима : CM (complete main)Параметр Endianness формата : BigИдентификатор кодека : A_AC3Продолжительность : 1 ч. 49 м.Вид битрейта : ПостоянныйБитрейт : 224 Кбит/секКаналы : 2 каналаРасположение каналов : Front: L RЧастота : 48,0 КГцБитовая глубина : 16 битМетод сжатия : С потерямиРазмер потока : 176 Мбайт (1%)Заголовок : DUB (Хлопушка)Язык : RussianDefault : ДаForced : Нет

Аудио #2Идентификатор : 3Формат : AC-3Формат/Информация : Audio Coding 3Расширение режима : CM (complete main)Параметр Endianness формата : BigИдентификатор кодека : A_AC3Продолжительность : 1 ч. 49 м.Вид битрейта : ПостоянныйБитрейт : 448 Кбит/секКаналы : 6 каналовРасположение каналов : Front: L C R, Side: L R, LFEЧастота : 48,0 КГцБитовая глубина : 16 битМетод сжатия : С потерямиРазмер потока : 351 Мбайт (2%)Заголовок : MVO (OPT)Язык : RussianDefault : НетForced : Нет

Аудио #3Идентификатор : 4Формат : DTSФормат/Информация : Digital Theater SystemsРежим : 16Параметр Endianness формата : BigИдентификатор кодека : A_DTSПродолжительность : 1 ч. 49 м.Вид битрейта : ПостоянныйБитрейт : 1509 Кбит/секКаналы : 2 каналаРасположение каналов : Front: L RЧастота : 48,0 КГцБитовая глубина : 24 битМетод сжатия : С потерямиРазмер потока : 1,16 Гбайт (7%)Заголовок : MVO (R5)Язык : RussianDefault : НетForced : Нет

Аудио #4Идентификатор : 5Формат : AC-3Формат/Информация : Audio Coding 3Профиль формата : Dolby DigitalРасширение режима : CM (complete main)Параметр Endianness формата : BigИдентификатор кодека : A_AC3Продолжительность : 1 ч. 49 м.Вид битрейта : ПостоянныйБитрейт : 192 Кбит/секКаналы : 2 каналаРасположение каналов : Front: L RЧастота : 48,0 КГцБитовая глубина : 16 битМетод сжатия : С потерямиРазмер потока : 151 Мбайт (1%)Заголовок : MVO (THT)Язык : RussianDefault : НетForced : Нет

Аудио #5Идентификатор : 6Формат : DTSФормат/Информация : Digital Theater SystemsРежим : 16Параметр Endianness формата : BigИдентификатор кодека : A_DTSПродолжительность : 1 ч. 49 м.Вид битрейта : ПостоянныйБитрейт : 1509 Кбит/секКаналы : 2 каналаРасположение каналов : Front: L RЧастота : 48,0 КГцБитовая глубина : 24 битМетод сжатия : С потерямиРазмер потока : 1,16 Гбайт (7%)Заголовок : AVO (Андрей Гаврилов)Язык : RussianDefault : НетForced : Нет

Меню00:00:00.000 : :Chapter 0100:03:22.035 : :Chapter 0200:09:45.334 : :Chapter 0300:13:07.161 : :Chapter 0400:21:00.050 : :Chapter 0500:29:03.616 : :Chapter 0600:37:33.251 : :Chapter 0700:42:20.955 : :Chapter 0800:50:04.376 : :Chapter 0900:58:54.656 : :Chapter 1001:07:32.131 : :Chapter 1101:17:58.548 : :Chapter 1201:23:50.066 : :Chapter 1301:28:48.072 : :Chapter 1401:34:14.398 : :Chapter 1501:44:12.621 : :Chapter 1601:49:40.323 : :Chapter 17

ОбщееПолное имя : D:VideoDvojnoj udar.1991.BDRip.1080pDvojnoj udar.1991.eng.SDH.srtФормат : SubRipРазмер файла : 57,4 Кбайт

ТекстФормат : SubRipМетод сжатия : Без потерь

ОбщееПолное имя : D:VideoDvojnoj udar.1991.BDRip.1080pDvojnoj udar.1991.MVO.rus.R5.ac3Формат : AC-3Формат/Информация : Audio Coding 3Размер файла : 151 МбайтПродолжительность : 1 ч. 49 м.Режим общего битрейта : ПостоянныйОбщий поток : 192 Кбит/сек

АудиоФормат : AC-3Формат/Информация : Audio Coding 3Расширение режима : CM (complete main)Параметр Endianness формата : BigПродолжительность : 1 ч. 49 м.Вид битрейта : ПостоянныйБитрейт : 192 Кбит/секКаналы : 2 каналаРасположение каналов : Front: L RЧастота : 48,0 КГцБитовая глубина : 16 битМетод сжатия : С потерямиРазмер потока : 151 Мбайт (100%)

ОбщееПолное имя : D:VideoDvojnoj udar.1991.BDRip.1080pDvojnoj udar.1991.Original.eng.dtsФормат : DTSФормат/Информация : Digital Theater SystemsРазмер файла : 1,16 ГбайтПродолжительность : 1 ч. 49 м.Режим общего битрейта : ПостоянныйОбщий поток : 1509 Кбит/сек

АудиоФормат : DTSФормат/Информация : Digital Theater SystemsРежим : 16Параметр Endianness формата : BigПродолжительность : 1 ч. 49 м.Вид битрейта : ПостоянныйБитрейт : 1509 Кбит/секКаналы : 2 каналаРасположение каналов : Front: L RЧастота : 48,0 КГцБитовая глубина : 24 битМетод сжатия : С потерямиРазмер потока : 1,16 Гбайт (100%)

ОбщееПолное имя : D:VideoDvojnoj udar.1991.BDRip.1080pDvojnoj udar.1991.rus.srtФормат : SubRipРазмер файла : 43,3 Кбайт

ТекстФормат : SubRipМетод сжатия : Без потерь

ОбщееПолное имя : D:VideoDvojnoj udar.1991.BDRip.1080pDvojnoj udar.1991.VO.rus.одноголосый закадровый.ac3Формат : AC-3Формат/Информация : Audio Coding 3Размер файла : 151 МбайтПродолжительность : 1 ч. 49 м.Режим общего битрейта : ПостоянныйОбщий поток : 192 Кбит/сек

АудиоФормат : AC-3Формат/Информация : Audio Coding 3Профиль формата : Dolby DigitalРасширение режима : CM (complete main)Параметр Endianness формата : BigПродолжительность : 1 ч. 49 м.Вид битрейта : ПостоянныйБитрейт : 192 Кбит/секКаналы : 2 каналаРасположение каналов : Front: L RЧастота : 48,0 КГцБитовая глубина : 16 битМетод сжатия : С потерямиРазмер потока : 151 Мбайт (100%)

piratbit.ru

Скачать фильм Двойной удар через торрент в хорошем качестве бесплатно 1080p

GeneralUnique ID : 241822197165073742414888986885214597006 (0xB5ED42D5BB14BB0F92ACAF5C57AA6F8E)Format : MatroskaFormat version : Version 2File size : 7.75 GiBDuration : 1h 49mnOverall bit rate : 10.1 MbpsMovie name : Двойной удар (1991) BDRip (1080p)Encoded date : UTC 2012-11-04 14:57:00Writing application : mkvmerge v5.8.0 ('No Sleep / Pillow') built on Sep 2 2012 15:37:04Writing library : libebml v1.2.3 + libmatroska v1.3.0

VideoID : 1Format : AVCFormat/Info : Advanced Video CodecFormat profile : [email protected] settings, CABAC : YesFormat settings, ReFrames : 4 framesCodec ID : V_MPEG4/ISO/AVCDuration : 1h 49mnBit rate : 8 240 KbpsWidth : 1 920 pixelsHeight : 1 040 pixelsDisplay aspect ratio : 1.85:1Frame rate mode : ConstantFrame rate : 23.976 fpsColor space : YUVChroma subsampling : 4:2:0Bit depth : 8 bitsScan type : ProgressiveBits/(Pixel*Frame) : 0.172Stream size : 6.15 GiB (79%)Title : Release by Alex260680Writing library : x264 core 128 r2216M 198a7eaEncoding settings : cabac=1 / ref=4 / deblock=1:0:0 / analyse=0x3:0x133 / me=umh / subme=11 / psy=1 / psy_rd=1.00:0.10 / mixed_ref=1 / me_range=48 / chroma_me=1 / trellis=2 / 8x8dct=1 / cqm=0 / deadzone=21,11 / fast_pskip=0 / chroma_qp_offset=-3 / threads=12 / lookahead_threads=2 / sliced_threads=0 / nr=0 / decimate=0 / interlaced=0 / bluray_compat=0 / constrained_intra=0 / bframes=5 / b_pyramid=2 / b_adapt=2 / b_bias=0 / direct=3 / weightb=1 / open_gop=0 / weightp=2 / keyint=240 / keyint_min=23 / scenecut=40 / intra_refresh=0 / rc=2pass / mbtree=0 / bitrate=8240 / ratetol=1.0 / qcomp=0.60 / qpmin=0 / qpmax=69 / qpstep=4 / cplxblur=20.0 / qblur=0.5 / ip_ratio=1.40 / pb_ratio=1.30 / aq=1:0.70Language : EnglishDefault : YesForced : No

Audio #1ID : 2Format : AC-3Format/Info : Audio Coding 3Mode extension : CM (complete main)Format settings, Endianness : BigCodec ID : A_AC3Duration : 1h 49mnBit rate mode : ConstantBit rate : 384 KbpsChannel(s) : 2 channelsChannel positions : Front: L RSampling rate : 48.0 KHzBit depth : 16 bitsCompression mode : LossyStream size : 301 MiB (4%)Title : MVO (R5)Language : RussianDefault : YesForced : No

Audio #2ID : 3Format : AC-3Format/Info : Audio Coding 3Mode extension : CM (complete main)Format settings, Endianness : BigCodec ID : A_AC3Duration : 1h 49mnBit rate mode : ConstantBit rate : 448 KbpsChannel(s) : 6 channelsChannel positions : Front: L C R, Side: L R, LFESampling rate : 48.0 KHzBit depth : 16 bitsCompression mode : LossyStream size : 351 MiB (4%)Title : MVO (ОРТ)Language : RussianDefault : NoForced : No

Audio #3ID : 4Format : AC-3Format/Info : Audio Coding 3Format profile : Dolby DigitalMode extension : CM (complete main)Format settings, Endianness : BigCodec ID : A_AC3Duration : 1h 49mnBit rate mode : ConstantBit rate : 192 KbpsChannel(s) : 2 channelsChannel positions : Front: L RSampling rate : 48.0 KHzBit depth : 16 bitsCompression mode : LossyStream size : 151 MiB (2%)Title : MVO (ТНТ)Language : RussianDefault : NoForced : No

Audio #4ID : 5Format : AC-3Format/Info : Audio Coding 3Format profile : Dolby DigitalMode extension : CM (complete main)Format settings, Endianness : BigCodec ID : A_AC3Duration : 1h 49mnBit rate mode : ConstantBit rate : 224 KbpsChannel(s) : 2 channelsChannel positions : Front: L RSampling rate : 48.0 KHzBit depth : 16 bitsCompression mode : LossyStream size : 176 MiB (2%)Title : DUB (Хлопушка)Language : RussianDefault : NoForced : No

Audio #5ID : 6Format : AC-3Format/Info : Audio Coding 3Mode extension : CM (complete main)Format settings, Endianness : BigCodec ID : A_AC3Duration : 1h 49mnBit rate mode : ConstantBit rate : 384 KbpsChannel(s) : 2 channelsChannel positions : Front: L RSampling rate : 48.0 KHzBit depth : 16 bitsCompression mode : LossyStream size : 301 MiB (4%)Title : AVO (А. Гаврилов)Language : RussianDefault : NoForced : No

Audio #6ID : 7Format : AC-3Format/Info : Audio Coding 3Mode extension : CM (complete main)Format settings, Endianness : BigCodec ID : A_AC3Duration : 1h 49mnBit rate mode : ConstantBit rate : 256 KbpsChannel(s) : 2 channelsChannel positions : Front: L RSampling rate : 48.0 KHzBit depth : 16 bitsCompression mode : LossyStream size : 201 MiB (3%)Title : Original (English)Language : EnglishDefault : NoForced : No

Text #1ID : 8Format : UTF-8Codec ID : S_TEXT/UTF8Codec ID/Info : UTF-8 Plain TextLanguage : RussianDefault : NoForced : No

Text #2ID : 9Format : UTF-8Codec ID : S_TEXT/UTF8Codec ID/Info : UTF-8 Plain TextLanguage : EnglishDefault : NoForced : No

Menu00:00:00.000 : en:Chapter100:03:22.035 : en:Chapter200:09:45.334 : en:Chapter300:13:07.161 : en:Chapter400:21:00.050 : en:Chapter500:29:03.616 : en:Chapter600:37:33.251 : en:Chapter700:42:20.955 : en:Chapter800:50:04.376 : en:Chapter900:58:54.656 : en:Chapter1001:07:32.131 : en:Chapter1101:17:58.548 : en:Chapter1201:23:50.066 : en:Chapter1301:28:48.072 : en:Chapter1401:34:14.398 : en:Chapter1501:44:12.621 : en:Chapter1601:49:40.323 : en:Chapter17

piratbit.ru

Скачать фильм Двойной удар через торрент в хорошем качестве бесплатно 720p] DUB

frame I:1461 Avg QP:18.43 size:125646frame P:31741 Avg QP:19.34 size: 61648frame B:124569 Avg QP:21.24 size: 31671

ОбщееПолное имя : D:VideoDvojnoj udar.1991.BDRip.720pDvojnoj udar.1991.AVO.rus.А.Гаврилов.dtsФормат : DTSФормат/Информация : Digital Theater SystemsРазмер файла : 1,16 ГбайтПродолжительность : 1 ч. 49 м.Режим общего битрейта : ПостоянныйОбщий поток : 1509 Кбит/сек

АудиоФормат : DTSФормат/Информация : Digital Theater SystemsРежим : 16Параметр Endianness формата : BigПродолжительность : 1 ч. 49 м.Вид битрейта : ПостоянныйБитрейт : 1509 Кбит/секКаналы : 2 каналаРасположение каналов : Front: L RЧастота : 48,0 КГцБитовая глубина : 24 битМетод сжатия : С потерямиРазмер потока : 1,16 Гбайт

ОбщееУникальный идентификатор : 234980805579814524165612723975089668327 (0xB0C7A82FFCF2E1A9A847F5DDF989C0E7)Полное имя : D:VideoDvojnoj udar.1991.BDRip.720pDvojnoj udar.1991.BDRip.720p.mkvФормат : MatroskaВерсия формата : Version 4 / Version 2Размер файла : 6,63 ГбайтПродолжительность : 1 ч. 49 м.Общий поток : 8649 Кбит/секДата кодирования : UTC 2014-10-06 17:38:45Программа кодирования : mkvmerge v6.9.1 ('Blue Panther') 64bit built on Apr 18 2014 18:23:38Библиотека кодирования : libebml v1.3.0 + libmatroska v1.4.1

ВидеоИдентификатор : 1Формат : AVCФормат/Информация : Advanced Video CodecПрофиль формата : [email protected]Параметр CABAC формата : ДаПараметр ReFrames формата : 9 кадровИдентификатор кодека : V_MPEG4/ISO/AVCПродолжительность : 1 ч. 49 м.Битрейт : 7229 Кбит/секШирина : 1280 пикселейВысота : 696 пикселейСоотношение сторон : 1,85:1Режим частоты кадров : ПостоянныйЧастота кадров : 23,976 кадра/секЦветовое пространство : YUVСубдискретизация насыщенности : 4:2:0Битовая глубина : 8 битТип развёртки : ПрогрессивнаяБит/(Пиксели*Кадры) : 0.338Размер потока : 5,54 Гбайт (84%)Заголовок : BDRip -- STarankovБиблиотека кодирования : x264 core 142 r2431 ac76440Настройки программы : cabac=1 / ref=9 / deblock=1:-1:-1 / analyse=0x3:0x113 / me=umh / subme=10 / psy=1 / psy_rd=1.00:0.15 / mixed_ref=1 / me_range=32 / chroma_me=1 / trellis=2 / 8x8dct=1 / cqm=0 / deadzone=21,11 / fast_pskip=1 / chroma_qp_offset=-3 / threads=6 / lookahead_threads=1 / sliced_threads=0 / nr=0 / decimate=1 / interlaced=0 / bluray_compat=0 / constrained_intra=0 / bframes=8 / b_pyramid=2 / b_adapt=2 / b_bias=0 / direct=3 / weightb=1 / open_gop=0 / weightp=2 / keyint=230 / keyint_min=23 / scenecut=40 / intra_refresh=0 / rc_lookahead=40 / rc=crf / mbtree=0 / crf=19.3 / qcomp=0.60 / qpmin=0 / qpmax=69 / qpstep=4 / vbv_maxrate=40000 / vbv_bufsize=50000 / crf_max=0.0 / nal_hrd=none / filler=0 / ip_ratio=1.40 / pb_ratio=1.30 / aq=1:1.00Язык : EnglishDefault : ДаForced : Нет

Аудио #1Идентификатор : 2Формат : AC-3Формат/Информация : Audio Coding 3Профиль формата : Dolby DigitalРасширение режима : CM (complete main)Параметр Endianness формата : BigИдентификатор кодека : A_AC3Продолжительность : 1 ч. 49 м.Вид битрейта : ПостоянныйБитрейт : 224 Кбит/секКаналы : 2 каналаРасположение каналов : Front: L RЧастота : 48,0 КГцБитовая глубина : 16 битМетод сжатия : С потерямиРазмер потока : 176 Мбайт (3%)Заголовок : DUB (Хлопушка)Язык : RussianDefault : ДаForced : Нет

Аудио #2Идентификатор : 3Формат : AC-3Формат/Информация : Audio Coding 3Расширение режима : CM (complete main)Параметр Endianness формата : BigИдентификатор кодека : A_AC3Продолжительность : 1 ч. 49 м.Вид битрейта : ПостоянныйБитрейт : 448 Кбит/секКаналы : 6 каналовРасположение каналов : Front: L C R, Side: L R, LFEЧастота : 48,0 КГцБитовая глубина : 16 битМетод сжатия : С потерямиРазмер потока : 351 Мбайт (5%)Заголовок : MVO (OPT)Язык : RussianDefault : НетForced : Нет

Аудио #3Идентификатор : 4Формат : AC-3Формат/Информация : Audio Coding 3Расширение режима : CM (complete main)Параметр Endianness формата : BigИдентификатор кодека : A_AC3Продолжительность : 1 ч. 49 м.Вид битрейта : ПостоянныйБитрейт : 192 Кбит/секКаналы : 2 каналаРасположение каналов : Front: L RЧастота : 48,0 КГцБитовая глубина : 16 битМетод сжатия : С потерямиРазмер потока : 151 Мбайт (2%)Заголовок : MVO (R5)Язык : RussianDefault : НетForced : Нет

Аудио #4Идентификатор : 5Формат : AC-3Формат/Информация : Audio Coding 3Профиль формата : Dolby DigitalРасширение режима : CM (complete main)Параметр Endianness формата : BigИдентификатор кодека : A_AC3Продолжительность : 1 ч. 49 м.Вид битрейта : ПостоянныйБитрейт : 192 Кбит/секКаналы : 2 каналаРасположение каналов : Front: L RЧастота : 48,0 КГцБитовая глубина : 16 битМетод сжатия : С потерямиРазмер потока : 151 Мбайт (2%)Заголовок : MVO (THT)Язык : RussianDefault : НетForced : Нет

Аудио #5Идентификатор : 6Формат : AC-3Формат/Информация : Audio Coding 3Расширение режима : CM (complete main)Параметр Endianness формата : BigИдентификатор кодека : A_AC3Продолжительность : 1 ч. 49 м.Вид битрейта : ПостоянныйБитрейт : 192 Кбит/секКаналы : 2 каналаРасположение каналов : Front: L RЧастота : 48,0 КГцБитовая глубина : 16 битМетод сжатия : С потерямиРазмер потока : 151 Мбайт (2%)Заголовок : AVO (Андрей Гаврилов)Язык : RussianDefault : НетForced : Нет

Меню00:00:00.000 : :Chapter 0100:03:22.035 : :Chapter 0200:09:45.334 : :Chapter 0300:13:07.161 : :Chapter 0400:21:00.050 : :Chapter 0500:29:03.616 : :Chapter 0600:37:33.251 : :Chapter 0700:42:20.955 : :Chapter 0800:50:04.376 : :Chapter 0900:58:54.656 : :Chapter 1001:07:32.131 : :Chapter 1101:17:58.548 : :Chapter 1201:23:50.066 : :Chapter 1301:28:48.072 : :Chapter 1401:34:14.398 : :Chapter 1501:44:12.621 : :Chapter 1601:49:40.323 : :Chapter 17

ОбщееПолное имя : D:VideoDvojnoj udar.1991.BDRip.720pDvojnoj udar.1991.eng.SDH.srtФормат : SubRipРазмер файла : 57,4 Кбайт

ТекстФормат : SubRipМетод сжатия : Без потерь

ОбщееПолное имя : D:VideoDvojnoj udar.1991.BDRip.720pDvojnoj udar.1991.MVO.rus.R5.dtsФормат : DTSФормат/Информация : Digital Theater SystemsРазмер файла : 1,16 ГбайтПродолжительность : 1 ч. 49 м.Режим общего битрейта : ПостоянныйОбщий поток : 1509 Кбит/сек

АудиоФормат : DTSФормат/Информация : Digital Theater SystemsРежим : 16Параметр Endianness формата : BigПродолжительность : 1 ч. 49 м.Вид битрейта : ПостоянныйБитрейт : 1509 Кбит/секКаналы : 2 каналаРасположение каналов : Front: L RЧастота : 48,0 КГцБитовая глубина : 24 битМетод сжатия : С потерямиРазмер потока : 1,16 Гбайт (100%)

ОбщееПолное имя : D:VideoDvojnoj udar.1991.BDRip.720pDvojnoj udar.1991.Original.eng.ac3Формат : AC-3Формат/Информация : Audio Coding 3Размер файла : 151 МбайтПродолжительность : 1 ч. 49 м.Режим общего битрейта : ПостоянныйОбщий поток : 192 Кбит/сек

АудиоФормат : AC-3Формат/Информация : Audio Coding 3Расширение режима : CM (complete main)Параметр Endianness формата : BigПродолжительность : 1 ч. 49 м.Вид битрейта : ПостоянныйБитрейт : 192 Кбит/секКаналы : 2 каналаРасположение каналов : Front: L RЧастота : 48,0 КГцБитовая глубина : 16 битМетод сжатия : С потерямиРазмер потока : 151 Мбайт (100%)

ОбщееПолное имя : D:VideoDvojnoj udar.1991.BDRip.720pDvojnoj udar.1991.rus.srtФормат : SubRipРазмер файла : 43,3 Кбайт

ТекстФормат : SubRipМетод сжатия : Без потерь

ОбщееПолное имя : D:VideoDvojnoj udar.1991.BDRip.720pDvojnoj udar.1991.VO.rus.одноголосый закадровый.ac3Формат : AC-3Формат/Информация : Audio Coding 3Размер файла : 151 МбайтПродолжительность : 1 ч. 49 м.Режим общего битрейта : ПостоянныйОбщий поток : 192 Кбит/сек

АудиоФормат : AC-3Формат/Информация : Audio Coding 3Профиль формата : Dolby DigitalРасширение режима : CM (complete main)Параметр Endianness формата : BigПродолжительность : 1 ч. 49 м.Вид битрейта : ПостоянныйБитрейт : 192 Кбит/секКаналы : 2 каналаРасположение каналов : Front: L RЧастота : 48,0 КГцБитовая глубина : 16 битМетод сжатия : С потерямиРазмер потока : 151 Мбайт (100%)

piratbit.ru

Скачать фильм Двойной удар через торрент в хорошем качестве бесплатно 1080p

ОбщееУникальный идентификатор : 188274517879198547698132966385174295576 (0x8DA45A69AAF16A65B9F4634C7FE9B418)Полное имя : D:DVDDouble.Impact.1991.1080p.BluRay.x264.mkvФормат : MatroskaВерсия формата : Version 2Размер файла : 7,67 ГбайтПродолжительность : 1 ч. 49 м.Общий поток : 10,0 Мбит/секНазвание фильма : Double.Impact.1991.1080p.BluRay.x264Дата кодирования : UTC 2013-02-12 11:31:31Программа кодирования : mkvmerge v3.4.0 ('Rapunzel') сборка от May 15 2010 09:38:20Библиотека кодирования : libebml v0.8.0 + libmatroska v0.9.0

ВидеоИдентификатор : 1Формат : AVCФормат/Информация : Advanced Video CodecПрофиль формата : [email protected]Параметр CABAC формата : ДаПараметр ReFrames формата : 4 кадраИдентификатор кодека : V_MPEG4/ISO/AVCПродолжительность : 1 ч. 49 м.Битрейт : 8861 Кбит/секШирина : 1920 пикселейВысота : 1040 пикселейСоотношение сторон : 1,85:1Режим частоты кадров : ПостоянныйЧастота кадров : 23,976 кадра/секЦветовое пространство : YUVСубдискретизация насыщенности : 4:2:0Битовая глубина : 8 битТип развёртки : ПрогрессивнаяБит/(Пиксели*Кадры) : 0.185Размер потока : 6,63 Гбайт (86%)Заголовок : Double.Impact.1991.1080p.BluRay.x264.mkvБиблиотека кодирования : x264 core 128 r2216 198a7eaНастройки программы : cabac=1 / ref=4 / deblock=1:0:0 / analyse=0x3:0x113 / me=umh / subme=8 / psy=1 / psy_rd=1.00:0.00 / mixed_ref=1 / me_range=16 / chroma_me=1 / trellis=1 / 8x8dct=1 / cqm=0 / deadzone=21,11 / fast_pskip=1 / chroma_qp_offset=-2 / threads=12 / lookahead_threads=2 / sliced_threads=0 / nr=0 / decimate=1 / interlaced=0 / bluray_compat=0 / constrained_intra=0 / bframes=3 / b_pyramid=2 / b_adapt=2 / b_bias=0 / direct=3 / weightb=1 / open_gop=0 / weightp=2 / keyint=240 / keyint_min=24 / scenecut=40 / intra_refresh=0 / rc_lookahead=50 / rc=2pass / mbtree=1 / bitrate=8861 / ratetol=1.0 / qcomp=0.60 / qpmin=0 / qpmax=69 / qpstep=4 / cplxblur=20.0 / qblur=0.5 / ip_ratio=1.40 / aq=1:1.00Язык : EnglishDefault : НетForced : Нет

Аудио #1Идентификатор : 2Формат : AC-3Формат/Информация : Audio Coding 3Расширение режима : CM (complete main)Параметр Endianness формата : BigИдентификатор кодека : A_AC3Продолжительность : 1 ч. 49 м.Вид битрейта : ПостоянныйБитрейт : 384 Кбит/секКаналы : 6 каналовРасположение каналов : Front: L C R, Side: L R, LFEЧастота : 48,0 КГцБитовая глубина : 16 битМетод сжатия : С потерямиЗадержка видео : 6 с. 0 мс.Размер потока : 301 Мбайт (4%)Заголовок : MVOЯзык : RussianDefault : ДаForced : Да

Аудио #2Идентификатор : 3Формат : AC-3Формат/Информация : Audio Coding 3Расширение режима : CM (complete main)Параметр Endianness формата : BigИдентификатор кодека : A_AC3Продолжительность : 1 ч. 49 м.Вид битрейта : ПостоянныйБитрейт : 384 Кбит/секКаналы : 6 каналовРасположение каналов : Front: L C R, Side: L R, LFEЧастота : 48,0 КГцБитовая глубина : 16 битМетод сжатия : С потерямиЗадержка видео : 6 с. 0 мс.Размер потока : 301 Мбайт (4%)Заголовок : AVO (Гаврилов)Язык : RussianDefault : НетForced : Нет

Аудио #3Идентификатор : 4Формат : AC-3Формат/Информация : Audio Coding 3Расширение режима : CM (complete main)Параметр Endianness формата : BigИдентификатор кодека : A_AC3Продолжительность : 1 ч. 49 м.Вид битрейта : ПостоянныйБитрейт : 384 Кбит/секКаналы : 6 каналовРасположение каналов : Front: L C R, Side: L R, LFEЧастота : 48,0 КГцБитовая глубина : 16 битМетод сжатия : С потерямиЗадержка видео : 6 с. 0 мс.Размер потока : 301 Мбайт (4%)Язык : EnglishDefault : НетForced : Нет

Текст #1Идентификатор : 5Формат : UTF-8Идентификатор кодека : S_TEXT/UTF8Идентификатор кодека/Информация : UTF-8 Plain TextЯзык : RussianDefault : НетForced : Нет

Текст #2Идентификатор : 6Формат : UTF-8Идентификатор кодека : S_TEXT/UTF8Идентификатор кодека/Информация : UTF-8 Plain TextЯзык : EnglishDefault : НетForced : Нет

Меню00:00:00.000 : en:00:00:00.00000:03:22.035 : en:00:03:22.03500:09:45.335 : en:00:09:45.33500:13:07.161 : en:00:13:07.16100:21:00.050 : en:00:21:00.05000:29:03.617 : en:00:29:03.61700:37:33.251 : en:00:37:33.25100:42:20.955 : en:00:42:20.95500:50:04.376 : en:00:50:04.37600:58:54.656 : en:00:58:54.65601:07:32.131 : en:01:07:32.13101:17:58.549 : en:01:17:58.54901:23:50.067 : en:01:23:50.06701:28:48.073 : en:01:28:48.07301:34:14.399 : en:01:34:14.39901:44:12.621 : en:01:44:12.621

piratbit.ru


Смотрите также