Скачать торрент большой и добрый великан в хорошем качестве


Большой и добрый великан через торрент

piratbit.ru

Размер: 1.38 GB | Добавлен: 1 год назад | Торрент скачан:459 раз
Реклама Дарим 3000 рублей за регистрацию, не упусти свой шанс получить шикарный бонус!!!

25-10-2016 16:59 Большой и добрый великан Скачать торрент  

Большой и добрый великан / The BFG Год выпуска: 2016Страна: Великобритания, Канада, СШАЖанр: фэнтези, приключения, семейный

Продолжительность: 01:58:04Перевод: Дубляж - [Чистый звук]Примечание: Релиз без рекламы

Режиссер: Стивен СпилбергВ ролях: Марк Райлэнс (BFG), Руби Барнхилл (Sophie), Пенелопа Уилтон (The Queen), Джемейн Клемент (Fleshlumpeater), Ребекка Холл (Mary), Рейф Сполл (Mr. Tibbs), Билл Хейдер (Bloodbottler), Оулавюр Дарри Оулафссон (Maidmasher / Cook), Адам Годли (Manhugger / Lout #1), Майкл Адамуэйт (Butcher Boy / Danish Driver), Дэниэл Бэйкон (Bonecruncher / Lout #2), Джонатан Холмс (Childchewer / Pub Landlord)Описание: В центре истории девочка по имени Софи, которая не смогла заснуть до полуночи и в окошко увидела огромного великана, который подходил к соседним домам и начинал дуть в окна спален. В полном соответствии со старинными поверьями и детскими страшилками, великан увидел Софи и унес к себе домой, в страну великанов.Рейтинг: MPAA: PG - Рекомендуется присутствие родителейКачество: WEB-DLRipФормат: AVIВидео: XviD, 720x304 (2.35:1), 1276 kbps, 23,976 fps, 0,243 bppАудио: AC3 / 2.0 / 48 kHz / 384 kbps / GeneralComplete name : E:\The.BFG.2016.D.Line.WEB-DLRip.aviFormat : AVIFormat/Info : Audio Video InterleaveFile size : 1.38 GiBDuration : 1 h 58 minOverall bit rate : 1 669 kb/sMovie name : Rustorrents.infoWriting application : VirtualDubMod 1.5.10.3 | www.virtualdub-fr.org || (build 2550/release)

VideoID : 0Format : MPEG-4 VisualFormat profile : Advanced [email protected] settings, BVOP : 2Format settings, QPel : NoFormat settings, GMC : No warppointsFormat settings, Matrix : CustomCodec ID : XVIDCodec ID/Hint : XviDDuration : 1 h 58 minBit rate : 1 277 kb/sWidth : 720 pixelsHeight : 304 pixelsDisplay aspect ratio : 2.35:1Frame rate : 23.976 (23976/1000) FPSColor space : YUVChroma subsampling : 4:2:0Bit depth : 8 bitsScan type : ProgressiveCompression mode : LossyBits/(Pixel*Frame) : 0.243Stream size : 1.05 GiB (77%)Writing library : XviD 1.2.1 (UTC 2008-12-04)

AudioID : 1Format : AC-3Format/Info : Audio Coding 3Mode extension : CM (complete main)Format settings, Endianness : BigCodec ID : 2000Duration : 1 h 57 minBit rate mode : ConstantBit rate : 384 kb/sChannel(s) : 2 channelsChannel positions : Front: L RSampling rate : 48.0 kHzFrame rate : 31.250 FPS (1536 spf)Compression mode : LossyStream size : 323 MiB (23%)Alignment : Split accross interleavesInterleave, duration : 42 ms (1.00 video frame)Interleave, preload duration : 500 ms

!-Lexx- писал(а):

Качество звука плохое, для оценки рекомендую скачивать сэмпл: http://sendfile.su/1277475

Скачать Большой и добрый великан через торрент http://i5.imageban.ru/out/2016/10/25/722d1e33ba347a6aa163f597b6a111a2.png Скачать фильм Большой и добрый великан через торрент бесплантно в хорошем качестве Описание: В центре истории девочка по имени Софи, которая не смогла заснуть до полуночи и в окошко увидела огромного великана, который ... 2016-10-25 16:59 9.9 10 16

Loading...

Loading...

% Раздел Тема Автор DL S | L
Фильмы [HD 720p, 1080p] (Хороший звук DUB, MVO) [ 11.31 GB ] Большой и добрый великан / The BFG [2016 BDRip 1080p] - sheker187 Скачать
3D Фильмы [ 11.64 GB ] Большой и добрый великан в 3Д / The BFG 3D [2016 BDrip 1080p] OverUnder / Вертикальная стереопара serega768 Скачать
Фильмы 2016 [DVDrip, WEB-DLRip, HDrip] (DUB, MVO) [ 2.18 GB ] Большой и добрый великан / The BFG [2016 BDRip] - [] Twi7ter Скачать
Фильмы 2016 [DVDrip, WEB-DLRip, HDrip] (DUB, MVO) [ 1.46 GB ] Большой и добрый великан / The BFG [2016 BDRip] - [] Twi7ter Скачать
R.G.Resident - Фильмы, Видео [ 3.03 GB ] Большой и добрый великан / The BFG [2016 BDRip-AVC] - R.G.Resident schultz Скачать
Фильмы 2016 [DVDrip, WEB-DLRip, HDrip] (DUB, MVO) [ 2.13 GB ] Большой и добрый великан / The BFG [2016 BDRip] - Twi7ter Скачать
R.G.Resident - Фильмы, Видео [ 4.28 GB ] Большой и добрый великан / The BFG [2016 BDRip 720p] - R.G.Resident schultz Скачать

Рекламный пират

25-10-2016 17:09 Большой и добрый великан Скачать торрент  

А с Думом этот фильм никак не связан?)))

25-10-2016 18:00 Большой и добрый великан Скачать торрент  

с дымом разве что

25-10-2016 18:17 Большой и добрый великан Скачать торрент  

Тут не Line а

Цитата:

Чищенный звук с TS

25-10-2016 18:19 Большой и добрый великан Скачать торрент  

killermax2013, согласен. Потому и написал в комментарии к раздаче, что качество звука плохое, и порекомендовал скачивать сэмпл.

25-10-2016 18:37 Большой и добрый великан Скачать торрент  

-Lexx- писал(а):

killermax2013, согласен. Потому и написал в комментарии к раздаче, что качество звука плохое, и порекомендовал скачивать сэмпл.

Есть уже чистый от кошарников но с рекламой и сутки еще раздавать будут

25-10-2016 18:56 Большой и добрый великан Скачать торрент  

killermax2013, видел, ну, не сутки, они уже почти раздали...Кстати, звук у Кошары тоже с шумами. Хотя немного получше чем здесь. Но, с рекламой. Даже не знаю, наверное я перезаливать торрент уже не буду. Может кто другой зальет.

Дорогой пользователь! Огромная просьба, поблагодарите релизера, оцените раздачу и оставьте свои комментарий, если Вы скачали Большой и добрый великан через торрент бесплатно! Внесите свою лепту в развитие PiratBit!

Комментировать посты могут только пользователи прошедшие не сложную регистрацию

Большой и добрый великан через торрент Скачать бесплатно Большой и добрый великан Большой и добрый великан скачать торрент Большой и добрый великан смотреть онлайн Cкачать фильм Большой и добрый великан бесплатно Большой и добрый великан скачать торрент в хорошем качестве Большой и добрый великан смотреть онлайн бесплатно в хорошем качестве

Вы можете начинать темыВы можете отвечать на сообщенияВы не можете редактировать свои сообщенияВы не можете удалять свои сообщенияВы не можете голосовать в опросахВы не можете прикреплять файлы к сообщениямВы можете скачивать файлы

Большой и добрый великан через торрент

piratbit.ru

Раздают: 4 [ 0 KB/s ]
Размер: 1.46 GB | Добавлен: 11 мес. назад | Торрент скачан:828 раз
Реклама Дарим 3000 рублей за регистрацию, не упусти свой шанс получить шикарный бонус!!!

17-11-2016 15:26 Большой и добрый великан Скачать торрент  

Большой и добрый великан / The BFG«Если твой друг великан, тебя ждут великие дела»

Год выпуска: 2016Страна: Великобритания, Канада, США / Amblin Entertainment, DreamWorks SKG, Reliance Entertainment, The Kennedy/Marshall Company, Walden Media, Walt Disney PicturesЖанр: Фэнтези, приключения, семейныйПродолжительность: 01:57:06Перевод: Профессиональный (дублированный) LineCубтитры: нет

Режиссер: Стивен Спилберг / Steven Spielberg

В ролях: Марк Райлэнс, Руби Барнхилл, Пенелопа Уилтон, Джемейн Клемент, Ребекка Холл, Рейф Сполл, Билл Хейдер, Оулавюр Дарри Оулафссон, Адам Годли, Майкл Адамуэйт...

Описание: В центре истории девочка по имени Софи, которая не смогла заснуть до полуночи и в окошко увидела огромного великана, который подходил к соседним домам и начинал дуть в окна спален. В полном соответствии со старинными поверьями и детскими страшилками, великан увидел Софи и унес к себе домой, в страну великанов.Как оказалось, он в этой самой стране был единственным добрым великаном: действуя в обстановке строжайшей секретности, он коллекционировал хорошие сны, которые по ночам раздавал детям. Уши у него устроены таким образом, что он слышит, что и о чем снится ребятам, и никогда не позволяет им видеть кошмары.

Сэмпл: http://sendfile.su/1283342

Качество видео: HDRipФормат видео: AVIВидео кодек: XviDАудио кодек: АС3Видео: 720x304 (2.37:1), 23.976 fps, XviD build 73 ~1587 kbps avg, 0.30 bit/pixelАудио: 48 kHz, AC3 Dolby Digital, 2/0 (L,R) ch, ~192 kbps

ОбщееПолное имя : G:\Bol'shoj.i.dobryj.velikan.2016.НDRip.1400.[Один 777].aviФормат : AVIФормат/Информация : Audio Video InterleaveРазмер файла : 1,46 ГбайтПродолжительность : 1 ч. 57 м.Общий поток : 1789 Кбит/секПрограмма кодирования : VirtualDubMod 1.5.10.3 | www.virtualdub-fr.org || (build 2550/release)Библиотека кодирования : VirtualDubMod build 2550/release

ВидеоИдентификатор : 0Формат : MPEG-4 VisualПрофиль формата : Advanced [email protected]Параметр BVOP формата : 1Параметр QPel формата : НетПараметр GMC формата : Без точки переходаПараметр матрицы формата : Default (H.263)Идентификатор кодека : XVIDИдентификатор кодека/Подсказка : XviDПродолжительность : 1 ч. 57 м.Битрейт : 1587 Кбит/секШирина : 720 пикселейВысота : 304 пикселяСоотношение сторон : 2,35:1Частота кадров : 23,976 (23976/1000) кадра/секЦветовое пространство : YUVСубдискретизация насыщенности : 4:2:0Битовая глубина : 8 битТип развёртки : ПрогрессивнаяМетод сжатия : С потерямиБит/(Пиксели*Кадры) : 0.303Размер потока : 1,30 Гбайт (89%)Библиотека кодирования : XviD 73

АудиоИдентификатор : 1Формат : AC-3Формат/Информация : Audio Coding 3Расширение режима : CM (complete main)Параметр Endianness формата : BigИдентификатор кодека : 2000Продолжительность : 1 ч. 57 м.Вид битрейта : ПостоянныйБитрейт : 192 Кбит/секКаналы : 2 каналаРасположение каналов : Front: L RЧастота : 48,0 КГцЧастота кадров : 31,250 кадров/сек (1536 spf)Метод сжатия : С потерямиРазмер потока : 161 Мбайт (11%)Выравнивание : Разделение по промежуткамПродолжительность промежутка : 42 мс. (1,00 видеокадр)Время предзагрузки промежутка : 500 мс.

Скачать Большой и добрый великан через торрент http://i2.imageban.ru/out/2016/11/17/5064fef74ec128ee0093a44971c0a134.jpg Скачать фильм Большой и добрый великан через торрент бесплантно в хорошем качестве Описание: В центре истории девочка по имени Софи, которая не смогла заснуть до полуночи и в окошко увидела огромного великана, который ... 2016-11-17 15:26 9.2 10 18

Loading...

Loading...

% Раздел Тема Автор DL S | L
Фильмы [HD 720p, 1080p] (Хороший звук DUB, MVO) [ 11.31 GB ] Большой и добрый великан / The BFG [2016 BDRip 1080p] - sheker187 Скачать
3D Фильмы [ 11.64 GB ] Большой и добрый великан в 3Д / The BFG 3D [2016 BDrip 1080p] OverUnder / Вертикальная стереопара serega768 Скачать
Фильмы 2016 [DVDrip, WEB-DLRip, HDrip] (DUB, MVO) [ 2.18 GB ] Большой и добрый великан / The BFG [2016 BDRip] - [] Twi7ter Скачать
Фильмы 2016 [DVDrip, WEB-DLRip, HDrip] (DUB, MVO) [ 1.46 GB ] Большой и добрый великан / The BFG [2016 BDRip] - [] Twi7ter Скачать
R.G.Resident - Фильмы, Видео [ 3.03 GB ] Большой и добрый великан / The BFG [2016 BDRip-AVC] - R.G.Resident schultz Скачать
Фильмы 2016 [DVDrip, WEB-DLRip, HDrip] (DUB, MVO) [ 2.13 GB ] Большой и добрый великан / The BFG [2016 BDRip] - Twi7ter Скачать
R.G.Resident - Фильмы, Видео [ 4.28 GB ] Большой и добрый великан / The BFG [2016 BDRip 720p] - R.G.Resident schultz Скачать

Последний раз редактировалось: Один 777 (2016-11-17 16:49), всего редактировалось 1 раз

Рекламный пират

28-11-2016 21:03 Большой и добрый великан Скачать торрент  

Фильм понравился.И особая благодарность за то,что нет дурацкой рекламы.

Дорогой пользователь! Огромная просьба, поблагодарите релизера, оцените раздачу и оставьте свои комментарий, если Вы скачали Большой и добрый великан через торрент бесплатно! Внесите свою лепту в развитие PiratBit!

Комментировать посты могут только пользователи прошедшие не сложную регистрацию

Большой и добрый великан через торрент Скачать бесплатно Большой и добрый великан Большой и добрый великан скачать торрент Большой и добрый великан смотреть онлайн Cкачать фильм Большой и добрый великан бесплатно Большой и добрый великан скачать торрент в хорошем качестве Большой и добрый великан смотреть онлайн бесплатно в хорошем качестве

Вы можете начинать темыВы можете отвечать на сообщенияВы не можете редактировать свои сообщенияВы не можете удалять свои сообщенияВы не можете голосовать в опросахВы не можете прикреплять файлы к сообщениямВы можете скачивать файлы

Большой и добрый великан через торрент

General

Unique ID : 231444262498512340079773211750544661205 (0xAE1E8B26C3BB2B3D9863687CB3BB5AD5)

Complete name : G:VideoThe.BFG.2016.D.BDREMUX.1080p.ExKinoRay.mkv

Format : Matroska

Format version : Version 4 / Version 2

File size : 25.2 GiB

Duration : 1 h 57 min

Overall bit rate mode : Variable

Overall bit rate : 30.8 Mb/s

Movie name : The.BFG.2016. build by ***селезень***

Encoded date : UTC 2016-12-05 20:34:17

Writing application : mkvmerge v8.3.0 ('Over the Horizon') 64bit

Writing library : libebml v1.3.1 + libmatroska v1.4.2

Video

ID : 1

Format : AVC

Format/Info : Advanced Video Codec

Format profile : [email protected]

Format settings, CABAC : Yes

Format settings, ReFrames : 4 frames

Codec ID : V_MPEG4/ISO/AVC

Duration : 1 h 57 min

Bit rate mode : Variable

Bit rate : 25.8 Mb/s

Maximum bit rate : 28.0 Mb/s

Width : 1 920 pixels

Height : 1 080 pixels

Display aspect ratio : 16:9

Frame rate mode : Constant

Frame rate : 23.976 (24000/1001) FPS

Color space : YUV

Chroma subsampling : 4:2:0

Bit depth : 8 bits

Scan type : Progressive

Bits/(Pixel*Frame) : 0.519

Stream size : 21.1 GiB (84%)

Title : The.BFG.2016. build by ***селезень***

Language : English

Default : Yes

Forced : No

Audio #1

ID : 2

Format : AC-3

Format/Info : Audio Coding 3

Mode extension : CM (complete main)

Format settings, Endianness : Big

Codec ID : A_AC3

Duration : 1 h 57 min

Bit rate mode : Constant

Bit rate : 384 kb/s

Channel(s) : 6 channels

Channel positions : Front: L C R, Side: L R, LFE

Sampling rate : 48.0 kHz

Frame rate : 31.250 FPS (1536 spf)

Bit depth : 16 bits

Compression mode : Lossy

Delay relative to video : 32 ms

Stream size : 322 MiB (1%)

Title : iTunes

Language : Russian

Default : Yes

Forced : No

Audio #2

ID : 3

Format : Atmos / TrueHD

Codec ID : A_TRUEHD

Duration : 1 h 57 min

Bit rate mode : Variable

Bit rate : 4 583 kb/s

Maximum bit rate : 7 287 kb/s

Channel(s) : Object Based / 8 channels

Channel positions : Object Based / Front: L C R, Side: L R, Back: L R, LFE

Sampling rate : / 48.0 kHz

Frame rate : 1 200.000 FPS (40 spf)

Compression mode : Lossless

Stream size : 3.75 GiB (15%)

Title : Original

Language : English

Default : No

Forced : No

Text #1

ID : 4

Format : UTF-8

Codec ID : S_TEXT/UTF8

Codec ID/Info : UTF-8 Plain Text

Duration : 1 h 48 min

Bit rate : 0 b/s

Count of elements : 8

Stream size : 363 Bytes (0%)

Title : Forced

Language : Russian

Default : Yes

Forced : No

Text #2

ID : 5

Format : UTF-8

Codec ID : S_TEXT/UTF8

Codec ID/Info : UTF-8 Plain Text

Duration : 1 h 45 min

Bit rate : 32 b/s

Count of elements : 928

Stream size : 24.8 KiB (0%)

Title : Full

Language : English

Default : No

Forced : No

Text #3

ID : 6

Format : UTF-8

Codec ID : S_TEXT/UTF8

Codec ID/Info : UTF-8 Plain Text

Duration : 1 h 47 min

Bit rate : 37 b/s

Count of elements : 1205

Stream size : 29.9 KiB (0%)

Title : SDH

Language : English

Default : No

Forced : No

Menu

00:00:00.000 : en:00:00:00.000

00:03:33.463 : en:00:03:33.463

00:08:02.732 : en:00:08:02.732

00:14:05.178 : en:00:14:05.178

00:19:45.851 : en:00:19:45.851

00:24:50.030 : en:00:24:50.030

00:28:29.541 : en:00:28:29.541

00:33:33.094 : en:00:33:33.094

00:36:51.418 : en:00:36:51.418

00:41:04.295 : en:00:41:04.295

00:45:48.245 : en:00:45:48.245

00:51:52.401 : en:00:51:52.401

00:57:36.662 : en:00:57:36.662

01:03:46.239 : en:01:03:46.239

01:13:41.917 : en:01:13:41.917

01:21:54.701 : en:01:21:54.701

piratbit.ru

Большой и добрый великан (2016) HD 1080p скачать торрент в хорошем качестве

Информация о фильме Год выхода: 2016Название: Большой и добрый великанЖанр: Фэнтези, экранизация, приключения, семейныйОригинальное название: The BFGРежиссер: Стивен СпилбергВ ролях: Марк Райлэнс, Руби Барнхилл, Пенелопа Уилтон, Джемейн Клемент, Ребекка Холл, Рейф Сполл, Билл Хейдер, Оулавюр Дарри Оулафссон, Адам Годли, Майкл Адамуэйт

Описание фильма В центре истории девочка по имени Софи, которая не смогла заснуть до полуночи и в окошко увидела огромного великана, который подходил к соседним домам и начинал дуть в окна спален. В полном соответствии со старинными поверьями и детскими страшилками, великан увидел Софи и унес к себе домой, в страну великанов.

Выпущено: Великобритания, Канада, СШАПродолжительность: 01:54:19Перевод: дублированный - || Лицензия ||

Информация о файле Формат:| MKV | x264 |Качество: BDRip 1080pВидео: X264/MPEG4-AVC | 1920x804 (2.40:1) | ~8198 kbps | 23.976 fpsАудио Rus: AC3 | 48 KHz | 5.1 (Front: L С R Side: L R) + LFE | ~640 kbpsАудио Eng: AC3 | 48 KHz | 5.1 (Front: L С R Side: L R) + LFE | ~640 kbpsСубтитры: | [русские (форсированные и полные) | [английские (полные) |

x264 [info]: frame I:1097 Avg QP:13.04 size:235441x264 [info]: frame P:45413 Avg QP:16.16 size: 80514x264 [info]: frame B:121946 Avg QP:17.73 size: 26882

ОбщееУникальный идентификатор : 174357267937629901673553888632135059081 (0x832BFD037969130A9681CE66CF8D8689)Полное имя : X:ATorrentThe.BFG.(2016).BDRip.1080p.(qqss44).mkvФормат : MatroskaВерсия формата : Version 2Размер файла : 7,75 ГбайтПродолжительность : 1 ч. 57 м.Общий поток : 9471 Кбит/секНазвание фильма : The.BFG.(2016).BDRip.1080p.(qqss44)Дата кодирования : UTC 2017-01-17 12:40:19Программа кодирования : mkvmerge v7.9.0 ('Birds') 64bitБиблиотека кодирования : libebml v1.3.1 + libmatroska v1.4.2

ВидеоИдентификатор : 1Формат : AVCФормат/Информация : Advanced Video CodecПрофиль формата : [email protected]Параметр CABAC формата : ДаПараметр ReFrames формата : 5 кадровИдентификатор кодека : V_MPEG4/ISO/AVCПродолжительность : 1 ч. 57 м.Битрейт : 8198 Кбит/секШирина : 1920 пикселейВысота : 804 пикселяСоотношение сторон : 2,40:1Режим частоты кадров : ПостоянныйЧастота кадров : 23,976 (24000/1001) кадра/секЦветовое пространство : YUVСубдискретизация насыщенности : 4:2:0Битовая глубина : 8 битТип развёртки : ПрогрессивнаяБит/(Пиксели*Кадры) : 0.222Размер потока : 6,70 Гбайт (86%)Заголовок : The.BFG.(2016).BDRip.1080p.(qqss44)Библиотека кодирования : x264 core 148 r2721kMod 72d53abНастройки программы : cabac=1 / ref=5 / deblock=1:-3:-3 / analyse=0x3:0x133 / me=umh / subme=11 / psy=1 / fade_compensate=0.00 / psy_rd=1.00:0.00 / mixed_ref=1 / me_range=32 / chroma_me=1 / trellis=2 / 8x8dct=1 / cqm=0 / deadzone=21,11 / fast_pskip=0 / chroma_qp_offset=-2 / threads=12 / lookahead_threads=2 / sliced_threads=0 / nr=0 / decimate=0 / interlaced=0 / bluray_compat=0 / constrained_intra=0 / fgo=0 / bframes=8 / b_pyramid=2 / b_adapt=2 / b_bias=0 / direct=3 / weightb=1 / open_gop=0 / weightp=2 / keyint=240 / keyint_min=23 / scenecut=40 / intra_refresh=0 / rc=2pass / mbtree=0 / bitrate=8198 / ratetol=1.0 / qcomp=0.60 / qpmin=0 / qpmax=69 / qpstep=4 / cplxblur=20.0 / qblur=0.5 / ip_ratio=1.40 / pb_ratio=1.30 / aq=3:0.70Язык : EnglishDefault : ДаForced : Нет

Аудио #1Идентификатор : 2Формат : AC-3Формат/Информация : Audio Coding 3Расширение режима : CM (complete main)Параметр Endianness формата : BigИдентификатор кодека : A_AC3Продолжительность : 1 ч. 57 м.Вид битрейта : ПостоянныйБитрейт : 640 Кбит/секКаналы : 6 каналовРасположение каналов : Front: L C R, Side: L R, LFEЧастота : 48,0 КГцЧастота кадров : 31,250 кадров/сек (1536 spf)Метод сжатия : С потерямиРазмер потока : 536 Мбайт (7%)Заголовок : DUB | DD5.1 @ 640 kbpsDefault : ДаForced : Нет

Аудио #2Идентификатор : 3Формат : AC-3Формат/Информация : Audio Coding 3Расширение режима : CM (complete main)Параметр Endianness формата : BigИдентификатор кодека : A_AC3Продолжительность : 1 ч. 57 м.Вид битрейта : ПостоянныйБитрейт : 640 Кбит/секКаналы : 6 каналовРасположение каналов : Front: L C R, Side: L R, LFEЧастота : 48,0 КГцЧастота кадров : 31,250 кадров/сек (1536 spf)Метод сжатия : С потерямиРазмер потока : 536 Мбайт (7%)Заголовок : Original | DD5.1 @ 640 kbpsЯзык : EnglishDefault : НетForced : Нет

Текст #1Идентификатор : 4Формат : UTF-8Идентификатор кодека : S_TEXT/UTF8Идентификатор кодека/Информация : UTF-8 Plain TextПродолжительность : 1 ч. 48 м.Битрейт : 0 бит/секCount of elements : 8Размер потока : 363 байт (0%)Заголовок : FORCEDЯзык : RussianDefault : ДаForced : Нет

Текст #2Идентификатор : 5Формат : UTF-8Идентификатор кодека : S_TEXT/UTF8Идентификатор кодека/Информация : UTF-8 Plain TextПродолжительность : 1 ч. 48 м.Битрейт : 49 бит/секCount of elements : 887Размер потока : 39,4 Кбайт (0%)Заголовок : FullЯзык : RussianDefault : НетForced : Нет

Текст #3Идентификатор : 6Формат : UTF-8Идентификатор кодека : S_TEXT/UTF8Идентификатор кодека/Информация : UTF-8 Plain TextПродолжительность : 1 ч. 45 м.Битрейт : 32 бит/секCount of elements : 928Размер потока : 24,8 Кбайт (0%)Заголовок : FullЯзык : EnglishDefault : НетForced : Нет

Меню00:00:00.000 : en:00:00:00.00000:03:33.463 : en:00:03:33.46300:08:02.732 : en:00:08:02.73200:14:05.178 : en:00:14:05.17800:19:45.851 : en:00:19:45.85100:24:50.030 : en:00:24:50.03000:28:29.541 : en:00:28:29.54100:33:33.094 : en:00:33:33.09400:36:51.418 : en:00:36:51.41800:41:04.295 : en:00:41:04.29500:45:48.245 : en:00:45:48.24500:51:52.401 : en:00:51:52.40100:57:36.662 : en:00:57:36.66201:03:46.239 : en:01:03:46.23901:13:41.917 : en:01:13:41.91701:21:54.701 : en:01:21:54.701

rutorg2.ru

Большой и добрый великан через торрент

piratbit.ru

Размер: 1.26 GB | Добавлен: 11 мес. назад | Торрент скачан:29 раз
Реклама Дарим 3000 рублей за регистрацию, не упусти свой шанс получить шикарный бонус!!!

25-10-2016 18:49 Большой и добрый великан Скачать торрент  

Большой и добрый великан / The BFG

Год выпуска: 2016Выпущено: Великобритания, Канада, СШАЖанр: фэнтези, приключения, семейныйПродолжительность: 01:56:32Перевод: Дублированный [Line] Субтитры: Отсутствуют

Режиссер: Стивен Спилберг

В ролях: Марк Райлэнс, Руби Барнхилл, Пенелопа Уилтон, Джемейн Клемент, Ребекка Холл, Рейф Сполл, Билл Хейдер, Оулавюр Дарри Оулафссон, Адам Годли, Майкл Адамуэйт

Описание: В центре истории девочка по имени Софи, которая не смогла заснуть до полуночи и в окошко увидела огромного великана, который подходил к соседним домам и начинал дуть в окна спален. В полном соответствии со старинными поверьями и детскими страшилками, великан увидел Софи и унес к себе домой, в страну великанов.

Как оказалось, он в этой самой стране был единственным добрым великаном: действуя в обстановке строжайшей секретности, он коллекционировал хорошие сны, которые по ночам раздавал детям. Уши у него устроены таким образом, что он слышит, что и о чем снится ребятам, и никогда не позволяет им видеть кошмары.

Релиз от

Качество: HDRipФормат: AVIВидео: 688x288 (2.39:1), 23.976 fps, XviD build 73 ~1349 kbps avg, 0.28 bit/pixelАудио: 48 kHz, AC3 Dolby Digital, 2/0 (L,R) ch, ~192 kbps

Скачать Большой и добрый великан через торрент http://s019.radikal.ru/i633/1607/1a/a25525351c60.jpg Скачать фильм Большой и добрый великан через торрент бесплантно в хорошем качестве Описание: В центре истории девочка по имени Софи, которая не смогла заснуть до полуночи и в окошко увидела огромного великана, который ... 2016-11-17 16:56 9.4 10 36

Loading...

Loading...

% Раздел Тема Автор DL S | L
Фильмы [HD 720p, 1080p] (Хороший звук DUB, MVO) [ 11.31 GB ] Большой и добрый великан / The BFG [2016 BDRip 1080p] - sheker187 Скачать
3D Фильмы [ 11.64 GB ] Большой и добрый великан в 3Д / The BFG 3D [2016 BDrip 1080p] OverUnder / Вертикальная стереопара serega768 Скачать
Фильмы 2016 [DVDrip, WEB-DLRip, HDrip] (DUB, MVO) [ 2.18 GB ] Большой и добрый великан / The BFG [2016 BDRip] - [] Twi7ter Скачать
Фильмы 2016 [DVDrip, WEB-DLRip, HDrip] (DUB, MVO) [ 1.46 GB ] Большой и добрый великан / The BFG [2016 BDRip] - [] Twi7ter Скачать
R.G.Resident - Фильмы, Видео [ 3.03 GB ] Большой и добрый великан / The BFG [2016 BDRip-AVC] - R.G.Resident schultz Скачать
Фильмы 2016 [DVDrip, WEB-DLRip, HDrip] (DUB, MVO) [ 2.13 GB ] Большой и добрый великан / The BFG [2016 BDRip] - Twi7ter Скачать
R.G.Resident - Фильмы, Видео [ 4.28 GB ] Большой и добрый великан / The BFG [2016 BDRip 720p] - R.G.Resident schultz Скачать

Последний раз редактировалось: killermax2013 (2016-11-17 16:57), всего редактировалось 3 раз(а)

Рекламный пират

25-10-2016 19:34 Большой и добрый великан Скачать торрент  

Спилберг фуфло не снимает,посмотрим, заценим.killermax2013, спасибо за релиз

26-10-2016 16:58 Большой и добрый великан Скачать торрент  

Нужно будет посмотреть обязательно, ну только когда рекламу вырежут. А так спасибо конечно)))

28-10-2016 20:30 Большой и добрый великан Скачать торрент  

makarevich писал(а):

Спилберг фуфло не снимает,посмотрим, заценим.killermax2013, спасибо за релиз

Вот с этим я и пошел в кино с дочей, без сильных претензий на свой интерес к детскому фильму. Вышел же со словами "Вот, козел, Стиви". Претензия на самый смешной момент в фильме ваще взбесила от тупости. Имхо, стареет мэтр.

01-11-2016 20:10 Большой и добрый великан Скачать торрент  

03-11-2016 16:46 Большой и добрый великан Скачать торрент  

makarevich писал(а):

Спилберг фуфло не снимает,посмотрим, заценим.killermax2013, спасибо за релиз

Ну ты прямо мысли мои прочитал.

Мои впечатления: великан по ночам ловит интернет на встроенную параболическую антенну и раздавал вай-фай детям бесплатно. Безлимитищееееееееееееееееееееееееее!

03-11-2016 23:19 Большой и добрый великан Скачать торрент  

16-11-2016 08:48 Большой и добрый великан Скачать торрент  

Торент перезалит! Замена WEB-DLRip >>> HDRip

16-11-2016 09:51 Большой и добрый великан Скачать торрент  

olegFil68 писал(а):

Ждём звук

И 3D!

Pекламный агент PB

16-11-2016 09:53 Большой и добрый великан Скачать торрент  

zra писал(а):

olegFil68 писал(а):

Ждём звук

И 3D!месяц еще вам ждать

16-11-2016 14:02 Большой и добрый великан Скачать торрент  

17-11-2016 16:58 Большой и добрый великан Скачать торрент  

Торент перезалит! Замена на чистый рип без казлино рекламы

Дорогой пользователь! Огромная просьба, поблагодарите релизера, оцените раздачу и оставьте свои комментарий, если Вы скачали Большой и добрый великан через торрент бесплатно! Внесите свою лепту в развитие PiratBit!

Комментировать посты могут только пользователи прошедшие не сложную регистрацию

Большой и добрый великан через торрент Скачать бесплатно Большой и добрый великан Большой и добрый великан скачать торрент Большой и добрый великан смотреть онлайн Cкачать фильм Большой и добрый великан бесплатно Большой и добрый великан скачать торрент в хорошем качестве Большой и добрый великан смотреть онлайн бесплатно в хорошем качестве

Вы можете начинать темыВы можете отвечать на сообщенияВы не можете редактировать свои сообщенияВы не можете удалять свои сообщенияВы не можете голосовать в опросахВы не можете прикреплять файлы к сообщениямВы можете скачивать файлы

Большой и добрый великан через торрент

ОбщееУникальный идентификатор : 180900355948390428318386753538416136019 (0x88182428C5A25690A9EC661290A34F53)Полное имя : D:\The.BFG.2016.BDRip.1080p.ExKinoRay.mkvФормат : MatroskaВерсия формата : Version 4 / Version 2Размер файла : 11,7 ГбайтПродолжительность : 1 ч. 57 м.Общий поток : 14,2 Мбит/секНазвание фильма : The.BFG.2016.***селезень***Дата кодирования : UTC 2016-11-17 11:40:08Программа кодирования : mkvmerge v8.3.0 ('Over the Horizon') 64bitБиблиотека кодирования : libebml v1.3.1 + libmatroska v1.4.2

ВидеоИдентификатор : 1Формат : AVCФормат/Информация : Advanced Video CodecПрофиль формата : [email protected]Параметр CABAC формата : ДаПараметр ReFrames формата : 5 кадровИдентификатор кодека : V_MPEG4/ISO/AVCПродолжительность : 1 ч. 57 м.Битрейт : 13,1 Мбит/секШирина : 1920 пикселейВысота : 804 пикселяСоотношение сторон : 2,40:1Режим частоты кадров : ПостоянныйЧастота кадров : 23,976 (24000/1001) кадра/секЦветовое пространство : YUVСубдискретизация насыщенности : 4:2:0Битовая глубина : 8 битТип развёртки : ПрогрессивнаяБит/(Пиксели*Кадры) : 0.355Размер потока : 10,7 Гбайт (92%)Заголовок : The.BFG.2016.***селезень***Библиотека кодирования : x264 core 146 r2538 121396cНастройки программы : cabac=1 / ref=5 / deblock=1:-3:-3 / analyse=0x3:0x133 / me=tesa / subme=11 / psy=1 / psy_rd=1.04:0.00 / mixed_ref=1 / me_range=32 / chroma_me=1 / trellis=2 / 8x8dct=1 / cqm=0 / deadzone=21,11 / fast_pskip=0 / chroma_qp_offset=-2 / threads=60 / lookahead_threads=6 / sliced_threads=0 / nr=0 / decimate=0 / interlaced=0 / bluray_compat=0 / constrained_intra=0 / bframes=10 / b_pyramid=2 / b_adapt=2 / b_bias=0 / direct=3 / weightb=1 / open_gop=0 / weightp=2 / keyint=240 / keyint_min=23 / scenecut=40 / intra_refresh=0 / rc_lookahead=150 / rc=crf / mbtree=0 / crf=14.8 / qcomp=0.60 / qpmin=0 / qpmax=69 / qpstep=4 / vbv_maxrate=62500 / vbv_bufsize=78125 / crf_max=0.0 / nal_hrd=none / filler=0 / ip_ratio=1.40 / pb_ratio=1.30 / aq=1:0.80 / zones=156600,168455,b=0.2Язык : EnglishDefault : ДаForced : НетЦветовой диапазон : LimitedКоэффициенты матрицы : BT.709

Аудио #1Идентификатор : 2Формат : AC-3Формат/Информация : Audio Coding 3Расширение режима : CM (complete main)Параметр Endianness формата : BigИдентификатор кодека : A_AC3Продолжительность : 1 ч. 57 м.Вид битрейта : ПостоянныйБитрейт : 192 Кбит/секКаналы : 2 каналаРасположение каналов : Front: L RЧастота : 48,0 КГцЧастота кадров : 31,250 кадров/сек (1536 spf)Метод сжатия : С потерямиРазмер потока : 161 Мбайт (1%)Заголовок : LineЯзык : RussianDefault : ДаForced : Нет

Аудио #2Идентификатор : 3Формат : AC-3Формат/Информация : Audio Coding 3Расширение режима : CM (complete main)Параметр Endianness формата : BigИдентификатор кодека : A_AC3Продолжительность : 1 ч. 57 м.Вид битрейта : ПостоянныйБитрейт : 640 Кбит/секКаналы : 6 каналовРасположение каналов : Front: L C R, Side: L R, LFEЧастота : 48,0 КГцЧастота кадров : 31,250 кадров/сек (1536 spf)Метод сжатия : С потерямиРазмер потока : 536 Мбайт (4%)Заголовок : OriginalЯзык : EnglishDefault : НетForced : Нет

Текст #1Идентификатор : 4Формат : UTF-8Идентификатор кодека : S_TEXT/UTF8Идентификатор кодека/Информация : UTF-8 Plain TextЗаголовок : FullЯзык : EnglishDefault : НетForced : Нет

Текст #2Идентификатор : 5Формат : UTF-8Идентификатор кодека : S_TEXT/UTF8Идентификатор кодека/Информация : UTF-8 Plain TextЗаголовок : SDHЯзык : EnglishDefault : НетForced : Нет

Меню00:00:00.000 : en:00:00:00.00000:03:33.463 : en:00:03:33.46300:08:02.732 : en:00:08:02.73200:14:05.178 : en:00:14:05.17800:19:45.851 : en:00:19:45.85100:24:50.030 : en:00:24:50.03000:28:29.541 : en:00:28:29.54100:33:33.094 : en:00:33:33.09400:36:51.418 : en:00:36:51.41800:41:04.295 : en:00:41:04.29500:45:48.245 : en:00:45:48.24500:51:52.401 : en:00:51:52.40100:57:36.662 : en:00:57:36.66201:03:46.239 : en:01:03:46.23901:13:41.917 : en:01:13:41.91701:21:54.701 : en:01:21:54.701

piratbit.ru


Смотрите также