Скачать тихоокеанский рубеж через торрент в хорошем качестве hd 1080


Тихоокеанский рубеж (2013) скачать торрент в хорошем качестве бесплатно

Подробнее Проф. (полное дублирование) 2,18 ГиБ 12 нояб. 2013 г. Файл: tihookeanskij.rubezh.2013.rus.bdrip.xvid..torrent Формат: AVIКачество: BDRip (источник: / Blu-ray EUR / 1080p)Видео: 720x400 (1.80:1), 23,976 fps, XviD build 65 ~ 1922 kbps avg, 0.28 bit/pixelАудио #1: 48 kHz, AC3 Dolby Digital, 3/2 (L,C,R,l,r) + LFE ch, ~448.00 kbps avg Аудио #2: 48 kHz, AC3 Dolby Digital, 3/2 (L,C,R,l,r) + LFE ch, ~448.00 kbps avg (отдельно)Аудио #3: 48 kHz, AC3 Dolby Digital, 3/2 (L,C,R,l,r) + LFE ch, ~448.00 kbps avg (отдельно) Подробнее Проф. (полное дублирование) 2,91 ГиБ 10 нояб. 2013 г. Файл: tihookeanskii.rubezh.2013.dual.bdrip.xvid..torrent Качество видео: BDRipФормат видео: AVIВидео: XviD, 704x400 (16:9), ~2264 kbps avg, 23,976 fpsАудио #1: AC3 Dolby Digital, 48 KHz, ~448 kbps, 3/2 (L,C,R,l,r) + LFE ch /RUS/Аудио #2: AC3 Dolby Digital, 48 KHz, ~448 kbps, 3/2 (L,C,R,l,r) + LFE ch /ENG/Аудио #3: AC3 Dolby Digital, 48 KHz, ~448 kbps, 3/2 (L,C,R,l,r) + LFE ch /UKR, (скачать отдельно с disk.yandex.ru) Подробнее Проф. (полное дублирование) 1,46 ГиБ 9 нояб. 2013 г. Подробнее Проф. (полное дублирование) 2,18 ГиБ 9 нояб. 2013 г. Подробнее Проф. (полное дублирование) 2,06 ГиБ 27 окт. 2013 г. Подробнее Любительский (многоголосный) 1,37 ГиБ 6 окт. 2013 г. Подробнее Любительский (многоголосный) 2,80 ГиБ 6 окт. 2013 г. Файл: tihookeanskiy_rubezh_2013_hd.torrent Качество: HDRipВидео: 720x400 (1.80:1), 23.976 fps, XviD build 65 ~2280 kbps avg, 0.33 bit/pixelАудио: 48 kHz, AC3 Dolby Digital, 3/2 (L,C,R,l,r) + LFE ch, ~384 kbps Русский / Английский Подробнее Любительский (многоголосный) 6,84 ГиБ 6 окт. 2013 г. Файл: tihookeanskij.rubej.2013.d.bdrip.720p..torrent Качество: BDRip (720p)Видео: MPEG-4 AVC, 5349 Кбит/с, 1280x720, 23.976 кадр/сАудио: Русский (AC3, 6 ch, 384 Кбит/с), английский (DTS, 6 ch, 1510 Кбит/с) Подробнее Любительский (многоголосный) 14,24 ГиБ 6 окт. 2013 г. Файл: tihookeanskij.rubej.2013.d.bdrip.1080..torrent Качество: BDRip (1080p)Видео: MPEG-4 AVC, 13.3 Мбит/с, 1920x1080, 23.976 кадр/сАудио: Русский (AC3, 6 ch, 384 Кбит/с), английский (DTS, 6 ch, 1510 Кбит/с) Подробнее Любительский (многоголосный) 27,47 ГиБ 6 окт. 2013 г. Файл: pacific.rim.2013.1080p.blu-ray.remux.avc.dts-hd.torrent Качество: Blu-Ray Remux (1080p)Видео: MPEG-4 AVC, 23902 Кбит/с, 1920x1080, 23.976 кадр/сАудио: Русский (AC3, 6 ch, 384 Кбит/с), английский (DTS-HD MA, 8 ch, 5461 Кбит/с), (AC3, 2 ch, 192 Кбит/с) Подробнее Проф. (полное дублирование) [звук из кинотеатра] 2,05 ГиБ 1 окт. 2013 г. Подробнее Проф. (полное дублирование) [звук из кинотеатра] 4,30 ГиБ 1 окт. 2013 г. Подробнее Проф. (полное дублирование) [звук из кинотеатра] 1,46 ГиБ 1 окт. 2013 г. Подробнее Проф. (полное дублирование) 1,80 ГиБ 13 авг. 2013 г. Файл: pacific_rim_2013_tsproper.torrent Формат: MKV / AVCКачество: TS*PROPER*Видео: MPEG-4 AVC, 2000 Кбит/с, 720x380Аудио: MP3, 2 ch, 128 Кбит/c)Примечание: Присутствуют корейские неотключаемые субтитры! Подробнее Проф. (полное дублирование) 1,44 ГиБ 14 июл. 2013 г. Подробнее Проф. (полное дублирование) 2,05 ГиБ 13 июл. 2013 г.

zona-film.com

Скачать фильм Тихоокеанский рубеж через торрент в хорошем качестве бесплатно 1080p

GeneralUnique ID : 240035842489541241779430193138042610278 (0xB49538BFDE5CCAB582D802AF10C32266)Complete name : H:Pacific.Rim.2013.D..BDRip.1080p.mkvFormat : MatroskaFormat version : Version 2File size : 16.9 GiBDuration : 2h 11mnOverall bit rate : 18.4 MbpsMovie name : Pacific.Rim.2013.BluRay.1080p.DTS.x264-CHDEncoded date : UTC 2013-10-27 20:35:09Writing application : mkvmerge v2.9.9 ('Tutu') built on Nov 25 2009 21:13:32Writing library : libebml v0.7.9 + libmatroska v0.8.1

VideoID : 1Format : AVCFormat/Info : Advanced Video CodecFormat profile : [email protected] settings, CABAC : YesFormat settings, ReFrames : 4 framesCodec ID : V_MPEG4/ISO/AVCDuration : 2h 11mnBit rate : 14.9 MbpsWidth : 1 920 pixelsHeight : 1 080 pixelsDisplay aspect ratio : 16:9Frame rate : 23.976 fpsColor space : YUVChroma subsampling : 4:2:0Bit depth : 8 bitsScan type : ProgressiveBits/(Pixel*Frame) : 0.299Stream size : 13.3 GiB (79%)Writing library : x264 core 138 r2356 a1d3d17Encoding settings : cabac=1 / ref=4 / deblock=1:-3:-3 / analyse=0x3:0x113 / me=umh / subme=10 / psy=1 / psy_rd=1.05:0.10 / mixed_ref=1 / me_range=32 / chroma_me=1 / trellis=2 / 8x8dct=1 / cqm=0 / deadzone=21,11 / fast_pskip=0 / chroma_qp_offset=-2 / threads=18 / lookahead_threads=1 / sliced_threads=0 / nr=0 / decimate=1 / interlaced=0 / bluray_compat=0 / constrained_intra=0 / bframes=5 / b_pyramid=2 / b_adapt=2 / b_bias=0 / direct=3 / weightb=1 / open_gop=0 / weightp=2 / keyint=250 / keyint_min=23 / scenecut=40 / intra_refresh=0 / rc=2pass / mbtree=0 / bitrate=14855 / ratetol=1.0 / qcomp=0.70 / qpmin=0 / qpmax=69 / qpstep=4 / cplxblur=20.0 / qblur=0.5 / ip_ratio=1.40 / pb_ratio=1.30 / aq=2:0.90Language : EnglishDefault : NoForced : No

Audio #1ID : 2Format : AC-3Format/Info : Audio Coding 3Mode extension : CM (complete main)Codec ID : A_AC3Duration : 2h 11mnBit rate mode : ConstantBit rate : 384 KbpsChannel(s) : 6 channelsChannel positions : Front: L C R, Side: L R, LFESampling rate : 48.0 KHzBit depth : 16 bitsCompression mode : LossyStream size : 361 MiB (2%)Title : AC3.384Kbps (6ch) Russian (Дубляж iTunes)Language : RussianDefault : YesForced : No

Audio #2ID : 3Format : DTSFormat/Info : Digital Theater SystemsCodec ID : A_DTSDuration : 2h 11mnBit rate mode : ConstantBit rate : 1 510 KbpsChannel(s) : 6 channelsChannel positions : Front: L C R, Side: L R, LFESampling rate : 48.0 KHzBit depth : 24 bitsCompression mode : LossyStream size : 1.38 GiB (8%)Title : DTS.1509.Kbps (6ch) Russian (MVO)Language : RussianDefault : NoForced : No

Audio #3ID : 4Format : DTSFormat/Info : Digital Theater SystemsCodec ID : A_DTSDuration : 2h 11mnBit rate mode : ConstantBit rate : 1 510 KbpsChannel(s) : 6 channelsChannel positions : Front: L C R, Side: L R, LFESampling rate : 48.0 KHzBit depth : 24 bitsCompression mode : LossyDelay relative to video : 11msStream size : 1.38 GiB (8%)Title : English DTS 5.1 1509KbpsLanguage : EnglishDefault : NoForced : No

Audio #4ID : 5Format : AC-3Format/Info : Audio Coding 3Format profile : Dolby DigitalMode extension : CM (complete main)Codec ID : A_AC3Duration : 2h 11mnBit rate mode : ConstantBit rate : 192 KbpsChannel(s) : 2 channelsChannel positions : Front: L RSampling rate : 48.0 KHzBit depth : 16 bitsCompression mode : LossyStream size : 180 MiB (1%)Title : AC3.192.Kbps (2ch) English (Commentary)Language : EnglishDefault : NoForced : No

Text #1ID : 6Format : UTF-8Codec ID : S_TEXT/UTF8Codec ID/Info : UTF-8 Plain TextTitle : Russian (Full)Language : RussianDefault : NoForced : No

Text #2ID : 7Format : UTF-8Codec ID : S_TEXT/UTF8Codec ID/Info : UTF-8 Plain TextTitle : Russian (Full) notabenoidLanguage : RussianDefault : NoForced : No

Text #3ID : 8Format : UTF-8Codec ID : S_TEXT/UTF8Codec ID/Info : UTF-8 Plain TextTitle : English (Full)Language : EnglishDefault : NoForced : No

Text #4ID : 9Format : UTF-8Codec ID : S_TEXT/UTF8Codec ID/Info : UTF-8 Plain TextTitle : English (SDH)Language : EnglishDefault : YesForced : No

Text #5ID : 10Format : UTF-8Codec ID : S_TEXT/UTF8Codec ID/Info : UTF-8 Plain TextTitle : English (SDH-Colored)Language : EnglishDefault : NoForced : No

Menu00:00:00.000 : en:00:00:00.00000:09:09.132 : en:00:09:09.13200:18:35.823 : en:00:18:35.82300:23:04.341 : en:00:23:04.34100:33:00.395 : en:00:33:00.39500:42:44.896 : en:00:42:44.89600:50:01.665 : en:00:50:01.66501:01:09.666 : en:01:01:09.66601:14:45.106 : en:01:14:45.10601:22:21.311 : en:01:22:21.31101:32:09.941 : en:01:32:09.94101:41:55.609 : en:01:41:55.60901:51:37.858 : en:01:51:37.85801:59:21.029 : en:01:59:21.02902:02:17.830 : en:02:02:17.830

piratbit.ru

Скачать торрент Тихоокеанский рубеж / Pacific Rim (2013) BDRip 1080p

Информация о фильмеНазвание: Тихоокеанский рубежОригинальное название: Pacific RimГод выхода: 2013Жанр: фантастика, боевик, приключенияРежиссер: Гильермо дель ТороВ ролях: Чарли Ханнэм, Идрис Эльба, Ринко Кикути, Роберт Казински, Макс Мартини, Чарли Дэй, Берн Горман, Клифтон Коллинз мл., Рон Перлман, Диего Клаттенхофф

О фильме: Когда из морских глубин поднялись легионы чудовищ, известных как Кайдзу, началась война, которой суждено было забрать миллионы жизней и свести «человеческие ресурсы» почти к нулю всего за несколько лет. Чтобы сражаться с пришельцами, было создано специальное оружие: огромные роботы, названные Джегерами, они управлялись одновременно двумя пилотами, чьи сознания соединены с помощью нейронной связи. Но даже Джегеры оказываются почти бессильны перед лицом безжалостных Кайдзу. На грани поражения у защитников человечества нет выбора, кроме как обратиться к двум весьма сомнительным героям — никому не нужному бывшему пилоту и неопытному стажеру — которые объединились, чтобы повести в бой некогда легендарного, но сейчас устаревшего Джегера. Вместе они оказываются единственной надеждой человечества, последним препятствием перед надвигающимся апокалипсисом.

Выпущено: Warner Bros. Продолжительность: 02:11:17Перевод: Дублированный (лицензия) + Авторский (Ю.Сербин)

ФайлКодек: x264Качество: BDRip \(источник: Blu-ray Disc\)Видео: 1920x1080 (16:9), 23.976 fps, 10.8 MbpsАудио #1: AC-3, 6 ch, 640 kbps (Дубляж, Blu-ray CEE)Аудио #2: AC-3, 6 ch, 640 kbps (Одноголосый закадровый, Ю.Сербин)Аудио #3: AC-3, 6 ch, 640 kbps (Original)Субтитры: Русские (форс,полные), АнглийскиеСкачать: сэмпл

Скриншоты

MI

Общее Уникальный идентификатор : 231560832593875073093399438198013879478 (0xAE34FE803842ADE390B86787BC4AE4B6) Полное имя : Pacific.Rim.2013.BDRip.1080p.Rus.Eng.mkv Формат : Matroska Версия формата : Version 2 Размер файла : 11,6 Гбайт Продолжительность : 2 ч. 11 м. Общий поток : 12,7 Мбит/сек Название фильма : Тихоокеанский рубеж / Pacific Rim (2013) Дата кодирования : UTC 2013-11-09 04:50:46 Программа кодирования : mkvmerge v5.8.0 ('No Sleep / Pillow') built on Sep 2 2012 15:37:04 Библиотека кодирования : libebml v1.2.3 + libmatroska v1.3.0

Видео Идентификатор : 1 Формат : AVC Формат/Информация : Advanced Video Codec Профиль формата : [email protected] Параметр CABAC формата : Да Параметр ReFrames формата : 4 кадра Идентификатор кодека : V_MPEG4/ISO/AVC Продолжительность : 2 ч. 11 м. Битрейт : 10,8 Мбит/сек Ширина : 1920 пикселей Высота : 1080 пикселей Соотношение сторон : 16:9 Частота кадров : 23,976 кадра/сек Цветовое пространство : YUV Субдискретизация насыщенности : 4:2:0 Битовая глубина : 8 бит Тип развёртки : Прогрессивная Бит/(Пиксели*Кадры) : 0.216 Размер потока : 9,63 Гбайт (83%) Заголовок : Release by AlexKa Библиотека кодирования : x264 core 140 r2377 1ca7bb9 Настройки программы : cabac=1 / ref=4 / deblock=1:-3:-3 / analyse=0x3:0x133 / me=umh / subme=11 / psy=1 / psy_rd=1.00:0.00 / mixed_ref=1 / me_range=32 / chroma_me=1 / trellis=2 / 8x8dct=1 / cqm=0 / deadzone=21,11 / fast_pskip=0 / chroma_qp_offset=-2 / threads=12 / lookahead_threads=2 / sliced_threads=0 / nr=0 / decimate=1 / interlaced=0 / bluray_compat=0 / constrained_intra=0 / bframes=7 / b_pyramid=2 / b_adapt=2 / b_bias=0 / direct=3 / weightb=1 / open_gop=0 / weightp=2 / keyint=240 / keyint_min=23 / scenecut=40 / intra_refresh=0 / rc=2pass / mbtree=0 / bitrate=10750 / ratetol=1.0 / qcomp=0.60 / qpmin=0 / qpmax=69 / qpstep=4 / cplxblur=20.0 / qblur=0.5 / ip_ratio=1.40 / pb_ratio=1.30 / aq=1:0.70 Язык : English

Аудио #1 Идентификатор : 2 Формат : AC-3 Формат/Информация : Audio Coding 3 Расширение режима : CM (complete main) Идентификатор кодека : A_AC3 Продолжительность : 2 ч. 11 м. Вид битрейта : Постоянный Битрейт : 640 Кбит/сек Каналы : 6 каналов Расположение каналов : Front: L C R, Side: L R, LFE Частота : 48,0 КГц Битовая глубина : 16 бит Метод сжатия : С потерями Размер потока : 601 Мбайт (5%) Заголовок : Дубляж, Blu-ray CEE Язык : Russian

Аудио #2 Идентификатор : 3 Формат : AC-3 Формат/Информация : Audio Coding 3 Расширение режима : CM (complete main) Идентификатор кодека : A_AC3 Продолжительность : 2 ч. 11 м. Вид битрейта : Постоянный Битрейт : 640 Кбит/сек Каналы : 6 каналов Расположение каналов : Front: L C R, Side: L R, LFE Частота : 48,0 КГц Битовая глубина : 16 бит Метод сжатия : С потерями Размер потока : 601 Мбайт (5%) Заголовок : Одноголосый закадровый, Ю.Сербин Язык : Russian

Аудио #3 Идентификатор : 4 Формат : AC-3 Формат/Информация : Audio Coding 3 Расширение режима : CM (complete main) Идентификатор кодека : A_AC3 Продолжительность : 2 ч. 11 м. Вид битрейта : Постоянный Битрейт : 640 Кбит/сек Каналы : 6 каналов Расположение каналов : Front: L C R, Side: L R, LFE Частота : 48,0 КГц Битовая глубина : 16 бит Метод сжатия : С потерями Размер потока : 601 Мбайт (5%) Заголовок : Original Язык : English

Текст #1 Идентификатор : 5 Формат : UTF-8 Идентификатор кодека : S_TEXT/UTF8 Идентификатор кодека/Информация : UTF-8 Plain Text Заголовок : Rus forced Язык : Russian

Текст #2 Идентификатор : 6 Формат : UTF-8 Идентификатор кодека : S_TEXT/UTF8 Идентификатор кодека/Информация : UTF-8 Plain Text Заголовок : Rus Язык : Russian

Текст #3 Идентификатор : 7 Формат : UTF-8 Идентификатор кодека : S_TEXT/UTF8 Идентификатор кодека/Информация : UTF-8 Plain Text Заголовок : Eng Язык : English

Меню 00:00:00.000 : :Chapter 01 00:09:09.131 : :Chapter 02 00:18:35.823 : :Chapter 03 00:23:04.340 : :Chapter 04 00:33:00.395 : :Chapter 05 00:42:44.895 : :Chapter 06 00:50:01.665 : :Chapter 07 01:01:09.666 : :Chapter 08 01:14:45.104 : :Chapter 09 01:22:21.311 : :Chapter 10 01:32:09.941 : :Chapter 11 01:41:55.609 : :Chapter 12 01:51:37.857 : :Chapter 13 01:59:21.028 : :Chapter 14 02:02:17.830 : :Chapter 15 02:11:16.618 : :Chapter 16

x264

x264 [info]: frame I:1551 Avg QP:16.40 size:179189 x264 [info]: frame P:57889 Avg QP:19.55 size: 87014 x264 [info]: frame B:129417 Avg QP:21.65 size: 40714 x264 [info]: consecutive B-frames: 5.6% 9.0% 11.5% 60.7% 6.5% 4.4% 1.5% 0.8%

krutor.org

Тихоокеанский рубеж торрент скачать | Скачать торренты в BDRip и HDRip качестве

Тихоокеанский рубеж / Pacific Rim (2013) BDRip 720p от FREEISLAND3.4 GBТихоокеанский рубеж / Pacific Rim (2013) BDRip 1080p11.62 GBТихоокеанский рубеж / Pacific Rim (Гильермо дель Торо / Guillermo del Toro) [2013, США, фантастика, фэнтези, боевик, приключения, BDRip] Dub1.47 GBТихоокеанский рубеж / Pacific Rim (2013) BDRip от HQCLUB | Лицензия2.18 GBТихоокеанский рубеж / Pacific Rim / 2013 / ДБ / BDRip / 2.18 ГБ2.18 GBТихоокеанский рубеж / Pacific Rim (Гильермо дель Торо / Guillermo Del Toro) [2013 г., фантастика, фэнтези, боевик, приключения, BDRip 1080p] Dub + AVO (Ю.Сербин) + Original + Sub (Rus, Eng)11.62 GBТихоокеанский рубеж / Pacific Rim (Гильермо дель Торо / Guillermo del Toro) [2013, США, фантастика, боевик, BDRip 1080p] Dub + 2х AVO (Сербин, Володарский) + Sub Rus, Eng + Ukr + Original Eng18.87 GBТихоокеанский рубеж / Pacific Rim (Гильермо дель Торо / Guillermo del Toro) [2013, США, фантастика, боевик, BDRip-AVC] Dub + Sub Rus, Eng, Ukr + Original Eng1.45 GBТихоокеанский рубеж / Pacific Rim (2013) HDRip-AVC | D746.01 MBТихоокеанский рубеж / Pacific Rim (Гильермо дель Торо / Guillermo del Toro) [2013, США, фантастика, боевик, BDRip-AVC] Dub + Sub Rus, Eng + Original Eng2.92 GBТихоокеанский рубеж / Pacific Rim (2013) DVD5 R5 от New-Team | D | сжатый4.37 GBТихоокеанский рубеж / Pacific Rim / 2013 / ДБ, АП (Сербин), СТ / BDRip (1080p) / 11.89 ГБ11.89 GBТихоокеанский рубеж / Pacific Rim / 2013 / ПМ / HDRip / 2.18 ГБ2.18 GBТихоокеанский рубеж / Pacific Rim / 2013 / ДБ / HDRip / 2.18 ГБ2.18 GBТихоокеанский рубеж / Pacific Rim (2013) 4K UltraHD BDRip [H.265/2160p] [Main10]61.4 GBТихоокеанский рубеж / Pacific Rim (2013) BDRip-HEVC 1080p | D9.92 GBТихоокеанский рубеж / Pacific Rim (2013) BDRip [H.264]1.45 GBТихоокеанский рубеж / Pacific Rim (Гильермо дель Торо / Guillermo del Toro) [2013, США, фантастика, боевик, BDRip-AVC] DUB (Blu-ray CEE) + AVO (Юрий Сербин) + AVO (Леонид Володарский) + Dub (Ukr) + Sub Rus, Ukr, Eng + Original Eng6.18 GBТихоокеанский рубеж / Pacific Rim (2013) BDRip [720p]9.56 GBТихоокеанский рубеж / Pacific Rim / 2013 / ДБ / HEVC / 4K / UHD (2160p) / 61.4 ГБ61.4 GBТихоокеанский рубеж 3Д / Pacific Rim 3D (Гильермо дель Торо / Guillermo del Toro) [2013, США, фантастика, боевик, приключения, BDRip-AVC] Dub (CEE) + 2xAVO (Ю.Сербин, Л.Володарский) + Ukr (Dub) + Original (Eng) + Sub (Rus, Ukr, Eng) [Half OverU23.36 GBТихоокеанский рубеж / Pacific Rim / 2013 / ДБ / HEVC / 4K UHD / UHDVCRip (2160p) / 61.4 ГБ61.4 GBТихоокеанский рубеж / Pacific Rim / 2013 / ДБ / HDRip / 1.46 ГБ1.46 GBТихоокеанский рубеж / Pacific Rim (Гильермо дель Торо / Guillermo del Toro) [2013, США, фантастика, боевик, BDRip 720p] Dub + 2х AVO (Сербин, Володарский) + Sub Rus, Eng + Ukr + Original Eng12.32 GBТихоокеанский рубеж / Pacific Rim (Гильермо дель Торо / Guillermo del Toro) [2013, США, фантастика, боевик, BDRemux 1080p] Dub + 2х AVO (Сербин, Володарский) + Sub Rus, Eng + Ukr + Original Eng38.77 GBТихоокеанский рубеж / Pacific Rim (2013) BDRip [720p] [hand made 60 FPS]7.66 GBТихоокеанский рубеж / Pacific Rim (2013) BDRip [1080p] 3D [Вертикальная анаморфная стереопара]19.3 GBТихоокеанский рубеж / Pacific Rim (Гильермо дель Торо) [2013 г., Фантастика, Боевик BDRip 720p] Dub (Rus) + Original (Eng) + Subs (Rus, Eng) / 60 FPS7.66 GBТихоокеанский рубеж / Pacific Rim (2013) BDRip 720p | 60 FPS7.66 GBТихоокеанский рубеж / Pacific Rim (2013) BDRip-AVC от Leonardo and Scarabey | Лицензия2.47 GB(Score) Тихоокеанский рубеж / Pacific Rim (by Ramin Djawadi) - 2013, FLAC (tracks+.cue), lossless318.3 MBТихоокеанский рубеж / Pacific Rim (Гильермо дель Торо / Guillermo del Toro) [2013, США, фантастика, боевик, BDRip] Dub + Original + Subs2.59 GBТихоокеанский рубеж / Pacific Rim / 2013 / ДБ, СТ / HEVC / BDRip (1080p) / 9.92 ГБ9.92 GB(Score) Тихоокеанский рубеж / Pacific Rim (by Ramin Djawadi) - 2013, MP3, 320 kbps132.6 MB[iPad] Тихоокеанский рубеж / Pacific Rim (Гильермо дель Торо / Guillermo del Toro ) [2013, США, Фантастика, боевик, приключения, BDRip, SD (576p)] DUB + Original + sub (rus, eng)3.01 GBТихоокеанский рубеж / Pacific Rim (Гильермо дель Торо) [2013, США, фантастика, фэнтези, боевик, приключения, WEB-DL HD (720p)] DUB (rus, ukr), AVO, Original + SUB (rus, ukr, eng)5.06 GBТихоокеанский рубеж / Pacific Rim / 2013 / ДБ, СТ / Blu-Ray Remux (1080p) / 31.9 ГБ31.9 GB[VIDEO] Тихоокеанский рубеж / Pacific Rim (Гильермо дель Торо / Guillermo del Toro) [2013, США, фантастика, боевик, BDRip][MP4, 480x] iTunes604.9 MBТихоокеанский рубеж / Pacific Rim / 2013 / ДБ, АП (Сербин, Володарский), СТ / BDRip (1080p) / 15.59 ГБ15.59 GBТихоокеанский рубеж / Pacific Rim / 2013 / ПМ, СТ / BDRip (720p) / 8.88 ГБ8.88 GBТихоокеанский рубеж / Pacific Rim (2013) BDRip 720p от Leonardo and Scarabey | Лицензия6.13 GBТихоокеанский рубеж / Pacific Rim (2013) BDRip [1080p]18.7 GB[ATV3] Тихоокеанский рубеж / Pacific Rim (Гильермо дель Торо / Guillermo del Toro ) [2013, США, Фантастика, боевик, приключения, BDRip, HD (1080p)] DUB + Original + sub (rus for, rus, eng)10.28 GBТихоокеанский рубеж / Pacific Rim (2013) BDRip 1080p от Killbrain and Scarabey | 3D-Video | Лицензия11.38 GBТихоокеанский рубеж / Pacific Rim / 2013 / ДБ, АП (Сербин), СТ / BDRip (AVC) / 4.39 ГБ4.39 GBТихоокеанский рубеж / Pacific Rim (2013) BDRip 1080p от denis 100 | Лицензия15.59 GBТихоокеанский рубеж / Pacific Rim (Гильермо дель Торо / Guillermo del Toro) [2013, США, фантастика, боевик, Blu-ray disc 1080p] Dub + Sub Rus, Eng + Original Eng37.18 GBТихоокеанский рубеж / Pacific Rim / 2013 / ДБ, АП (Сербин, Володарский), СТ / BDRip (1080p) / 21.08 ГБ21.08 GBТихоокеанский рубеж / Pacific Rim / 2013 / ДБ, СТ / 3D (HOU) / BDRip (1080p) / 19.76 ГБ19.76 GBТихоокеанский рубеж / Pacific Rim (2013) BDRip от ed_rez | D, A, P | Лицензия3.82 GB tparser.org – торрент поисковик по популярным торрент трекерам. Находить и скачивать новинки кино в HDRip и BDRip качестве через tparser намного проще! Добро пожаловать на крупный торрент архив фильмов и игр tparser.org. Вам больше не придется искать торренты на основных торрент трекерах в поисках нужной раздачи – мы предлагаем найти и скачать фильмы в хорошем качестве прямо на нашем сайте. Наш сервис поиска торрентов в реальном времени собирает информацию с крупных торрент трекеров и сортирует полученные результаты в удобную таблицу. Скачивайте торренты без ограничений и без всяких регистраций на трекерах. Начните скачивать торрент Тихоокеанский рубеж прямо сейчас!

tparser.org


Смотрите также