Скачать тепло наших тел через торрент бесплатно в хорошем качестве


Скачать фильм Тепло наших тел (2013) через торрент

29 января 2016 17:11 Тепло наших тел / Warm Bodies (2013) 2xDVD9 | Коллекционное издание .torrent   [Информация о файле (нажмите для просмотра)] Перевод: полное дублированиеКодек: MPEG2Качество: 2xDVD9"West Video"Видео: PAL 16:9 ([email protected]) VBR 6901 Kbps, 25.000 fpsАудио 1: Dolby AC3, 6 ch, 48.0 KHz, 384 Kbps(английский)Аудио 2: Dolby AC3, 6 ch, 48.0 KHz, 384 Kbps(русский)Аудио 3: Dolby AC3, 6 ch, 48.0 KHz, 384 Kbps(украинский)Аудио 4: DTS 6 ch, 48.0 KHz, 768 Kbps(русский)Субтитры: русскиеДополнительные материалыУдаленные сценыВстретил, но не съел"Р" + "Дж" - Ник и Тереза"Почти мертв": актерский ансамбльЭкстремальный грим зомбиВыбор натуры"Огонь": оружие и трюки"Осторожно скелеты!": визуальные эффектыСъемочная площадка глазами Терезы ПалмерНеудачные дублиЗомби мастер-класс с Робом КордиВидео: Идентификатор: 224 (0xE0) Формат: MPEG Video Версия формата: Version 2 Профиль формата: [email protected] Параметр BVOP формата: Да Параметр матрицы формата: Выборочная Параметр GOP формата: Variable Продолжительность: 15 м. Вид битрейта: Переменный Битрейт: 6901 Кбит/сек Максимальный битрейт: 9800 Кбит/сек Ширина: 720 пикселей Высота: 576 пикселей Соотношение сторон: 16:9 Частота кадров: 25,000 кадров/сек Стандарт вещания: PAL Цветовое пространство: YUV Субдискретизация насыщенности: 4:2:0 Битовая глубина: 8 бит Тип развёртки: Чересстрочная Порядок развёртки: Верхнее поле первое Метод сжатия: С потерями Бит/(Пиксели*Кадры): 0.666 Размер потока: 786 Мбайт (77%)Аудио #1: Идентификатор: 189 (0xBD)-128 (0x80) Формат: AC-3 Формат/Информация: Audio Coding 3 Расширение режима: CM (complete main) Параметр Endianness формата: Big Режим смешивания: DVD-Video Продолжительность: 15 м. Вид битрейта: Постоянный Битрейт: 384 Кбит/сек Каналы: 6 каналов Расположение каналов: Front: L C R, Side: L R, LFE Частота: 48,0 КГц Битовая глубина: 16 бит Метод сжатия: С потерями Задержка видео: -704 мс. Размер потока: 43,8 Мбайт (4%)Аудио #2: Идентификатор: 189 (0xBD)-129 (0x81) Формат: AC-3 Формат/Информация: Audio Coding 3 Расширение режима: CM (complete main) Параметр Endianness формата: Big Режим смешивания: DVD-Video Продолжительность: 15 м. Вид битрейта: Постоянный Битрейт: 384 Кбит/сек Каналы: 6 каналов Расположение каналов: Front: L C R, Side: L R, LFE Частота: 48,0 КГц Битовая глубина: 16 бит Метод сжатия: С потерями Задержка видео: -704 мс. Размер потока: 43,8 Мбайт (4%)Аудио #3: Идентификатор: 189 (0xBD)-131 (0x83) Формат: AC-3 Формат/Информация: Audio Coding 3 Расширение режима: CM (complete main) Параметр Endianness формата: Big Режим смешивания: DVD-Video Продолжительность: 15 м. Вид битрейта: Постоянный Битрейт: 384 Кбит/сек Каналы: 6 каналов Расположение каналов: Front: L C R, Side: L R, LFE Частота: 48,0 КГц Битовая глубина: 16 бит Метод сжатия: С потерями Задержка видео: -704 мс. Размер потока: 43,8 Мбайт (4%)Аудио #4: Идентификатор: 189 (0xBD)-138 (0x8A) Формат: DTS Формат/Информация: Digital Theater Systems Режим: 16 Параметр Endianness формата: Big Режим смешивания: DVD-Video Продолжительность: 15 м. Вид битрейта: Постоянный Битрейт: 755 Кбит/сек Каналы: 6 каналов Расположение каналов: Front: L C R, Side: L R, LFE Частота: 48,0 КГц Битовая глубина: 24 бит Метод сжатия: С потерями Задержка видео: -779 мс. Размер потока: 86,0 Мбайт (8%) 11,55 Gb 3 2 29 января 2016 17:11 Тепло наших тел / Warm Bodies (2013) BDRemux 1080p | Open Matte .torrent   [Информация о файле (нажмите для просмотра)] Перевод: Профессиональный (полное дублированние) (студия Пифагор по заказу компании Вест) НТВ+ + Любительский (одноголосый, закадровый) den904 + оригиналКодек: MPEG-4Качество: BDRemux 1080pВидео: 1920x1080, 23.976fps, ~21,3 Мбит/секАудио 1: Русский, Dolby AC3, 48000Hz, 6 ch, ~448 kbps - Профессиональный (дублированный) НТВ+Аудио 2: Русский, DTS, 48000Hz, 6 ch, ~1536 kbps - Одноголосый закадровый - den904Аудио 3: Английский, DTS-HD MA 7.1, 4987 kbps, 48 kHz, (DTS Core: 5.1 / 48 kHz / 1509 kbps)Аудио 4: Английский, AC3 2.0, 256 kbps, 48 kHz - комментарийСубтитры: Русские SRT / PGS (Spanky_G,) Русские SRT (Notabenoid), Русские SRT (Denino), английский SRT (full, SDH)Видео: Идентификатор : 1 Формат : AVC Формат/Информация : Advanced Video Codec Профиль формата : [email protected] Параметр CABAC формата : Да Параметр ReFrames формата : 4 кадра Идентификатор кодека : V_MPEG4/ISO/AVC Продолжительность : 1 ч. 37 м. Вид битрейта : Переменный Максимальный битрейт : 36,0 Мбит/сек Ширина : 1920 пикселей Высота : 1080 пикселей Соотношение сторон : 16:9 Режим частоты кадров : Постоянный Частота кадров : 23,976 кадра/сек Стандарт вещания : NTSC Цветовое пространство : YUV Субдискретизация насыщенности : 4:2:0 Битовая глубина : 8 бит Тип развёртки : Прогрессивная Заголовок : Warm.Bodies.2013.1080p.CZE.Blu-ray.AVC.DTS.HD.MA.5.1-WESTSiDE Язык : Chechen Default : Нет Forced : Нет Основные цвета : BT.709 Характеристики трансфера : BT.709 Коэффициенты матрицы : BT.709Аудио #1: Идентификатор : 2 Формат : AC-3 Формат/Информация : Audio Coding 3 Расширение режима : CM (complete main) Параметр Endianness формата : Big Идентификатор кодека : A_AC3 Продолжительность : 1 ч. 37 м. Вид битрейта : Постоянный Битрейт : 448 Кбит/сек Каналы : 6 каналов Расположение каналов : Front: L C R, Side: L R, LFE Частота : 48,0 КГц Битовая глубина : 16 бит Метод сжатия : С потерями Размер потока : 313 Мбайт (2%) Заголовок : AC3 5.1 / 448 kbps / Dub ( НТВ+) Язык : Russian Default : Да Forced : НетАудио #2: Идентификатор : 3 Формат : DTS Формат/Информация : Digital Theater Systems Режим : 16 Параметр Endianness формата : Big Идентификатор кодека : A_DTS Продолжительность : 1 ч. 37 м. Вид битрейта : Постоянный Битрейт : 1510 Кбит/сек Каналы : 6 каналов Расположение каналов : Front: L C R, Side: L R, LFE Частота : 48,0 КГц Битовая глубина : 24 бит Метод сжатия : С потерями Размер потока : 1,03 Гбайт (5%) Заголовок : DTS 5.1, Одноголосый закадровый - den904 Язык : Russian Default : Нет Forced : НетАудио #3: Идентификатор : 4 Формат : DTS Формат/Информация : Digital Theater Systems Профиль формата : MA / Core Режим : 16 Параметр Endianness формата : Big Идентификатор кодека : A_DTS Продолжительность : 1 ч. 37 м. Вид битрейта : Переменный Битрейт : Неизвестно / 1509 Кбит/сек Каналы : 8 каналов / 6 каналов Расположение каналов : Front: L C R, Side: L R, Back: L R, LFE / Front: L C R, Side: L R, LFE Частота : 48,0 КГц Битовая глубина : 24 бит Метод сжатия : Без потерь / Lossy Заголовок : DTS-HD MA 7.1 / 4987 kbps / Original Язык : English Default : Нет Forced : НетАудио #4: Идентификатор : 5 Формат : AC-3 Формат/Информация : Audio Coding 3 Расширение режима : CM (complete main) Параметр Endianness формата : Big Идентификатор кодека : A_AC3 Продолжительность : 1 ч. 37 м. Вид битрейта : Постоянный Битрейт : 256 Кбит/сек Каналы : 2 канала Расположение каналов : Front: L R Частота : 48,0 КГц Битовая глубина : 16 бит Метод сжатия : С потерями Размер потока : 179 Мбайт (1%) Заголовок : Commentary Язык : English Default : Нет Forced : Нет 19,78 Gb 8 3 29 января 2016 17:11 Тепло наших тел / Warm Bodies (2013) BDRip-AVC от HELLYWOOD | Open Matte .torrent   [Информация о файле (нажмите для просмотра)] Перевод: Профессиональный (полное дублирование) НТВ+Субтитры: Русские (Notabenoid), русские (Spanky_G), английские (полные + SDH + SDH-Colored)Качество: BDRip-AVC [BDRemux]Формат: MKVВидео: х.264, 1024x576 (16:9), 23,976 fps, 2305 Кbps, 0.163 bit/pixelАудио#1: 48 kHz, AC3 Dolby Digital, 3/2 (L,C,R,l,r) + LFE ch, 448.00 kbps |RUSАудио#2: 48 kHz, AC3 Dolby Digital, 3/2 (L,C,R,l,r) + LFE ch, 448.00 kbps |ENG 2,19 Gb 130 4 29 января 2016 17:11 Тепло наших тел / Warm Bodies (2013) BDRip от R.G.RealMT | КПК | Open Matte | НТВ .torrent   [Информация о файле (нажмите для просмотра)] Перевод: полное дублирование [студия Пифагор по заказу компании Вест / НТВ+]Субтитры: НетКачество: BDRip на МобильныйФормат: mp4Видео: 350 kbps, 320x180, 23 fpsАудио: 128 kbps, 2 ch, 44,1 khz 335,48 Mb 8 2 29 января 2016 17:11 Тепло наших тел / Warm Bodies (2013) BDRip от Rulya74 | НТВ .torrent   [Информация о файле (нажмите для просмотра)] Перевод: Дубляж (НТВ+) + Любительский (одноголосый закадровый) den904Кодек: XVIDКачество: BDRipВидео: 720x400 (16:9), 23.976 fps, XviD MPEG-4 ~1835 kbps avg, 0.266 bit/pixelСубтитры: Русские, Английские / внешние 2,19 Gb 7 4 29 января 2016 17:11 Тепло наших тел / Warm Bodies (2013) HDRip от Scarabey | НТВ | Open Matte .torrent   [Информация о файле (нажмите для просмотра)] Перевод: Дубляж - НТВ+Формат: AVIВидео: 688x384 (1.79:1), 23.976 fps, XviD build 73 ~1661 kbps avg, 0.26 bit/pixelАудио: 48 kHz, AC3 Dolby Digital, 3/2 (L,C,R,l,r) + LFE ch, ~448.00 kbps avg 1,45 Gb 530 18 29 января 2016 17:11 Тепло наших тел / Warm Bodies (2013) HDRip от Scarabey | НТВ | Open Matte .torrent   [Информация о файле (нажмите для просмотра)] Перевод: Дубляж - НТВ+Формат: AVIВидео: 624x352 (1.77:1), 23.976 fps, XviD build 73 ~932 kbps avg, 0.18 bit/pixelАудио: 48 kHz, MPEG Layer 3, 2 ch, ~128.00 kbps avg 748,38 Mb 35 2 29 января 2016 17:11 Тепло наших тел / Warm Bodies (2013) BDRip 720p | Open Matte .torrent   [Информация о файле (нажмите для просмотра)] Перевод: Дублированный (НТВ+)Кодек: x264Качество: BDRip (источник: Blu-ray Disc)Видео: 1280x720 (16:9), 23.976 fps, 5500 kbpsАудио #1: AC-3, 6 ch, 448 kbps (Rus)Аудио #2: AC-3, 6 ch, 448 kbps (Eng)Субтитры: Русские, АнглийскиеВидео: Идентификатор : 1 Формат : AVC Формат/Информация : Advanced Video Codec Профиль формата : [email protected] Параметр CABAC формата : Да Параметр ReFrames формата : 9 кадров Идентификатор кодека : V_MPEG4/ISO/AVC Продолжительность : 1 ч. 37 м. Битрейт : 5505 Кбит/сек Ширина : 1280 пикселей Высота : 720 пикселей Соотношение сторон : 16:9 Частота кадров : 23,976 кадра/сек Цветовое пространство : YUV Субдискретизация насыщенности : 4:2:0 Битовая глубина : 8 бит Тип развёртки : Прогрессивная Бит/(Пиксели*Кадры) : 0.249 Размер потока : 3,67 Гбайт (84%) Заголовок : Release by AlexKa Библиотека кодирования : x264 core 138 r2358 9e941d1 Настройки программы : cabac=1 / ref=9 / deblock=1:-3:-3 / analyse=0x3:0x133 / me=umh / subme=11 / psy=1 / psy_rd=1.00:0.00 / mixed_ref=1 / me_range=32 / chroma_me=1 / trellis=2 / 8x8dct=1 / cqm=0 / deadzone=21,11 / fast_pskip=0 / chroma_qp_offset=-2 / threads=12 / lookahead_threads=2 / sliced_threads=0 / nr=0 / decimate=0 / interlaced=0 / bluray_compat=0 / constrained_intra=0 / bframes=8 / b_pyramid=2 / b_adapt=2 / b_bias=0 / direct=3 / weightb=1 / open_gop=0 / weightp=2 / keyint=240 / keyint_min=23 / scenecut=40 / intra_refresh=0 / rc=2pass / mbtree=0 / bitrate=5505 / ratetol=1.0 / qcomp=0.60 / qpmin=0 / qpmax=69 / qpstep=4 / cplxblur=20.0 / qblur=0.5 / ip_ratio=1.40 / pb_ratio=1.30 / aq=1:0.80 Язык : EnglishАудио #1: Идентификатор : 2 Формат : AC-3 Формат/Информация : Audio Coding 3 Расширение режима : CM (complete main) Идентификатор кодека : A_AC3 Продолжительность : 1 ч. 37 м. Вид битрейта : Постоянный Битрейт : 448 Кбит/сек Каналы : 6 каналов Расположение каналов : Front: L C R, Side: L R, LFE Частота : 48,0 КГц Битовая глубина : 16 бит Метод сжатия : С потерями Размер потока : 313 Мбайт (7%) Заголовок : Rus Язык : RussianАудио #2: Идентификатор : 3 Формат : AC-3 Формат/Информация : Audio Coding 3 Расширение режима : CM (complete main) Идентификатор кодека : A_AC3 Продолжительность : 1 ч. 37 м. Вид битрейта : Постоянный Битрейт : 448 Кбит/сек Каналы : 6 каналов Расположение каналов : Front: L C R, Side: L R, LFE Частота : 48,0 КГц Битовая глубина : 16 бит Метод сжатия : С потерями Размер потока : 313 Мбайт (7%) Заголовок : Eng Язык : English 4,37 Gb 81 2 29 января 2016 17:11 Тепло наших тел / Warm Bodies (2013) BDRip от R.G.RealMT | КПК | Open Matte | НТВ .torrent   [Информация о файле (нажмите для просмотра)] Перевод: полное дублирование [студия Пифагор по заказу компании Вест / НТВ+]Субтитры: НетКачество: BDRipФормат: mp4Видео: 1079 kbps, 640x360, 23 fpsАудио: 128 kbps, 2 ch, 44,1 khz 845,22 Mb 2 5 29 января 2016 17:11 Тепло наших тел / Warm Bodies (2013) BDRip-AVC | Open Matte .torrent   [Информация о файле (нажмите для просмотра)] Перевод: Качество: BDRip-AVCФормат: MKVВидео: x.264, 1024x576 (1,78 :1), 23,976 fps, 1835 Kbps, 0.13 bit/pixelАудио: Аудио: Субтитры: русские, английские, softsub (SRT) 1,46 Gb 33 4 29 января 2016 17:11 Тепло наших тел / Warm Bodies (2013) BDRip 1080p от Killbrain and Scarabey | Open Matte | НТВ .torrent   [Информация о файле (нажмите для просмотра)] Перевод: русский профессиональный (полное дублирование)[студия Пифагор по заказу компании Вест / НТВ+]Контейнер: MKVВидео: AVC / / 2 pass / 23,976 fps / 1920x1080p (16:9) / 13,6 Mbps / 0.274Аудио 1: AC3 / 5.1 ch / 448 kbps / Русский дубляж, НТВ+Аудио 2: AC3 / 5.1 ch / 640 kbps / Английский original, BD USСубтитры: [softsub SRT]Видео: Идентификатор : 1 Формат : AVC Формат/Информация : Advanced Video Codec Профиль формата : [email protected] Параметр CABAC формата : Да Параметр ReFrames формата : 4 кадра Идентификатор кодека : V_MPEG4/ISO/AVC Продолжительность : 1 ч. 37 м. Битрейт : 13,6 Мбит/сек Ширина : 1920 пикселей Высота : 1080 пикселей Соотношение сторон : 16:9 Режим частоты кадров : Постоянный Частота кадров : 23,976 кадра/сек Цветовое пространство : YUV Субдискретизация насыщенности : 4:2:0 Битовая глубина : 8 бит Тип развёртки : Прогрессивная Бит/(Пиксели*Кадры) : 0.274 Размер потока : 9,08 Гбайт (91%) Заголовок : Warm Bodies [Open Matte] (2013) Библиотека кодирования : x264 core 138 r2358 9e941d1 Настройки программы : cabac=1 / ref=4 / deblock=1:-3:-3 / analyse=0x3:0x113 / me=umh / subme=10 / psy=1 / psy_rd=1.00:0.15 / mixed_ref=1 / me_range=32 / chroma_me=1 / trellis=2 / 8x8dct=1 / cqm=0 / deadzone=21,11 / fast_pskip=0 / chroma_qp_offset=-3 / threads=3 / lookahead_threads=1 / sliced_threads=0 / nr=0 / decimate=0 / interlaced=0 / bluray_compat=0 / constrained_intra=0 / bframes=8 / b_pyramid=2 / b_adapt=2 / b_bias=0 / direct=3 / weightb=1 / open_gop=0 / weightp=2 / keyint=240 / keyint_min=24 / scenecut=40 / intra_refresh=0 / rc_lookahead=60 / rc=2pass / mbtree=0 / bitrate=13600 / ratetol=1.0 / qcomp=0.65 / qpmin=0 / qpmax=69 / qpstep=4 / cplxblur=20.0 / qblur=0.5 / vbv_maxrate=40000 / vbv_bufsize=30000 / nal_hrd=none / ip_ratio=1.40 / pb_ratio=1.30 / aq=1:0.80 Язык : English Default : Да Forced : НетАудио #1: Идентификатор : 2 Формат : AC-3 Формат/Информация : Audio Coding 3 Расширение режима : CM (complete main) Параметр Endianness формата : Big Идентификатор кодека : A_AC3 Продолжительность : 1 ч. 37 м. Вид битрейта : Постоянный Битрейт : 448 Кбит/сек Каналы : 6 каналов Расположение каналов : Front: L C R, Side: L R, LFE Частота : 48,0 КГц Битовая глубина : 16 бит Метод сжатия : С потерями Размер потока : 313 Мбайт (3%) Заголовок : AC3 / 5.1 ch / 448 kbps / Русский Дубляж, НТВ+ Язык : Russian Default : Да Forced : НетАудио #2: Идентификатор : 3 Формат : AC-3 Формат/Информация : Audio Coding 3 Расширение режима : CM (complete main) Параметр Endianness формата : Big Идентификатор кодека : A_AC3 Продолжительность : 1 ч. 37 м. Вид битрейта : Постоянный Битрейт : 640 Кбит/сек Каналы : 6 каналов Расположение каналов : Front: L C R, Side: L R, LFE Частота : 48,0 КГц Битовая глубина : 16 бит Метод сжатия : С потерями Размер потока : 448 Мбайт (4%) Заголовок : AC3 / 5.1 ch / 640 kbps / Английский Original, BD US Язык : English Default : Нет Forced : Нет 10,02 Gb 10 1 29 января 2016 17:11 Тепло наших тел / Warm Bodies (2013) HDRip от Scarabey | НТВ .torrent   [Информация о файле (нажмите для просмотра)] Перевод: Дубляж - НТВ+Формат: AVIВидео: 720x304 (2.37:1), 23.976 fps, XviD build 73 ~1659 kbps avg, 0.32 bit/pixelАудио №1: 48 kHz, AC3 Dolby Digital, 3/2 (L,C,R,l,r) + LFE ch, ~448.00 kbps avg 1,45 Gb 18 5 29 января 2016 17:11 Тепло наших тел / Warm Bodies (2013) HDRip от Scarabey | НТВ .torrent   [Информация о файле (нажмите для просмотра)] Перевод: Дубляж - НТВ+Формат: AVIВидео: 688x288 (2.39:1), 23.976 fps, XviD build 73 ~928 kbps avg, 0.20 bit/pixelАудио: 48 kHz, MPEG Layer 3, 2 ch, ~128.00 kbps avg 745,47 Mb 7 5 29 января 2016 17:11 Тепло наших тел / Warm Bodies (2013) BDRip от New-Team | D | НТВ .torrent   [Информация о файле (нажмите для просмотра)] Перевод: Профессиональный (дублированный)|НТВ+| (*за запись исходного звука - спасибо BluRayHunter)Видео: 656x272 (2.40:1), 23.976 fps, XviD 65 ~928 kbps avg, 0.217 bit/pixelАудио: 48 kHz, MPEG Layer 3, 2 ch, 128.00 kbps Constant |Дубляж, 744,71 Mb 12 2 29 января 2016 17:11 Тепло наших тел / Warm Bodies (2013) BDRip 720p от Leonardo and Scarabey | НТВ .torrent   [Информация о файле (нажмите для просмотра)] Перевод: Профессиональный (полное дублирование) НТВ+Формат: MKVВидео кодек: MPEG-4 AVC Аудио кодек: AC3Видео: AVC, 1280x534 (2.40:1) at 23.976 fps, AVC at 5292 kbps avg, 0.323 bit/pixelАудио: 48 kHz, AC3 Dolby Digital, 3/2 (L,C,R,l,r) + LFE ch, 448.00 kbps - RussianАудио: 48 kHz, AC3 Dolby Digital, 3/2 (L,C,R,l,r) + LFE ch, 448.00 kbps - EnglishСубтитры: Английские, русские (notabenoid) 4,31 Gb 14 1 29 января 2016 17:11 Тепло наших тел / Warm Bodies (2013) BDRip 1080p от Killbrain .torrent   [Информация о файле (нажмите для просмотра)] Перевод: русский профессиональный (полное дублирование)[НТВ+]Контейнер: MKVВидео: AVC / / 2 pass / 23,976 fps / 1920x800p (2,40:1) / 13,6 Mbps / 0.369Аудио 1: AC3 / 5.1 ch / 448 kbps / Русский дубляж, НТВ+Аудио 2: AC3 / 5.1 ch / 640 kbps / Английский original, BD USСубтитры: [softsub SRT]Видео: Идентификатор : 1 Формат : AVC Формат/Информация : Advanced Video Codec Профиль формата : [email protected] Параметр CABAC формата : Да Параметр ReFrames формата : 4 кадра Идентификатор кодека : V_MPEG4/ISO/AVC Продолжительность : 1 ч. 37 м. Битрейт : 13,6 Мбит/сек Ширина : 1920 пикселей Высота : 800 пикселей Соотношение сторон : 2,40:1 Режим частоты кадров : Постоянный Частота кадров : 23,976 кадра/сек Цветовое пространство : YUV Субдискретизация насыщенности : 4:2:0 Битовая глубина : 8 бит Тип развёртки : Прогрессивная Бит/(Пиксели*Кадры) : 0.369 Размер потока : 9,01 Гбайт (91%) Заголовок : Warm Bodies (2013) Библиотека кодирования : x264 core 138 r2358 9e941d1 Настройки программы : cabac=1 / ref=4 / deblock=1:-3:-3 / analyse=0x3:0x113 / me=umh / subme=10 / psy=1 / psy_rd=1.00:0.15 / mixed_ref=1 / me_range=32 / chroma_me=1 / trellis=2 / 8x8dct=1 / cqm=0 / deadzone=21,11 / fast_pskip=0 / chroma_qp_offset=-3 / threads=3 / lookahead_threads=1 / sliced_threads=0 / nr=0 / decimate=0 / interlaced=0 / bluray_compat=0 / constrained_intra=0 / bframes=8 / b_pyramid=2 / b_adapt=2 / b_bias=0 / direct=3 / weightb=1 / open_gop=0 / weightp=2 / keyint=240 / keyint_min=24 / scenecut=40 / intra_refresh=0 / rc_lookahead=60 / rc=2pass / mbtree=0 / bitrate=13600 / ratetol=1.0 / qcomp=0.65 / qpmin=0 / qpmax=69 / qpstep=4 / cplxblur=20.0 / qblur=0.5 / vbv_maxrate=40000 / vbv_bufsize=30000 / nal_hrd=none / ip_ratio=1.40 / pb_ratio=1.30 / aq=1:0.80 Язык : English Default : Да Forced : НетАудио #1: Идентификатор : 2 Формат : AC-3 Формат/Информация : Audio Coding 3 Расширение режима : CM (complete main) Параметр Endianness формата : Big Идентификатор кодека : A_AC3 Продолжительность : 1 ч. 37 м. Вид битрейта : Постоянный Битрейт : 448 Кбит/сек Каналы : 6 каналов Расположение каналов : Front: L C R, Side: L R, LFE Частота : 48,0 КГц Битовая глубина : 16 бит Метод сжатия : С потерями Размер потока : 313 Мбайт (3%) Заголовок : AC3 / 5.1 ch / 448 kbps / Русский Дубляж, НТВ+ Язык : Russian Default : Да Forced : НетАудио #2: Идентификатор : 3 Формат : AC-3 Формат/Информация : Audio Coding 3 Расширение режима : CM (complete main) Параметр Endianness формата : Big Идентификатор кодека : A_AC3 Продолжительность : 1 ч. 37 м. Вид битрейта : Постоянный Битрейт : 640 Кбит/сек Каналы : 6 каналов Расположение каналов : Front: L C R, Side: L R, LFE Частота : 48,0 КГц Битовая глубина : 16 бит Метод сжатия : С потерями Размер потока : 448 Мбайт (4%) Заголовок : AC3 / 5.1 ch / 640 kbps / Английский Original, BD US Язык : English Default : Нет Forced : Нет 9,95 Gb 11 5 29 января 2016 17:11 Тепло наших тел / Warm Bodies (2013) HDRip от -=HD-NET=- | КПК .torrent   [Информация о файле (нажмите для просмотра)] Перевод: Профессиональный (полное дублирование)Кодек: x264Качество: HDRip | КПКВидео: MPEG-4, 480 х 200, 23,976 fps, 370 Кбит/сЗвук: ААС LC, 2 ch, 128 Кбит/с 349,85 Mb 5 3 29 января 2016 17:11 Тепло наших тел / Warm Bodies (2013) BDRip 720p от DHT-Movies | НТВ .torrent   [Информация о файле (нажмите для просмотра)] Субтитры: ...Русские / Английские UTF-8 (full)Формат: ................. : Mkv 3,97 Gb 4 3 29 января 2016 17:11 Тепло наших тел / Warm Bodies (2013) BDRip-AVC от HELLYWOOD | НТВ .torrent   [Информация о файле (нажмите для просмотра)] Перевод: Профессиональный (полное дублирование) Субтитры: Английские, русские (notabenoid)Качество: BDRip-AVC [Warm Bodies 2013 1080p Blu-ray Remux AVC DTS-HD MA 7.1 - KRaLiMaRKo]Формат: MKVВидео: H.264, 1056x440 (2,40:1), 23,976 кадр/сек, 2305 Кбит/сек, 0.207 bit/pixelАудио#1: 48 kHz, AC3 Dolby Digital, 3/2 (L,C,R,l,r) + LFE ch, 448.00 kbps |RUSАудио#2: 48 kHz, AC3 Dolby Digital, 3/2 (L,C,R,l,r) + LFE ch, 448.00 kbps |ENG 2,19 Gb 9 3 29 января 2016 17:11 Тепло наших тел / Warm Bodies (2013) BDRip от New-Team | D | НТВ .torrent   [Информация о файле (нажмите для просмотра)] Перевод: Профессиональный (дублированный)|НТВ+| (*за запись исходного звука - спасибо BluRayHunter)Видео: 720x304 (2.35:1), 23.976 fps, XviD 65 ~1666 kbps avg, 0.317 bit/pixelАудио: 48 kHz, AC3 Dolby Digital, 3/2 (L,C,R,l,r) + LFE ch, 448.00 kbps Constant |Дубляж, 1,45 Gb 10 1 29 января 2016 17:11 Тепло наших тел / Warm Bodies (2013) BDRip 1080p от NNNB .torrent   [Информация о файле (нажмите для просмотра)] Перевод: ДублированныйКачество: BDRip 1080p (исходник Blu-ray Disc)Видео: 1920x800, 10555 Кбит/сек, 23,976 кадр/сек, AVC, x264, [email protected], 2.40:1, 0.287 Бит/[Пиксели*Кадры], 2passАудио 1: AC-3, 448 Кбит/сек, 6 канала(ов), 48,0 КГц - Дублированный / РусскийАудио 2: AC-3, 640 Кбит/сек, 6 канала(ов), 48,0 КГц - Оригинал / АнглийскийСубтитры: Русские | Полные, Английские | Полные 7,94 Gb 62 14 29 января 2016 17:11 Тепло наших тел / Warm Bodies (2013) BDRip-AVC | D .torrent   [Информация о файле (нажмите для просмотра)] Перевод: Дублированный [студия Пифагор по заказу West]Субтитры: Русский x2, Английский (Full, SDH, SDH-Colored), Испанский, Французкий, ПортугальскийКачество: BDRip-AVCВидео: 1024 x 426, 23.976 fps, 2200 Кбит/сек, 0.210 Bits/PixelАудио #1: AC3, 448 Кбит/сек (6ch), 48,0 КГц, 16 бит [Русский, Дубляж ст. Пифагор]Аудио #2: AC3, 448 Кбит/сек (6ch), 48,0 КГц, 16 бит [Английский]Аудио #3: AC3, 128 Кбит/сек (2ch), 48,0 КГц, 16 бит [Английский-комментарии (Jonathan Levine, Nicholas Hoult & Teresa Palmer)]Видео: Идентификатор : 1 Формат : AVC Формат/Информация : Advanced Video Codec Профиль формата : [email protected] Параметр CABAC формата : Да Параметр ReFrames формата : 8 кадров Идентификатор кодека : V_MPEG4/ISO/AVC Продолжительность : 1 ч. 37 м. Битрейт : 2200 Кбит/сек Ширина : 1024 пикселя Высота : 426 пикселей Соотношение сторон : 2,40:1 Режим частоты кадров : Постоянный Частота кадров : 23,976 кадра/сек Цветовое пространство : YUV Субдискретизация насыщенности : 4:2:0 Битовая глубина : 8 бит Тип развёртки : Прогрессивная Бит/(Пиксели*Кадры) : 0.210 Размер потока : 1,46 Гбайт (66%) Заголовок : Rip by Enigma-Vladislav71 Библиотека кодирования : x264 core 129 r2245 bc13772 Настройки программы : cabac=1 / ref=8 / deblock=1:-2:-2 / analyse=0x3:0x133 / me=umh / subme=11 / psy=1 / psy_rd=1.00:0.00 / mixed_ref=1 / me_range=48 / chroma_me=1 / trellis=2 / 8x8dct=1 / cqm=0 / deadzone=21,11 / fast_pskip=0 / chroma_qp_offset=-2 / threads=3 / lookahead_threads=1 / sliced_threads=0 / nr=0 / decimate=0 / interlaced=0 / bluray_compat=0 / constrained_intra=0 / bframes=8 / b_pyramid=2 / b_adapt=2 / b_bias=0 / direct=3 / weightb=1 / open_gop=0 / weightp=2 / keyint=240 / keyint_min=23 / scenecut=40 / intra_refresh=0 / rc_lookahead=40 / rc=2pass / mbtree=1 / bitrate=2200 / ratetol=1.0 / qcomp=0.60 / qpmin=10 / qpmax=51 / qpstep=4 / cplxblur=20.0 / qblur=0.5 / ip_ratio=1.40 / aq=2:1.00 Язык : English Default : Да Forced : НетАудио #1: Идентификатор : 2 Формат : AC-3 Формат/Информация : Audio Coding 3 Расширение режима : CM (complete main) Параметр Endianness формата : Big Идентификатор кодека : A_AC3 Продолжительность : 1 ч. 37 м. Вид битрейта : Постоянный Битрейт : 448 Кбит/сек Каналы : 6 каналов Расположение каналов : Front: L C R, Side: L R, LFE Частота : 48,0 КГц Битовая глубина : 16 бит Метод сжатия : С потерями Размер потока : 313 Мбайт (14%) Заголовок : AC3.448.Kbps (6ch) Russian (Дубляж ст. Пифагор) Язык : Russian Default : Да Forced : НетАудио #2: Идентификатор : 3 Формат : AC-3 Формат/Информация : Audio Coding 3 Расширение режима : CM (complete main) Параметр Endianness формата : Big Идентификатор кодека : A_AC3 Продолжительность : 1 ч. 37 м. Вид битрейта : Постоянный Битрейт : 448 Кбит/сек Каналы : 6 каналов Расположение каналов : Front: L C R, Side: L R, LFE Частота : 48,0 КГц Битовая глубина : 16 бит Метод сжатия : С потерями Размер потока : 313 Мбайт (14%) Заголовок : AC3.448.Kbps (6ch) English Язык : English Default : Нет Forced : НетАудио #3: Идентификатор : 4 Формат : AC-3 Формат/Информация : Audio Coding 3 Расширение режима : CM (complete main) Параметр Endianness формата : Big Идентификатор кодека : A_AC3 Продолжительность : 1 ч. 37 м. Вид битрейта : Постоянный Битрейт : 128 Кбит/сек Каналы : 2 канала Расположение каналов : Front: L R Частота : 48,0 КГц Битовая глубина : 16 бит Метод сжатия : С потерями Размер потока : 89,5 Мбайт (4%) Заголовок : AC3.128.Kbps (2ch) English (Commentary Jonathan Levine, Nicholas Hoult & Teresa Palmer) Язык : English Default : Нет Forced : Нет 2,2 Gb 13 2 29 января 2016 17:11 Тепло наших тел / Warm Bodies (2013) HDRip | Чистый звук .torrent   [Информация о файле (нажмите для просмотра)] Формат: AVI (XviD)Качество: HDRipВидео: 1666 kb/s, 720x304Аудио: Russian: AC3, 320 kb/s (2 ch) / English: MP3, 128 ks/s (2 ch) 1,45 Gb 311 5 29 января 2016 17:11 Тепло наших тел / Warm Bodies (2013) BDRip-AVC от ExKinoRay | L1 .torrent   [Информация о файле (нажмите для просмотра)] Перевод: Любительский (одноголосый закадровый) |den904|Субтитры: РусскиеКодек: h364Качество: BDRip (AVC) (Blu-Ray Remux (1080p))Видео: MPEG-4 AVC, 2200 Кбит/с, 1024x426Звук: Русский, английский (АС3, 6 ch, 448 Кбит/с)Видео: Идентификатор : 1 Формат : AVC Формат/Информация : Advanced Video Codec Профиль формата : [email protected] Параметр CABAC формата : Да Параметр ReFrames формата : 8 кадров Идентификатор кодека : V_MPEG4/ISO/AVC Продолжительность : 1 ч. 37 м. Битрейт : 2200 Кбит/сек Ширина : 1024 пикс. Высота : 426 пикс. Соотношение сторон : 2,40:1 Частота кадров : 23,976 кадр/сек Цветовое пространство : YUV Подвыборка цветности : 4:2:0 Битовая глубина : 8 бит Тип развёртки : Прогрессивная Бит/(Пиксели*Кадры) : 0.210 Размер потока : 1,46 Гбайт (69%) Заголовок : Rip by Enigma-Vladislav71 Библиотека кодирования : x264 core 129 r2245 bc13772 Настройки программы : cabac=1 / ref=8 / deblock=1:-2:-2 / analyse=0x3:0x133 / me=umh / subme=11 / psy=1 / psy_rd=1.00:0.00 / mixed_ref=1 / me_range=48 / chroma_me=1 / trellis=2 / 8x8dct=1 / cqm=0 / deadzone=21,11 / fast_pskip=0 / chroma_qp_offset=-2 / threads=3 / lookahead_threads=1 / sliced_threads=0 / nr=0 / decimate=0 / interlaced=0 / bluray_compat=0 / constrained_intra=0 / bframes=8 / b_pyramid=2 / b_adapt=2 / b_bias=0 / direct=3 / weightb=1 / open_gop=0 / weightp=2 / keyint=240 / keyint_min=23 / scenecut=40 / intra_refresh=0 / rc_lookahead=40 / rc=2pass / mbtree=1 / bitrate=2200 / ratetol=1.0 / qcomp=0.60 / qpmin=10 / qpmax=51 / qpstep=4 / cplxblur=20.0 / qblur=0.5 / ip_ratio=1.40 / aq=2:1.00 Язык : EnglishАудио #1: Идентификатор : 2 Формат : AC-3 Формат/Информация : Audio Coding 3 Расширение режима : CM (complete main) Идентификатор кодека : A_AC3 Продолжительность : 1 ч. 37 м. Вид битрейта : Постоянный Битрейт : 448 Кбит/сек Каналы : 6 каналов Расположение каналов : Front: L C R, Side: L R, LFE Частота : 48,0 КГц Битовая глубина : 16 бит Метод сжатия : С потерями Размер потока : 313 Мбайт (14%) Язык : RussianАудио #2: Идентификатор : 3 Формат : AC-3 Формат/Информация : Audio Coding 3 Расширение режима : CM (complete main) Идентификатор кодека : A_AC3 Продолжительность : 1 ч. 37 м. Вид битрейта : Постоянный Битрейт : 448 Кбит/сек Каналы : 6 каналов Расположение каналов : Front: L C R, Side: L R, LFE Частота : 48,0 КГц Битовая глубина : 16 бит Метод сжатия : С потерями Размер потока : 313 Мбайт (14%) Язык : English 2,11 Gb 4 4 29 января 2016 17:11 Тепло наших тел / Warm Bodies (2013) BDRip от New-Team | L1 .torrent   [Информация о файле (нажмите для просмотра)] Перевод: Любительский (одноголосый закадровый)|den904|Видео: 720x304 (2.35:1), 23.976 fps, XviD 65 ~1666 kbps avg, 0.317 bit/pixelАудио: 48 kHz, AC3 Dolby Digital, 3/2 (L,C,R,l,r) + LFE ch, 448.00 kbps Constant |Одноголосый закадровый, 1,45 Gb 10 2

gig-torrent.net

Скачать фильм Тепло наших тел через торрент в хорошем качестве бесплатно BDRip

Размер: 2.05 GB | Добавлен: 3 года 10 мес. назад | Торрент скачан:359 раз
Реклама Дарим 3000 рублей за регистрацию, не упусти свой шанс получить шикарный бонус!!!

07-12-2013 17:44 Тепло наших тел Скачать торрент  

Тепло наших тел / Warm BodiesГод выпуска: 2013Страна: СШАСтудия: Summit Entertainment, Make Movies, Mandeville FilmsЖанр: ужасы, мелодрама, комедия

Режиссёр: Джонатан Левин / Jonathan LevineВ ролях: Николас Холт, Тереза Палмер, Анали Типтон, Роб Кордри, Дэйв Франко, Джон Малкович, Кори Хардрикт, Дэниэл Риндресс-Кей, Винсент Леклерк, Клиффорд ЛеДюк-Вайанкур

Продолжительность: 01:37:46Перевод: полное дублирование [студия Пифагор по заказу компании Вест / НТВ+]Субтитры: Нет

Описание: Мир поражен чумой и стоит на грани вымирания. Покойники ходят по земле и норовят употребить в пищу живых, которые, оставшись в катастрофическом меньшинстве, с трудом держат оборону. Перемены начинаются, когда один зомби, чье имя при жизни начиналось на «Р», спасает девушку вместо того, чтобы ее съесть. Дружба, завязавшаяся между представителями враждующих сторон, грозит обоим самыми нехорошими последствиями. Но Р и Джули, сами того не подозревая, держат в руках простой и единственный ключ к спасению гибнущего мира.

Релиз от: R.G.RealMT

Качество: BDRipФормат: AVIВидео кодек: XVIDАудио кодек: MP3 Видео: 2792 kbps, 800x450, 24 fpsАудио: 192 kbps, 2 ch, 44,1 khz

Скачать Тепло наших тел через торрент http://j-p-g.net/if/2013/12/07/0338275001386438027.jpg Скачать фильм Тепло наших тел через торрент бесплантно в хорошем качестве Описание: Мир поражен чумой и стоит на грани вымирания. Покойники ходят по земле и норовят употребить в пищу живых, которые, оставшись в ... 2013-12-07 17:44 9.5 10 17

Loading...

Loading...

% Раздел Тема Автор DL S | L
Фильмы 2013 [DVDrip, WEB-DLRip, HDrip] [ 1.46 GB ] Тепло наших тел / Warm Bodies [2013 HDRip ] Ворон Скачать
Фильмы [HD 720p, 1080p] (Хороший звук DUB, MVO) [ 4.89 GB ] Тепло наших тел / Warm Bodies [2013 BDRip 720p -=DANTE=- Скачать
Видео для КПК и Смартфонов [ 335 MB ] [mp4 320x] Тепло наших тел / Warm Bodies BDRip от R.G.RealMT / КПК / Open Matte / НТВ+ Страна Скачать
Видео для КПК и Смартфонов [ 845 MB ] [mp4 640x] Тепло наших тел / Warm Bodies BDRip от R.G.RealMT / КПК / Open Matte / НТВ+ Страна Скачать
Фильмы 2013 [DVDrip, WEB-DLRip, HDrip] [ 1.45 GB ] Тепло наших тел / Warm Bodies [2013 HDRip DUB] Neftannik Скачать
Фильмы 2013 [DVDrip, WEB-DLRip, HDrip] [ 2.19 GB ] Тепло наших тел / Warm Bodies [2013 BDRip-AVC НТВ potroks Скачать
Фильмы [HD 720p, 1080p] (Хороший звук DUB, MVO) [ 6.92 GB ] Тепло наших тел / Warm Bodies [2013 BDRip 720p [ Ворон Скачать

Рекламный пират

07-12-2013 17:53 Тепло наших тел Скачать торрент  

Дорогой пользователь! Огромная просьба, поблагодарите релизера, оцените раздачу и оставьте свои комментарий, если Вы скачали Тепло наших тел через торрент бесплатно! Внесите свою лепту в развитие PiratBit!

Комментировать посты могут только пользователи прошедшие не сложную регистрацию

Тепло наших тел через торрент Скачать бесплатно Тепло наших тел Тепло наших тел скачать торрент Тепло наших тел смотреть онлайн Cкачать фильм Тепло наших тел бесплатно Тепло наших тел скачать торрент в хорошем качестве Тепло наших тел смотреть онлайн бесплатно в хорошем качестве

Вы можете начинать темыВы можете отвечать на сообщенияВы не можете редактировать свои сообщенияВы не можете удалять свои сообщенияВы не можете голосовать в опросахВы не можете прикреплять файлы к сообщениямВы можете скачивать файлы

piratbit.ru

Скачать фильм Тепло наших тел через торрент в хорошем качестве бесплатно HDRip

Раздают: 1 [ 0 KB/s ]
Размер: 1.45 GB | Добавлен: 4 года 1 мес. назад | Торрент скачан:4958 раз
Реклама Дарим 3000 рублей за регистрацию, не упусти свой шанс получить шикарный бонус!!!

23-09-2013 08:12 Тепло наших тел Скачать торрент  

Тепло наших тел / Warm Bodies Слоган: «Он всё ещё мёртв, но сердце снова бьётся»Год выпуска: 2013Страна: СШАЖанр: ужасы, мелодрама, комедияПродолжительность: 01:37:45Перевод: Дублированный [НТВ+]

Режиссер: Джонатан Левин / Jonathan LevineВ ролях: Николас Холт (R), Тереза Палмер (Julie), Анали Типтон (Nora), Роб Кордри (M), Дэйв Франко (Perry), Джон Малкович (Grigio), Кори Хардрикт (Kevin), Дэниэл Риндресс-Кей (Soldier #1), Винсент Леклерк (Perry's Dad), Клиффорд ЛеДюк-Вайанкур (Boy at Airport), Билли Кальмо (Girl at Airport), Адам Дрисколл (Young Man at ATM)

Описание: Мир поражен чумой и стоит на грани вымирания. Покойники ходят по земле и норовят употребить в пищу живых, которые, оставшись в катастрофическом меньшинстве, с трудом держат оборону. Перемены начинаются, когда один зомби, чье имя при жизни начиналось на «Р», спасает девушку вместо того, чтобы ее съесть. Дружба, завязавшаяся между представителями враждующих сторон, грозит обоим самыми нехорошими последствиями. Но Р и Джули, сами того не подозревая, держат в руках простой и единственный ключ к спасению гибнущего мира.

Рейтингkinopoisk.ru: 7.025 (29 264)imdb.com: 6.90 (98 082)MPAA: PG-13 - Детям до 13 лет просмотр не желателенБюджет: $35 000 000Сборы в США: $66 380 662Сборы в России: $5 902 565Сборы в мире: $116 980 662Мировая премьера: 16 января 2013

  • Качество: HDRip
  • Формат: AVI
  • Видео кодек: XviD
  • Аудио кодек: AC3
  • Видео: XviD, 720x304 (2.35:1), 1660 kbps, 23,976 fps, 0,316 bpp
  • Аудио: AC3 / 5.1 / 48 kHz / 448 kbps / 16 bit [Русский, Дублированный [НТВ+]
    • Фильм снят по мотивам романа Айзека Мариона «Тепло наших тел» (Warm Bodies, 2010).
    • История частично основана на трагедии Шекспира - «Ромео и Джульетта», об этом можно догадаться по именам героев. «Р» - «Ромео», «Джулия» - «Джульетта», «Перри» - «Парис», «М» - «Меркуцио», «Нора» - «медсестра» Джульетты (персонаж Норы в фильме - медсестра).
    • Первоначально Нора должна была быть темнокожей и наполовину эфиопкой, но вместо этого решили взять белокожую актрису (Аналей Типтон).
    Сэмпл / ТрейлерFormat : AVIFormat/Info : Audio Video InterleaveFile size : 1.45 GiBDuration : 1h 37mnOverall bit rate : 2 118 KbpsWriting application : VirtualDubModRus 1.5.10.2 (build 2542/release)Writing library : VirtualDubMod build 2542/release

    VideoID : 0Format : MPEG-4 VisualFormat profile : Advanced [email protected] settings, BVOP : 1Format settings, QPel : NoFormat settings, GMC : No warppointsFormat settings, Matrix : CustomCodec ID : XVIDCodec ID/Hint : XviDDuration : 1h 37mnBit rate : 1 661 KbpsWidth : 720 pixelsHeight : 304 pixelsDisplay aspect ratio : 2.35:1Frame rate : 23.976 fpsColor space : YUVChroma subsampling : 4:2:0Bit depth : 8 bitsScan type : ProgressiveCompression mode : LossyBits/(Pixel*Frame) : 0.316Stream size : 1.13 GiB (78%)Writing library : XviD 73

    AudioID : 1Format : AC-3Format/Info : Audio Coding 3Mode extension : CM (complete main)Codec ID : 2000Duration : 1h 37mnBit rate mode : ConstantBit rate : 448 KbpsChannel(s) : 6 channelsChannel positions : Front: L C R, Side: L R, LFESampling rate : 48.0 KHzBit depth : 16 bitsCompression mode : LossyStream size : 313 MiB (21%)Alignment : Split accross interleavesInterleave, duration : 42 ms (1.00 video frame)Interleave, preload duration : 500 ms

    Скачать Тепло наших тел через торрент http://i5.imageban.ru/out/2013/09/23/f30e292a49a1f682c4eb9a952c787fec.png Скачать фильм Тепло наших тел через торрент бесплантно в хорошем качестве Описание: Мир поражен чумой и стоит на грани вымирания. Покойники ходят по земле и норовят употребить в пищу живых, которые, оставшись в ... 2013-09-23 08:12 9.5 10 131

    Loading...

    Loading...

    Последний раз редактировалось: Neftannik (2013-10-01 08:59), всего редактировалось 1 раз

    Рекламный пират

    24-09-2013 16:06 Тепло наших тел Скачать торрент  

    Отличный фильм!!! :good:

    25-09-2013 06:12 Тепло наших тел Скачать торрент  

    довольно таки забавно

    25-09-2013 08:15 Тепло наших тел Скачать торрент  

    Хороший фильм.

    25-09-2013 16:45 Тепло наших тел Скачать торрент  

    Почему то напомнило чёртовы "Сумерки". Да и ГГ на Роберта Патинсона смахивает.

    26-09-2013 20:52 Тепло наших тел Скачать торрент  

    скорее мелодрама,комедией не пахнет. позитивно,на раз. концовку с девушкой надо смотреть

    28-09-2013 01:13 Тепло наших тел Скачать торрент  

    Главное первые пять минут выдержать. Отличный фильм, спасибо релизеру.

    29-09-2013 14:35 Тепло наших тел Скачать торрент  

    Отличный фильм!!!

    30-09-2013 17:18 Тепло наших тел Скачать торрент  

    Норм

    Pекламный агент PB

    02-10-2013 08:03 Тепло наших тел Скачать торрент  

    02-10-2013 09:23 Тепло наших тел Скачать торрент  

    Бредятина сопливая,для малолеток.Осилил со второго раза и то от нех делать.Предсказуем и с замашкой под Сумерки.

    03-10-2013 14:26 Тепло наших тел Скачать торрент  

    Подобие Сумерек, даже актрисы чем-то похожи:) По моему мнению фильм одноразовый...

    03-10-2013 15:53 Тепло наших тел Скачать торрент  

    КОГДА УЖЕ ЛИЦУХА ВЫЙДЕТ???

    05-10-2013 03:36 Тепло наших тел Скачать торрент  

    Норм фильм. Спасибо.

    05-10-2013 13:50 Тепло наших тел Скачать торрент  

    м-да... ожидал большего...(

    15-10-2013 15:37 Тепло наших тел Скачать торрент  

    Прикольный фильм с новой идеей про зомби..смотреть всем рекомендую - очень понравился (легко, непринужденно и оригинально).

    Дорогой пользователь! Огромная просьба, поблагодарите релизера, оцените раздачу и оставьте свои комментарий, если Вы скачали Тепло наших тел через торрент бесплатно! Внесите свою лепту в развитие PiratBit!

    Комментировать посты могут только пользователи прошедшие не сложную регистрацию

    Тепло наших тел через торрент Скачать бесплатно Тепло наших тел Тепло наших тел скачать торрент Тепло наших тел смотреть онлайн Cкачать фильм Тепло наших тел бесплатно Тепло наших тел скачать торрент в хорошем качестве Тепло наших тел смотреть онлайн бесплатно в хорошем качестве

    Вы не можете начинать темыВы не можете отвечать на сообщенияВы не можете редактировать свои сообщенияВы не можете удалять свои сообщенияВы не можете голосовать в опросахВы не можете прикреплять файлы к сообщениямВы можете скачивать файлы

    piratbit.ru

    Скачать фильм Тепло наших тел через торрент в хорошем качестве бесплатно HDRip

    Размер: 1.46 GB | Добавлен: 3 года 3 мес. назад | Торрент скачан:308 раз
    Реклама Дарим 3000 рублей за регистрацию, не упусти свой шанс получить шикарный бонус!!!

    07-07-2014 13:58 Тепло наших тел Скачать торрент  

    Тепло наших тел / Warm Bodies «Он всё ещё мёртв, но сердце снова бьётся»✦ Год выпуска: 2013✦ Страна: США, Канада✦ Жанр:ужасы, мелодрама, комедия✦ Продолжительность:01:37:45✦ Перевод:Дубляж - [Лицензия / iTunes]✦ Субтитры: Нет✦ Режиссер:Джонатан Левин / Jonathan Levine
  • В ролях: Николас Холт (R), Тереза Палмер (Julie), Анали Типтон (Nora), Роб Кордри (M), Дэйв Франко (Perry), Джон Малкович (Grigio), Кори Хардрикт (Kevin), Дэниэл Риндресс-Кей (Soldier #1), Винсент Леклерк (Perry's Dad), Клиффорд ЛеДюк-Вайанкур (Boy at Airport), Билли Кальмо (Girl at Airport), Адам Дрисколл (Young Man at ATM)
  • Описание:Мир поражен чумой и стоит на грани вымирания. Покойники ходят по земле и норовят употребить в пищу живых, которые, оставшись в катастрофическом меньшинстве, с трудом держат оборону. Перемены начинаются, когда один зомби, чье имя при жизни начиналось на «Р», спасает девушку вместо того, чтобы ее съесть. Дружба, завязавшаяся между представителями враждующих сторон, грозит обоим самыми нехорошими последствиями. Но Р и Джули, сами того не подозревая, держат в руках простой и единственный ключ к спасению гибнущего мира.
  • Мировая премьера:16 января 2013
      ✦ Качество: HDRip✦ Формат: AVI✦ Видео кодек: XviD✦ Аудио кодек:AC3✦ Видео: XviD, 720x304 (2.35:1), 1743 kbps, 23,976 fps, 0,332 bpp✦ Аудио: AC3 / 5.1 / 48 kHz / 384 kbps / 16 bit

    Код:

    GeneralComplete name                            : D:\Торенты\Тепло наших тел.aviFormat                                   : AVIFormat/Info                              : Audio Video InterleaveFile size                                : 1.46 GiBDuration                                 : 1h 37mnOverall bit rate                         : 2 137 KbpsWriting application                      : VirtualDubMod 1.5.10.2 (build 2540/release)Writing library                          : VirtualDubMod build 2540/release

    VideoID                                       : 0Format                                   : MPEG-4 VisualFormat profile                           : Advanced [email protected] settings, BVOP                    : 2Format settings, QPel                    : NoFormat settings, GMC                     : No warppointsFormat settings, Matrix                  : Default (MPEG)Codec ID                                 : XVIDCodec ID/Hint                            : XviDDuration                                 : 1h 37mnBit rate                                 : 1 744 KbpsWidth                                    : 720 pixelsHeight                                   : 304 pixelsDisplay aspect ratio                     : 2.35:1Frame rate                               : 23.976 fpsColor space                              : YUVChroma subsampling                       : 4:2:0Bit depth                                : 8 bitsScan type                                : ProgressiveCompression mode                         : LossyBits/(Pixel*Frame)                       : 0.332Stream size                              : 1.19 GiB (82%)Writing library                          : XviD 1.2.1 (UTC 2008-12-04)

    AudioID                                       : 1Format                                   : AC-3Format/Info                              : Audio Coding 3Mode extension                           : CM (complete main)Codec ID                                 : 2000Duration                                 : 1h 37mnBit rate mode                            : ConstantBit rate                                 : 384 KbpsChannel(s)                               : 6 channelsChannel positions                        : Front: L C R, Side: L R, LFESampling rate                            : 48.0 KHzBit depth                                : 16 bitsCompression mode                         : LossyStream size                              : 269 MiB (18%)Alignment                                : Split accross interleavesInterleave, duration                     : 42 ms (1.00 video frame)Interleave, preload duration             : 500 ms

    Скриншоты: Каталог Новинок (Фильмы-трейлеры, Игры, Сериалы, Мультфильмы) © Оформление by Raven
  • Скачать Тепло наших тел через торрент http://i64.fastpic.ru/big/2014/0707/b3/5b8d4f56f1a9c608b81246f8072bb0b3.jpg Скачать фильм Тепло наших тел через торрент бесплантно в хорошем качестве Описание:Мир поражен чумой и стоит на грани вымирания. Покойники ходят по земле и норовят употребить в пищу живых, которые, оставшись в ... 2014-07-07 14:00 10 10 16

    Loading...

    Loading...

    Рекламный пират

    07-07-2014 15:06 Тепло наших тел Скачать торрент  

    Отличный фильм.

    08-07-2014 15:51 Тепло наших тел Скачать торрент  

    Цитата:

    Дружба, завязавшаяся между представителями враждующих сторон

    Цитата:

    Р и Джули

    Намёк на Ромео и Джульету? :)

    Дорогой пользователь! Огромная просьба, поблагодарите релизера, оцените раздачу и оставьте свои комментарий, если Вы скачали Тепло наших тел через торрент бесплатно! Внесите свою лепту в развитие PiratBit!

    Комментировать посты могут только пользователи прошедшие не сложную регистрацию

    Тепло наших тел через торрент Скачать бесплатно Тепло наших тел Тепло наших тел скачать торрент Тепло наших тел смотреть онлайн Cкачать фильм Тепло наших тел бесплатно Тепло наших тел скачать торрент в хорошем качестве Тепло наших тел смотреть онлайн бесплатно в хорошем качестве

    Вы не можете начинать темыВы не можете отвечать на сообщенияВы не можете редактировать свои сообщенияВы не можете удалять свои сообщенияВы не можете голосовать в опросахВы не можете прикреплять файлы к сообщениямВы можете скачивать файлы

    piratbit.ru


    Смотрите также