Скачать скорый москва россия через торрент в хорошем качестве через торрент


Скачать фильм Скорый «Москва-Россия» (2014) через торрент

gig-torrent.net

16 февраля 2016 07:37 Скорый «Москва-Россия» (2014) BDRip 720p | KinoGadget | iPad .torrent   [Информация о файле (нажмите для просмотра)] Перевод: Оригинал (русский)Качество: BDRip 720pФормат: mp4 1,76 Gb 33 2
16 февраля 2016 07:37 Скорый «Москва-Россия» (2014) DVD5 от New-Team | Лицензия .torrent   [Информация о файле (нажмите для просмотра)] Перевод: Оригинал [Лицензия]Кодек: MPEG2Качество: DVD5 R5Видео: PAL 16:9 (720x576(0.641)) MPEG Video, 25,000 кадр/сек, 6641 Кбит/секЗвук: Russian (Dolby AC3, 6 ch) 448 Кбит/сек, 48,0 КГцСубтитры: украинскиеВидео: Идентификатор : 224 (0xE0) Формат : MPEG Video Версия формата : Version 2 Профиль формата : [email protected] Параметр BVOP формата : Да Параметр матрицы формата : Выборочная Параметр GOP формата : Variable Format_Settings_PictureStructure : Frame Продолжительность : 19 м. Вид битрейта : Переменный Битрейт : 6641 Кбит/сек Максимальный битрейт : 9000 Кбит/сек Ширина : 720 пикселей Высота : 576 пикселей Соотношение сторон : 16:9 Частота кадров : 25,000 кадров/сек Стандарт вещания : PAL Цветовое пространство : YUV Субдискретизация насыщенности : 4:2:0 Битовая глубина : 8 бит Тип развёртки : Чересстрочная Порядок развёртки : Верхнее поле первое Метод сжатия : С потерями Бит/(Пиксели*Кадры) : 0.641 Временной код первого кадра : 00:20:57:02 Оригинал временного кода : Group of pictures header Размер потока : 940 Мбайт (92%)Аудио: Идентификатор : 189 (0xBD)-128 (0x80) Формат : AC-3 Формат/Информация : Audio Coding 3 Расширение режима : CM (complete main) Параметр Endianness формата : Big Режим смешивания : DVD-Video Продолжительность : 19 м. Вид битрейта : Постоянный Битрейт : 448 Кбит/сек Каналы : 6 каналов Расположение каналов : Front: L C R, Side: L R, LFE Частота : 48,0 КГц Битовая глубина : 16 бит Метод сжатия : С потерями Задержка видео : -408 мс. Размер потока : 63,4 Мбайт (6%) 4,13 Gb 28 1
16 февраля 2016 07:37 Скорый «Москва-Россия» (2014) HDRip от ImperiaFilm | КПК .torrent   [Информация о файле (нажмите для просмотра)] Качество: HDRip | КПК (BDRip 720p)Видео: кодеккодек: x264,формат: mp4,размер кадра: 480x208, битрейт: 350 кб/сАудио: языкрусский, перевод: оригинал, 289,4 Mb 23 2
16 февраля 2016 07:37 Скорый «Москва-Россия» (2014) BDRip 720p от Leonardo and Scarabey .torrent   [Информация о файле (нажмите для просмотра)] Формат: MKVВидео кодек: MPEG-4 AVC Аудио кодек: AC3Видео: AVC, 1280x550 (2.35:1) at 25.000 fps, AVC at 4494 kbps avg, 0.255 bit/pixelАудио: Russian: 48 kHz; AC3 5.1; 448.00 kbps avg 2,98 Gb 62 5
16 февраля 2016 07:37 Скорый «Москва-Россия» (2014) BDRip-AVC от Leonardo and Scarabey .torrent   [Информация о файле (нажмите для просмотра)] Формат: MKVВидео кодек: MPEG-4 AVC Аудио кодек: AC3Видео: AVC, 1024x440 (2.35:1) at 25.000 fps, AVC at 2507 kbps avg, 0.223 bit/pixelАудио: Russian: 48 kHz; AC3 5.1; 448.00 kbps avg 1,78 Gb 19 2
16 февраля 2016 07:37 Скорый «Москва-Россия» (2014) BDRip-AVC от HELLYWOOD | Лицензия .torrent   [Информация о файле (нажмите для просмотра)] Перевод: Оригинал [лицензия BD RUS]Субтитры: НетКачество: BDRip-AVCФормат: MKVВидео: х.264, 928x400 (2,35:1), 25,000 fps, 2277 Кbps, 0.245 bit/pixelАудио: 48 kHz, AC3 Dolby Digital, 2/0 (L,R) ch, 192.00 kbps 1,46 Gb 16 4
16 февраля 2016 07:37 Скорый «Москва-Россия» (2014) BDRip от HQCLUB | Лицензия .torrent   [Информация о файле (нажмите для просмотра)] Субтитры: нетФормат: AVIКачество: BDRip (источник:Видео: 720x304 (2.37:1), 25 fps, XviD build 65 ~1997 kbps avg, 0.36 bit/pixelАудио: 48 kHz, AC3 Dolby Digital, 3/2 (L,C,R,l,r) + LFE ch, ~448 kbps avg 1,45 Gb 1423 12
16 февраля 2016 07:37 Скорый «Москва-Россия» (2014) ВDRip-AVC от RG WazZzuP | Лицензия .torrent   [Информация о файле (нажмите для просмотра)] Перевод: Не требуется Субтитры: ОтсутствуютКачество: ВDRip-AVC(Скорый Москва-Россия / 2014 / РУ / Blu-Ray (1080i)Формат: MKVВидео: 720x310 (2,35:1), 25,000 fps, x264 ~ 1115 kbps avg, 0.200 bit/pixelАудио: 48 / 24,0 kHz, HE-AAC / LC, 2 ch, ~128 kbps avgВидео: Идентификатор : 1 Формат : AVC Формат/Информация : Advanced Video Codec Профиль формата : [email protected] Параметр CABAC формата : Да Параметр ReFrames формата : 13 кадров Идентификатор кодека : V_MPEG4/ISO/AVC Продолжительность : 1 ч. 24 м. Номинальный битрейт : 1115 Кбит/сек Ширина : 720 пикселей Высота : 310 пикселей Соотношение сторон : 2,35:1 Режим частоты кадров : Постоянный Частота кадров : 25,000 кадров/сек Цветовое пространство : YUV Субдискретизация насыщенности : 4:2:0 Битовая глубина : 8 бит Тип развёртки : Прогрессивная Бит/(Пиксели*Кадры) : 0.200 Заголовок : by Vovan1979(RG WazZzuP) Библиотека кодирования : x264 core 130 r2273 b3065e6 Настройки программы : cabac=1 / ref=13 / deblock=1:-1:-1 / analyse=0x3:0x113 / me=umh / subme=11 / psy=1 / psy_rd=1.00:0.15 / mixed_ref=1 / me_range=36 / chroma_me=1 / trellis=2 / 8x8dct=1 / cqm=0 / deadzone=21,11 / fast_pskip=1 / chroma_qp_offset=-3 / threads=6 / lookahead_threads=1 / sliced_threads=0 / nr=0 / decimate=1 / interlaced=0 / bluray_compat=0 / constrained_intra=0 / bframes=8 / b_pyramid=2 / b_adapt=2 / b_bias=0 / direct=3 / weightb=1 / open_gop=0 / weightp=2 / keyint=250 / keyint_min=25 / scenecut=40 / intra_refresh=0 / rc_lookahead=40 / rc=2pass / mbtree=1 / bitrate=1115 / ratetol=1.0 / qcomp=0.60 / qpmin=0 / qpmax=69 / qpstep=4 / cplxblur=20.0 / qblur=0.5 / ip_ratio=1.40 / aq=1:1.00 Default : Да Forced : НетАудио: Идентификатор : 2 Формат : AAC Формат/Информация : Advanced Audio Codec Профиль формата : HE-AAC / LC Идентификатор кодека : A_AAC Продолжительность : 1 ч. 24 м. Каналы : 2 канала Расположение каналов : Front: L R Частота : 48,0 КГц / 24,0 КГц Метод сжатия : С потерями Задержка видео : 31 мс. Заголовок : Лицензия. 128 кбит/с Язык : Russian Default : Да Forced : Нет 753,08 Mb 33 2
16 февраля 2016 07:37 Скорый «Москва-Россия» (2014) BDRip от ivandubskoj .torrent   [Информация о файле (нажмите для просмотра)] Перевод: Не требуетсяКодек: XviDКачество: BDRip (Исходник: Blu-Ray Remux (1080i) от ExKinoRay)Видео: XviD, 704x304 (2.35:1), 25 кадр/с, 2014 Кбит/сЗвук: Русский, Dolby AC3, 48000 Гц, 448 Кбит/с, 6 каналов (5.1)Субтитры: Нет 1,46 Gb 400 22
16 февраля 2016 07:37 Скорый «Москва-Россия» (2014) BDRip 1080p от MediaClub | Лицензия .torrent   [Информация о файле (нажмите для просмотра)] Качество: BDRip 1080pВидео: MPEG-4 AVC, 10500 Кбит/с, 1920x820, 25.000 кадр/сАудио #1: Русский (DTS, 6 ch, 1509 Кбит/с)Аудио #2: Русский (AC3, 6 ch, 640 Кбит/с)Видео: Идентификатор : 1 Формат : AVC Формат/Информация : Advanced Video Codec Профиль формата : [email protected] Параметр CABAC формата : Да Параметр ReFrames формата : 5 кадров Идентификатор кодека : V_MPEG4/ISO/AVC Продолжительность : 1 ч. 24 м. Битрейт : 10,5 Мбит/сек Ширина : 1920 пикселей Высота : 820 пикселей Соотношение сторон : 2,35:1 Режим частоты кадров : Постоянный Частота кадров : 25,000 кадров/сек Цветовое пространство : YUV Субдискретизация насыщенности : 4:2:0 Битовая глубина : 8 бит Тип развёртки : Прогрессивная Бит/(Пиксели*Кадры) : 0.267 Размер потока : 6,05 Гбайт (81%) Заголовок : -=MediaClub-kaspr=- Библиотека кодирования : x264 core 142 r2431+42 c69a006 tMod [[email protected]:2:0 X86_64] Настройки программы : cabac=1 / ref=5 / deblock=1:-3:-3 / analyse=0x3:0x113 / me=umh / subme=11 / psy=1 / fade_compensate=0.00 / psy_rd=1.00:0.20 / mixed_ref=1 / me_range=32 / chroma_me=1 / trellis=2 / 8x8dct=1 / cqm=0 / deadzone=21,11 / fast_pskip=0 / chroma_qp_offset=-3 / threads=12 / lookahead_threads=2 / sliced_threads=0 / nr=0 / decimate=0 / interlaced=0 / bluray_compat=0 / constrained_intra=0 / fgo=0 / bframes=8 / b_pyramid=2 / b_adapt=2 / b_bias=0 / direct=3 / weightb=1 / open_gop=0 / weightp=2 / keyint=250 / keyint_min=25 / scenecut=40 / intra_refresh=0 / rc=2pass / mbtree=0 / bitrate=10500 / ratetol=1.0 / qcomp=0.60 / qpmin=0:0:0 / qpmax=69:69:69 / qpstep=4 / cplxblur=20.0 / qblur=0.5 / ip_ratio=1.40 / pb_ratio=1.30 / aq=4:0.80 / aq-sensitivity=10.00 / aq-factor=1.00:1.00:1.00 / aq2=0 / aq3=0 Default : Да Forced : ДаАудио #1: Идентификатор : 2 Формат : DTS Формат/Информация : Digital Theater Systems Режим : 16 Параметр Endianness формата : Big Идентификатор кодека : A_DTS Продолжительность : 1 ч. 24 м. Вид битрейта : Постоянный Битрейт : 1509 Кбит/сек Каналы : 6 каналов Расположение каналов : Front: L C R, Side: L R, LFE Частота : 48,0 КГц Битовая глубина : 24 бит Метод сжатия : С потерями Размер потока : 914 Мбайт (12%) Заголовок : DTS Язык : Russian Default : Да Forced : ДаАудио #2: Идентификатор : 3 Формат : AC-3 Формат/Информация : Audio Coding 3 Расширение режима : CM (complete main) Параметр Endianness формата : Big Идентификатор кодека : A_AC3 Продолжительность : 1 ч. 24 м. Вид битрейта : Постоянный Битрейт : 640 Кбит/сек Каналы : 6 каналов Расположение каналов : Front: L C R, Side: L R, LFE Частота : 48,0 КГц Битовая глубина : 16 бит Метод сжатия : С потерями Размер потока : 388 Мбайт (5%) Заголовок : AC3 Язык : Russian Default : Нет Forced : Нет 7,47 Gb 49 6
16 февраля 2016 07:37 Скорый «Москва-Россия» (2014) BDRemux 1080i от ExKinoRay | Лицензия .torrent   [Информация о файле (нажмите для просмотра)] Качество: Blu-Ray Remux (1080i)Видео: MPEG-4 AVC, 27558 Кбит/с, 1920x1080, 25 кадр/сАудио: AC3, 6 ch, 640 Кбит/с, DTS-HD MA, 6 ch, 4058 Кбит/сВидео: Идентификатор : 1 Формат : AVC Формат/Информация : Advanced Video Codec Профиль формата : [email protected] Параметр CABAC формата : Да Параметр ReFrames формата : 4 кадра Параметр GOP формата : M=3, N=24 Идентификатор кодека : V_MPEG4/ISO/AVC Продолжительность : 1 ч. 24 м. Вид битрейта : Переменный Максимальный битрейт : 37,0 Мбит/сек Ширина : 1920 пикселей Высота : 1080 пикселей Соотношение сторон : 16:9 Режим частоты кадров : Постоянный Частота кадров : 25,000 кадров/сек Стандарт вещания : PAL Цветовое пространство : YUV Субдискретизация насыщенности : 4:2:0 Битовая глубина : 8 бит Тип развёртки : MBAFF Язык : Russian Default : Да Forced : Нет Основные цвета : BT.709 Характеристики трансфера : BT.709 Коэффициенты матрицы : BT.709Аудио #1: Идентификатор : 2 Формат : AC-3 Формат/Информация : Audio Coding 3 Расширение режима : CM (complete main) Параметр Endianness формата : Big Идентификатор кодека : A_AC3 Продолжительность : 1 ч. 24 м. Вид битрейта : Постоянный Битрейт : 640 Кбит/сек Каналы : 6 каналов Расположение каналов : Front: L C R, Side: L R, LFE Частота : 48,0 КГц Битовая глубина : 16 бит Метод сжатия : С потерями Размер потока : 388 Мбайт (2%) Язык : Russian Default : Да Forced : НетАудио #2: Идентификатор : 3 Формат : DTS Формат/Информация : Digital Theater Systems Профиль формата : MA / Core Режим : 16 Параметр Endianness формата : Big Идентификатор кодека : A_DTS Продолжительность : 1 ч. 24 м. Вид битрейта : Переменный Битрейт : Неизвестно / 1509 Кбит/сек Каналы : 6 каналов Расположение каналов : Front: L C R, Side: L R, LFE Частота : 48,0 КГц Битовая глубина : 24 бит Метод сжатия : Без потерь / Lossy Язык : Russian Default : Нет Forced : Нет 19,08 Gb 17 6
16 февраля 2016 07:37 Скорый «Москва-Россия» (2014) HDRip-AVC от ExKinoRay | Лицензия .torrent   [Информация о файле (нажмите для просмотра)] Качество: HDRip (AVC)Видео: MPEG-4 AVC, 2122 Kбит/с, 1024x440Аудио: AC3, 6 ch, 448 Кбит/с 1,52 Gb 30 4
16 февраля 2016 07:37 Скорый «Москва-Россия» (2014) HDRip | Лицензия .torrent   [Информация о файле (нажмите для просмотра)] Формат: AVI (XviD)Качество: HDRip [Рип с BDRip 720p]Видео: 1017 Kb/s, 720x304Аудио: AC3, 128 Kb/s (2 ch) 699,44 Mb 37 3
16 февраля 2016 07:37 Скорый «Москва-Россия» (2014) BDRip 720p | Лицензия .torrent   [Информация о файле (нажмите для просмотра)] Формат: MKVКачество: BDRip 720pВидео: MPEG-4 AVC, 5398 Kb/s, 1280x552Аудио: DTS, 1509 Kb/s (6 ch) 4,17 Gb 267 8
16 февраля 2016 07:37 Скорый «Москва-Россия» (2014) DVDRip от MediaClub | КПК .torrent   [Информация о файле (нажмите для просмотра)] Перевод: ОригиналКодек: MPEG-4Качество: DVDRipВидео: 498 Кбит/с, 320x128, 25.000 кадр/сЗвук: Русский (AAC, 2 ch, 128 Кбит/с) 382,07 Mb 17 5

Скачать фильм Скорый «Москва-Россия» через торрент в хорошем качестве бесплатно BDRip

piratbit.ru

Раздают: 3 [ 35 KB/s ]
Размер: 1.46 GB | Добавлен: 1 год 5 мес. назад | Торрент скачан:375 раз
Реклама Дарим 3000 рублей за регистрацию, не упусти свой шанс получить шикарный бонус!!!

06-05-2016 17:07 Скорый «Москва-Россия» Скачать торрент  

Скорый «Москва-Россия» «Русские не сдаются!» ✦ Год выпуска: 2014✦ Страна:Россия✦ Жанр:комедия, приключения✦ Продолжительность:01:24:33✦ Перевод:Не требуется ✦ Субтитры: Нет✦ Режиссер: Игорь Волошин
  • В ролях: Сергей Светлаков (Сергей), Маргарита Левиева (Мила), Павел Деревянко (Алексей), Майкл Мэдсен (агент), Ингеборга Дапкунайте (Анна), Спартак Кондауров (Крепыш), Максим Голополосов (друг Сергея), Иван Ургант (играет самого себя), Виктор Проскурин (Грызодуб), Ольга Симонова (женщина на пристани), Артур Гуренян (кавказец), Мария Шалаева (продавец семечек)
  • Описание:Это история про парня, который душу готов продать, лишь бы набрать миллион просмотров для своего видео на YouTube. На пути к своей цели он оказывается в скором поезде «Москва - Владивосток», где сталкивается с американской актрисой, страдающей аэрофобией. В пути незнакомцев ожидают такие приключения, что они отстают от поезда, который пытаются догнать, продвигаясь по нашей непредсказуемой и сказочной России-матушке... Ведь каждому из них нужно оказаться во Владивостоке ровно через 7 дней - по причинам, которые они тщательно скрывают друг от друга.
  • Мировая премьера:17 апреля 2014
      ✦ Качество: BDRip✦ Формат: AVI

      ✦ Видео: XviD, 704x304 (2.35:1), 25 кадр/с, 2014 Кбит/с✦ Аудио: Русский, Dolby AC3, 48000 Гц, 448 Кбит/с, 6 каналов (5.1)Автор рипа - ivandubskoj

    Скриншоты: Каталог Новинок (Фильмы-трейлеры, Игры, Сериалы, Мультфильмы) © Оформление by Raven
  • Скачать Скорый «Москва-Россия» через торрент http://pic.pb.wtf/images/6/stazu.jpg Скачать фильм Скорый «Москва-Россия» через торрент бесплантно в хорошем качестве Описание:Это история про парня, который душу готов продать, лишь бы набрать миллион просмотров для своего видео на YouTube. На пути к своей ... 2016-05-06 17:07 8.4 10 13

    Loading...

    Loading...

    Рекламный пират

    06-05-2016 17:22 Скорый «Москва-Россия» Скачать торрент  

    такой лютый треш..похуже чем всё остальное от камеди

    06-05-2016 17:44 Скорый «Москва-Россия» Скачать торрент  

    фильм - кусок говна.

    06-05-2016 18:17 Скорый «Москва-Россия» Скачать торрент  

    Неплохой кин, мне понравился.

    06-05-2016 18:38 Скорый «Москва-Россия» Скачать торрент  

    Сколько же Мэдсену бабла отвалили что он в дерьмо решил вписаться...

    06-05-2016 19:36 Скорый «Москва-Россия» Скачать торрент  

    Viktor VV писал(а):

    фильм - кусок говна.

    Согласен на сто процентов

    07-05-2016 11:15 Скорый «Москва-Россия» Скачать торрент  

    Viktor VV писал(а):

    фильм - кусок говна.

    Всего кусок ? Хвалите что-ли ?

    Дорогой пользователь! Огромная просьба, поблагодарите релизера, оцените раздачу и оставьте свои комментарий, если Вы скачали Скорый «Москва-Россия» через торрент бесплатно! Внесите свою лепту в развитие PiratBit!

    Комментировать посты могут только пользователи прошедшие не сложную регистрацию

    Скорый «Москва-Россия» через торрент Скачать бесплатно Скорый «Москва-Россия» Скорый «Москва-Россия» скачать торрент Скорый «Москва-Россия» смотреть онлайн Cкачать фильм Скорый «Москва-Россия» бесплатно Скорый «Москва-Россия» скачать торрент в хорошем качестве Скорый «Москва-Россия» смотреть онлайн бесплатно в хорошем качестве

    Вы не можете начинать темыВы не можете отвечать на сообщенияВы не можете редактировать свои сообщенияВы не можете удалять свои сообщенияВы не можете голосовать в опросахВы не можете прикреплять файлы к сообщениямВы можете скачивать файлы

    Скачать фильм Скорый «Москва-Россия» через торрент в хорошем качестве бесплатно 2014 г.

    piratbit.ru

    Размер: 1.37 GB | Добавлен: 3 года 5 мес. назад | Торрент скачан:2065 раз
    Реклама Дарим 3000 рублей за регистрацию, не упусти свой шанс получить шикарный бонус!!!

    09-05-2014 06:51 Скорый «Москва-Россия» Скачать торрент  

    Скорый «Москва-Россия»

    Год выпуска: 2014Страна: РоссияЖанр: комедия, приключенияПродолжительность: 01:24:34

    Режиссер: Игорь ВолошинПродюссер: Александр Орлов, Игорь Волошин, Сергей СветлаковСценарий: Денис Родимин, Сергей Светлаков, Игорь Волошин

    http://www.kinopoisk.ru/film/705436/

    В ролях: Сергей Светлаков, Маргарита Левиева, Павел Деревянко, Майкл Мэдсен, Ингеборга Дапкунайте, Спартак Кондауров, Максим Голополосов, Иван Ургант, Виктор Проскурин, Ольга Симонова

    Описание: Это история про парня, который душу готов продать, лишь бы набрать миллион просмотров для своего видео на YouTube. На пути к своей цели он оказывается в скором поезде «Москва — Владивосток», где сталкивается с американской актрисой, страдающей аэрофобией. В пути незнакомцев ожидают такие приключения, что они отстают от поезда, который пытаются догнать, продвигаясь по нашей непредсказуемой и сказочной России-матушке… Ведь каждому из них нужно оказаться во Владивостоке ровно через 7 дней — по причинам, которые они тщательно скрывают друг от друга.

    Качество: TeleSynchФормат: AVIВидео кодек: XviDАудио кодек: AC3Видео: 720x304 (2.37:1), 29.970 fps, XviD build 73 ~2113 kbps avg, 0.32 bit/pixelАудио#1: 48 kHz, AC3 Dolby Digital, 2/0 (L,R) ch, ~192 kbps

    Скачать Скорый «Москва-Россия» через торрент http://pic.pb.wtf/new/img/2014-05/09/6sksnxgx23liqk7wz7pcu8zmq.png Скачать фильм Скорый «Москва-Россия» через торрент бесплантно в хорошем качестве Описание: Это история про парня, который душу готов продать, лишь бы набрать миллион просмотров для своего видео на YouTube. На пути к ... 2014-05-10 22:58 9.3 10 77

    Loading...

    Loading...

    Рекламный пират

    09-05-2014 07:04 Скорый «Москва-Россия» Скачать торрент  

    Первый !!! :sarcastic_blum:

    09-05-2014 07:17 Скорый «Москва-Россия» Скачать торрент  

    Ме4татель писал(а):

    Первый !!! :sarcastic_blum:

    Как фильм то, Первый???

    09-05-2014 07:33 Скорый «Москва-Россия» Скачать торрент  

    09-05-2014 07:45 Скорый «Москва-Россия» Скачать торрент  

    Встаньте на раздачу

    09-05-2014 07:57 Скорый «Москва-Россия» Скачать торрент  

    viktorius писал(а):

    http://6.firepic.org/6/images/2014-05/09/2ghq1rl97x9t.png

    танкист???? :hunter:

    09-05-2014 08:31 Скорый «Москва-Россия» Скачать торрент  

    жду в качестве получше, спасибо релизер

    09-05-2014 09:18 Скорый «Москва-Россия» Скачать торрент  

    Фильм то как стоит внимания или нет ????

    09-05-2014 10:11 Скорый «Москва-Россия» Скачать торрент  

    сссссссссссспппппппсссссссссссссс!

    Pекламный агент PB

    09-05-2014 11:31 Скорый «Москва-Россия» Скачать торрент  

    прикольный фильм -а вот качество...

    11-05-2014 13:50 Скорый «Москва-Россия» Скачать торрент  

    хороший фильмец-посмеялись хоть в кои веки-а то жеть комедии то наши последние не стоят внимания даже-светлаков красава и в горько-блестяще сыграл-к просмотру

    11-05-2014 14:00 Скорый «Москва-Россия» Скачать торрент  

    фильм хорош. можно глянуть...

    12-05-2014 07:20 Скорый «Москва-Россия» Скачать торрент  

    14-05-2014 22:22 Скорый «Москва-Россия» Скачать торрент  

    бред... ожидал большего, сартирный юмор процветает, ещё бы кАнчиту сюда в фильм приписали, в дополнение к тупорылым шуткам... хрень. Может и понравится фанатам Светлакова, но я таковым не являюсь.

    25-05-2014 20:58 Скорый «Москва-Россия» Скачать торрент  

    сори. А когда качество будет хорошее?

    Дорогой пользователь! Огромная просьба, поблагодарите релизера, оцените раздачу и оставьте свои комментарий, если Вы скачали Скорый «Москва-Россия» через торрент бесплатно! Внесите свою лепту в развитие PiratBit!

    Комментировать посты могут только пользователи прошедшие не сложную регистрацию

    Скорый «Москва-Россия» через торрент Скачать бесплатно Скорый «Москва-Россия» Скорый «Москва-Россия» скачать торрент Скорый «Москва-Россия» смотреть онлайн Cкачать фильм Скорый «Москва-Россия» бесплатно Скорый «Москва-Россия» скачать торрент в хорошем качестве Скорый «Москва-Россия» смотреть онлайн бесплатно в хорошем качестве

    Вы можете начинать темыВы можете отвечать на сообщенияВы не можете редактировать свои сообщенияВы не можете удалять свои сообщенияВы не можете голосовать в опросахВы не можете прикреплять файлы к сообщениямВы можете скачивать файлы

    Скачать фильм Скорый «Москва-Россия» через торрент в хорошем качестве бесплатно BDRip-AVC

    ОбщееУникальный идентификатор : 241970733780576660847834160670090870554 (0xB609DE4164EAFD02B638C128E2BA3F1A)Полное имя : Skoryi.Moskva.Rossiya.2014.RUS.BDRip.x264.-HELLYWOOD.mkvФормат : MatroskaВерсия формата : Version 4 / Version 2Размер файла : 1,46 ГбайтПродолжительность : 1 ч. 24 м.Общий поток : 2464 Кбит/секНазвание фильма : HELLYWOOD - rip by potroksДата кодирования : UTC 2014-06-29 07:53:27Программа кодирования : mkvmerge v5.9.0 ('On The Loose') built on Dec 15 2012 16:39:58Библиотека кодирования : libebml v1.3.0 + libmatroska v1.4.0

    ВидеоИдентификатор : 1Формат : AVCФормат/Информация : Advanced Video CodecПрофиль формата : [email protected]Параметр CABAC формата : ДаПараметр ReFrames формата : 12 кадровИдентификатор кодека : V_MPEG4/ISO/AVCПродолжительность : 1 ч. 24 м.Битрейт : 2277 Кбит/секШирина : 928 пикселейВысота : 400 пикселейСоотношение сторон : 2,35:1Режим частоты кадров : ПостоянныйЧастота кадров : 25,000 кадров/секЦветовое пространство : YUVСубдискретизация насыщенности : 4:2:0Битовая глубина : 8 битТип развёртки : ПрогрессивнаяБит/(Пиксели*Кадры) : 0.245Размер потока : 1,31 Гбайт (90%)Библиотека кодирования : x264 core 130 r2273 b3065e6Настройки программы : cabac=1 / ref=12 / deblock=1:-2:-2 / analyse=0x3:0x133 / me=umh / subme=11 / psy=1 / psy_rd=1.00:0.05 / mixed_ref=1 / me_range=48 / chroma_me=1 / trellis=2 / 8x8dct=1 / cqm=0 / deadzone=21,11 / fast_pskip=0 / chroma_qp_offset=-3 / threads=9 / lookahead_threads=6 / sliced_threads=0 / nr=0 / decimate=0 / interlaced=0 / bluray_compat=0 / constrained_intra=0 / bframes=13 / b_pyramid=2 / b_adapt=2 / b_bias=0 / direct=3 / weightb=1 / open_gop=0 / weightp=2 / keyint=250 / keyint_min=23 / scenecut=40 / intra_refresh=0 / rc_lookahead=60 / rc=2pass / mbtree=0 / bitrate=2277 / ratetol=1.0 / qcomp=0.70 / qpmin=0 / qpmax=69 / qpstep=4 / cplxblur=20.0 / qblur=0.5 / vbv_maxrate=50000 / vbv_bufsize=62500 / nal_hrd=none / ip_ratio=1.35 / pb_ratio=1.25 / aq=1:0.80Язык : RussianDefault : ДаForced : Нет

    АудиоИдентификатор : 2Формат : AC-3Формат/Информация : Audio Coding 3Расширение режима : CM (complete main)Параметр Endianness формата : BigИдентификатор кодека : A_AC3Продолжительность : 1 ч. 24 м.Вид битрейта : ПостоянныйБитрейт : 192 Кбит/секКаналы : 2 каналаРасположение каналов : Front: L RЧастота : 48,0 КГцБитовая глубина : 16 битМетод сжатия : С потерямиРазмер потока : 116 Мбайт (8%)Заголовок : DD 2.0 @ 192 kbpsЯзык : RussianDefault : ДаForced : Нет

    Меню00:00:00.000 : :RU Chapter 0100:04:58.799 : :RU Chapter 0200:13:18.520 : :RU Chapter 0300:18:53.040 : :RU Chapter 0400:26:36.880 : :RU Chapter 0500:32:51.680 : :RU Chapter 0600:37:36.320 : :RU Chapter 0700:46:35.320 : :RU Chapter 0800:53:10.640 : :RU Chapter 0900:59:20.439 : :RU Chapter 1001:06:59.200 : :RU Chapter 1101:17:30.000 : :RU Chapter 1201:24:39.880 : :RU Chapter 13

    piratbit.ru

    Скачать фильм Скорый Москва-Россия через торрент в хорошем качестве бесплатно 2014 г.

    piratbit.ru

    Размер: 19.08 GB | Добавлен: 3 года 4 мес. назад | Торрент скачан:70 раз
    Реклама Дарим 3000 рублей за регистрацию, не упусти свой шанс получить шикарный бонус!!!

    12-06-2014 18:52 Скорый Москва-Россия Скачать торрент  

    Скорый Москва-Россия

    Год выпуска: 2014Страна: РоссияЖанр: комедия, приключенияПродолжительность: 01:24:40Перевод: ОригиналСубтитры: Нет

    Режиссер: Игорь Волошин

    В ролях: Сергей Светлаков, Маргарита Левиева, Павел Деревянко, Майкл Мэдсен, Ингеборга Дапкунайте, Спартак Кондауров, Максим Голополосов, Иван Ургант, Виктор Проскурин, Ольга Симонова

    Описание: Это история про парня, который душу готов продать, лишь бы набрать миллион просмотров для своего видео на YouTube. На пути к своей цели он оказывается в скором поезде «Москва - Владивосток», где сталкивается с американской актрисой, страдающей аэрофобией. В пути незнакомцев ожидают такие приключения, что они отстают от поезда, который пытаются догнать, продвигаясь по нашей непредсказуемой и сказочной России-матушке… Ведь каждому из них нужно оказаться во Владивостоке ровно через 7 дней - по причинам, которые они тщательно скрывают друг от друга.

    Качество: BD-RemuxФормат: MKVВидео кодек: H.264Аудио кодек: AC3-DTS-HD MAВидео: MPEG-4 AVC, (1920x1080),27558 Кбит/с, 25.000 кадра/секАудио#1: AC-3 6 ch,640 kbps (Rus) 48.0 KHz ОригиналАудио#2: DTS-HD MA -6 ch, 1509 kbps (Rus) 48.0 KHz Оригинал

    Тип потока: ВидеоДлительность: 01:24:40Кодек: AVCКодек/описание: Advanced Video CodecКодек/профиль: [email protected]Кодек/ID: V_MPEG4/ISO/AVCКодек/CABAC: YesКодек/ReFrames: 4 framesРазмеры изображения: 1920 x 1080 (16:9)Частота кадров: 25.000 fpsЧастота кадров/тип: ConstantБитрейт/макс: 37.0 MbpsБитрейт/тип: VBRСтандарт: PALЦветовое пространство: YUVТип развёртки: MBAFFКолориметрия: 4:2:0Глубина: 8 bits: Тип потока: Звук #1Язык: RussianДлительность: 01:24:40.000Кодек: AC-3Кодек/описание: Audio Coding 3Кодек/ID: A_AC3Частота дискретизации: 48.0 KHzКаналов: 6 channelsБитрейт: 640 KbpsБитрейт/тип: ConstantРазмер потока: 388 MiB (2%)Глубина: 16 bitsМетод сжатия: Lossy: Тип потока: Звук #2Язык: RussianДлительность: 01:24:40.000Кодек: DTSКодек/описание: Digital Theater SystemsКодек/профиль: MA / CoreКодек/ID: A_DTSЧастота дискретизации: 48.0 KHzКаналов: 6 channelsБитрейт: Unknown / 1 509 KbpsБитрейт/тип: VariableГлубина: 24 bitsМетод сжатия: Lossless / Lossy

    Скачать Скорый Москва-Россия через торрент http://pic.pb.wtf/images/6/q23on.jpg Скачать фильм Скорый Москва-Россия через торрент бесплантно в хорошем качестве Описание: Это история про парня, который душу готов продать, лишь бы набрать миллион просмотров для своего видео на YouTube. На пути к ... 2014-06-12 18:52 7.7 10 10

    Loading...

    Loading...

    Рекламный пират

    Дорогой пользователь! Огромная просьба, поблагодарите релизера, оцените раздачу и оставьте свои комментарий, если Вы скачали Скорый Москва-Россия через торрент бесплатно! Внесите свою лепту в развитие PiratBit!

    Комментировать посты могут только пользователи прошедшие не сложную регистрацию

    Скорый Москва-Россия через торрент Скачать бесплатно Скорый Москва-Россия Скорый Москва-Россия скачать торрент Скорый Москва-Россия смотреть онлайн Cкачать фильм Скорый Москва-Россия бесплатно Скорый Москва-Россия скачать торрент в хорошем качестве Скорый Москва-Россия смотреть онлайн бесплатно в хорошем качестве

    Вы можете начинать темыВы можете отвечать на сообщенияВы не можете редактировать свои сообщенияВы не можете удалять свои сообщенияВы не можете голосовать в опросахВы не можете прикреплять файлы к сообщениямВы можете скачивать файлы

    Скачать фильм Скорый «Москва-Россия» через торрент в хорошем качестве бесплатно DVDRip

    piratbit.ru

    Размер: 1.37 GB | Добавлен: 3 года 4 мес. назад | Торрент скачан:8963 раза
    Реклама Дарим 3000 рублей за регистрацию, не упусти свой шанс получить шикарный бонус!!!

    30-05-2014 16:58 Скорый «Москва-Россия» Скачать торрент  

    Скорый «Москва-Россия»

    Год выпуска: 2014Страна: РоссияЖанр: комедия, приключенияПродолжительность: 01:24:33Перевод: Оригинал

    Режиссер: Игорь Волошин

    В ролях: Сергей Светлаков, Маргарита Левиева, Павел Деревянко, Майкл Мэдсен, Ингеборга Дапкунайте, Спартак Кондауров, Максим Голополосов, Иван Ургант, Виктор Проскурин, Ольга Симонова

    Описание: Это история про парня, который душу готов продать, лишь бы набрать миллион просмотров для своего видео на YouTube. На пути к своей цели он оказывается в скором поезде «Москва — Владивосток», где сталкивается с американской актрисой, страдающей аэрофобией. В пути незнакомцев ожидают такие приключения, что они отстают от поезда, который пытаются догнать, продвигаясь по нашей непредсказуемой и сказочной России-матушке… Ведь каждому из них нужно оказаться во Владивостоке ровно через 7 дней — по причинам, которые они тщательно скрывают друг от друга.

    Качество: DVDRipФормат: AVIВидео кодек: XviDАудио кодек: AC3Видео: 720x304 (2.35:1), XviD 1859 Кбит/с, 25.000 fps, 0.34 bit/pixelАудио#1: AC3, 448 Кбит/с (6ch), 48.0 KHz

    GeneralComplete name : E:\Видео\Skoryj.Moskva-Rossija.2014.DVDRip..aviFormat : AVIFormat/Info : Audio Video InterleaveFile size : 1.37 GiBDuration : 1h 24mnOverall bit rate : 2 317 KbpsWriting application : VirtualDubMod 1.5.10.3 | www.virtualdub-fr.org || (build 2550/release)Writing library : VirtualDubMod build 2550/release

    VideoID : 0Format : MPEG-4 VisualFormat profile : Advanced [email protected] settings, BVOP : 2Format settings, QPel : NoFormat settings, GMC : No warppointsFormat settings, Matrix : Default (MPEG)Codec ID : XVIDCodec ID/Hint : XviDDuration : 1h 24mnBit rate : 1 859 KbpsWidth : 720 pixelsHeight : 304 pixelsDisplay aspect ratio : 2.35:1Frame rate : 25.000 fpsColor space : YUVChroma subsampling : 4:2:0Bit depth : 8 bitsScan type : ProgressiveCompression mode : LossyBits/(Pixel*Frame) : 0.340Stream size : 1.10 GiB (80%)Writing library : XviD 1.2.1 (UTC 2008-12-04)

    AudioID : 1Format : AC-3Format/Info : Audio Coding 3Mode extension : CM (complete main)Format settings, Endianness : BigCodec ID : 2000Duration : 1h 24mnBit rate mode : ConstantBit rate : 448 KbpsChannel count : 6 channelsChannel positions : Front: L C R, Side: L R, LFESampling rate : 48.0 KHzBit depth : 16 bitsCompression mode : LossyStream size : 271 MiB (19%)Alignment : Split accross interleavesInterleave, duration : 40 ms (1.00 video frame)Interleave, preload duration : 500 ms

    Скачать Скорый «Москва-Россия» через торрент http://pic.pb.wtf/new/img/2014-05/30/zbughbgequz5f5we3wkakz6jv.jpg Скачать фильм Скорый «Москва-Россия» через торрент бесплантно в хорошем качестве Описание: Это история про парня, который душу готов продать, лишь бы набрать миллион просмотров для своего видео на YouTube. На пути к ... 2014-05-30 16:58 9.4 10 167

    Loading...

    Loading...

    Рекламный пират

    30-05-2014 17:16 Скорый «Москва-Россия» Скачать торрент  

    Кто уже посмотрел?Очередной высер со Светлаковым?

    30-05-2014 17:21 Скорый «Москва-Россия» Скачать торрент  

    дайте скорости

    30-05-2014 17:59 Скорый «Москва-Россия» Скачать торрент  

    cudmed писал(а):

    Кто уже посмотрел?Очередной высер со Светлаковым?

    светлаков - талантливый человек и я с его участием видел все фильмы и не одного плохого. чтоб убедиться какой он разноплановый актёр советую посмотреть фильм Камень

    30-05-2014 18:33 Скорый «Москва-Россия» Скачать торрент  

    argud79 писал(а):

    светлаков - талантливый человек и я с его участием видел все фильмы и не одного плохого. чтоб убедиться какой он разноплановый актёр советую посмотреть фильм Камень

    Вы это сейчас серьезно?

    30-05-2014 18:54 Скорый «Москва-Россия» Скачать торрент  

    Очередной шлак...

    30-05-2014 21:28 Скорый «Москва-Россия» Скачать торрент  

    argud79 писал(а):

    cudmed писал(а):

    Кто уже посмотрел?Очередной высер со Светлаковым?

    светлаков - талантливый человек и я с его участием видел все фильмы и не одного плохого. чтоб убедиться какой он разноплановый актёр советую посмотреть фильм Камень Поддерживаю, фильм достоин уважения

    31-05-2014 07:23 Скорый «Москва-Россия» Скачать торрент  

    31-05-2014 07:28 Скорый «Москва-Россия» Скачать торрент  

    argud79 писал(а):

    cudmed писал(а):

    Кто уже посмотрел?Очередной высер со Светлаковым?

    светлаков - талантливый человек и я с его участием видел все фильмы и не одного плохого. чтоб убедиться какой он разноплановый актёр советую посмотреть фильм Камень в этом высере он даже не напрягался, короче дешево . а насчет гениальности Светлакова, то как шоумен он хорош, а как актер так себе. посмотрел последнее выступление "Уральские пельмени", так ребята на головы выше как актеры.

    Pекламный агент PB

    31-05-2014 07:47 Скорый «Москва-Россия» Скачать торрент  

    бредятина!!!! других слов нет!

    31-05-2014 14:45 Скорый «Москва-Россия» Скачать торрент  

    А ПОЧЕМУ В РАЗДЕЛЕ,,ЗАРУБЕЖНЫЕ ФИЛЬМЫ,,???

    31-05-2014 19:08 Скорый «Москва-Россия» Скачать торрент  

    самый стремный фильм светлакова

    01-06-2014 12:17 Скорый «Москва-Россия» Скачать торрент  

    Ye? ну и говнище :ireful: :ireful: :ireful: :ireful:

    01-06-2014 13:24 Скорый «Москва-Россия» Скачать торрент  

    Ребят честно,такое :cansored:

    01-06-2014 14:01 Скорый «Москва-Россия» Скачать торрент  

    фильм "горько" самый лучший светлаковский

    01-06-2014 17:02 Скорый «Москва-Россия» Скачать торрент  

    фильм понравился

    02-06-2014 06:49 Скорый «Москва-Россия» Скачать торрент  

    да так,чисто поржать(иди пару раз улыбнуться)...зачем искать в подобных"произведениях"зачатки шедевральности?Они не для этого и снимаются то.Мозг тут не должен напрягаться,он здесь просто отдыхает.

    Pекламный агент PB

    02-06-2014 17:26 Скорый «Москва-Россия» Скачать торрент  

    argud79 писал(а):

    cudmed писал(а):

    Кто уже посмотрел?Очередной высер со Светлаковым?

    светлаков - талантливый человек и я с его участием видел все фильмы и не одного плохого. чтоб убедиться какой он разноплановый актёр советую посмотреть фильм http://pb.wtf/topic/73573/На мой взгляд, фильм - "Камень" - чушь полнейшая. А это кинцо щас заценим

    02-06-2014 17:32 Скорый «Москва-Россия» Скачать торрент  

    Stopper68 писал(а):

    да так,чисто поржать(иди пару раз улыбнуться)...зачем искать в подобных"произведениях"зачатки шедевральности?Они не для этого и снимаются то.Мозг тут не должен напрягаться,он здесь просто отдыхает.

    да, да !!! а для взрыва мозга пусть смотрят что то типа "Облачный атлас", до сих пор свой мозг собираю

    02-06-2014 18:15 Скорый «Москва-Россия» Скачать торрент  

    Мда....А фильм то гуано редкостное

    04-06-2014 17:15 Скорый «Москва-Россия» Скачать торрент  

    Цитата:

    Скорый «Москва-Россия» (Игорь Волошин) [2014 г., комедия, приключения, DVDRip, Оригинал]

    Фильм достойный просмотра.Я бы сказал посмотреть всем.

    ЛебронИванович

    06-06-2014 16:11 Скорый «Москва-Россия» Скачать торрент  

    Одни критики б...я собрались. Фильмы со Светлаковым смотреть можно, Серега нормально играет, "Горько" и "Камень" подтверждают что актер он непосредственный. Когда вас на работе шеф раком ставит и говорит что вы ху...й сотрудник, вы как пить дать молчите, а тут что же, можно показать какие все умные. И насчет моего завуалированного мата, ищите культуру, прогуляйтесь в музей....

    07-06-2014 03:02 Скорый «Москва-Россия» Скачать торрент  

    argud79 писал(а):

    светлаков - талантливый человек и я с его участием видел все фильмы и не одного плохого. чтоб убедиться какой он разноплановый актёр советую посмотреть фильм Камень Шутник.

    07-06-2014 06:31 Скорый «Москва-Россия» Скачать торрент  

    MalekUA писал(а):

    argud79 писал(а):

    cudmed писал(а):

    Кто уже посмотрел?Очередной высер со Светлаковым?

    светлаков - талантливый человек и я с его участием видел все фильмы и не одного плохого. чтоб убедиться какой он разноплановый актёр советую посмотреть фильм Камень в этом высере он даже не напрягался, короче дешево . а насчет гениальности Светлакова, то как шоумен он хорош, а как актер так себе. посмотрел последнее выступление "Уральские пельмени", так ребята на головы выше как актеры.+1. Фильм Бред, бред, БРЕД. Да ещё и при том как актеры что то говорят, идут помехи, видимо качество монтажа такое у нас)

    12-06-2014 20:12 Скорый «Москва-Россия» Скачать торрент  

    фильм полнейшая каша ! им ВСЕМ заплатили и они сыграли по тексту роли, американка и проводница честно отрабатывали гонорар. посмотрите только трейлер и не смотрите всю картину.

    Pекламный агент PB

    Дорогой пользователь! Огромная просьба, поблагодарите релизера, оцените раздачу и оставьте свои комментарий, если Вы скачали Скорый «Москва-Россия» через торрент бесплатно! Внесите свою лепту в развитие PiratBit!

    Комментировать посты могут только пользователи прошедшие не сложную регистрацию

    Скорый «Москва-Россия» через торрент Скачать бесплатно Скорый «Москва-Россия» Скорый «Москва-Россия» скачать торрент Скорый «Москва-Россия» смотреть онлайн Cкачать фильм Скорый «Москва-Россия» бесплатно Скорый «Москва-Россия» скачать торрент в хорошем качестве Скорый «Москва-Россия» смотреть онлайн бесплатно в хорошем качестве

    Вы не можете начинать темыВы не можете отвечать на сообщенияВы не можете редактировать свои сообщенияВы не можете удалять свои сообщенияВы не можете голосовать в опросахВы не можете прикреплять файлы к сообщениямВы можете скачивать файлы


    Смотрите также