Скачать шкатулка проклятия через торрент в хорошем качестве


Обсуждение Фильмов - Шкатулка проклятия

хм,...шкатулка со злом, что-то мне это напоминает- "Исчадие ада", там тоже типа шкатулка-куб- головоломка. Посмотрим, жду!

Lumen-3000

Возраст:32 Мужской

Сообщений: 15

Я так понимаю ты имел ввиду "Восставшие из ада"...

LEGO666 77

Возраст:27 Мужской

Сообщений: 56 полюбому жесткий будет ANDRON 39 829

Возраст:7 Мужской

Сообщений: 6182

Помогите расширить коллекцию Анти-российского кино во благо

А мне какжется тема уже не нова....

EBA 58

Возраст:33 Женский

Сообщений: 131

Очередной фильм типа про изганание дьявола, но мне нравятся такие, так что жду.

В борьбе между добром и злом - побеждает всегда хентай!

Почему аннотация напоминает мне о "Восставшем из Ада"?...

Уходи, дитя человеческое в воды и пустыню,рука об руку с феей,ибо мир более полон слез,чем ты можешь себе представить. Твой путь будет смертелен до тех пор, пока награда не превзойдет цену.(с)

Аааа,шкатулка для Ротшильдов! Wat

Возраст:6 не указан

Сообщений: 442

основано на реальной истории..хм. поглядим когда появится. надеюсь что не очередная пустышка будет.

Возможно, в этом мире ты всего лишь человек, но для кого-то ты – весь мир.

ждем, ждем скорее бы

Защищай, то, что тебе дорого, не сдавайся и ты добьешься всего. ​ ​

SQLite 31

Возраст:27 Мужской

Сообщений: 166

Я являюсь психологом только в чужой жизни, в своей я псиx

мммм что то фильм заинтересовал надо будет поглядеть =) MetizZz

Karma:+0 / -0

[+] [-]

Возраст:Не указан не указан

Сообщений: 1

не найти бы в реальности такую шкатулку)))) ждёмссссс

Киноман

Надеюсь не обманут наши надежды и ожидания))

axper 55

Возраст:217 не указан

Сообщений: 14

Зимняя пишет:

Почему аннотация напоминает мне о "Восставшем из Ада"?... согласен полностью, только с нынешними спец эффектами

Через торент как скачать???

Nocturnal 198

Возраст:7 Мужской

Сообщений: 29485

Траволта, пока ни как, фильма еще нет в сети.

Будьте добры соблюдать простые правила поведения на сайте!

http://embed.prostopleer.com/list?id=1061970YlVz

zanozin 147

Возраст:40 Мужской

Сообщений: 554

Очень хочется посмотреть, трейлер мощный.

Леха228

Возраст:24 Мужской

Сообщений: 19

Чтото мне не верится, что оно основано на реальных событиях))

marishka9509

Karma:+0 / -1

[+] [-]

Возраст:Не указан не указан

Сообщений: 2 СМОТРЕЛА В КИНОТЕАТРЕ.... ФИЛЬМ ОЧЕНЬ СТРАШНЫЙ.... весь зал кричал . ужааас.... всем советую!!! shelby 1

Возраст:24 Мужской

Сообщений: 5

Фильм супер, для ценителей жанра

Dimension 295

Возраст:25 не указан

Сообщений: 468

мы все рождены,чтобы умереть!

очень классный и качественный ужастик

timoha87

Возраст:29 Мужской

Сообщений: 64

Смотрел в КИНО, фильм понравился-снят хорошо, есть стрёмные и резкие моменты. Всем смотреть!

Ya. 5

Возраст:29 Мужской

Сообщений: 10

где Вы смотрели в кино? мультиплекс транслирует?

Диана

Возраст:27 Женский

Сообщений: 11

Лично меня фильм разочаровал, нудный и скучный, есть какие то страшные моменты, но их в фильме не так много, в основном нудятина, фильм на 3ку !! когда я ходила на этот фильм весь зал ржал,особенно над концом этого фильма, компьютерная графика подкачала....

Страшный страшный ужастик! 5+!!!

Ленчо 12

Возраст:30 Женский

Сообщений: 53

Мне понравился фильмец, но наверно больше из за Моргана(очень уж он мне нравится) и за девочку весь фильм переживала. А так не очень страшный, но посмотреть можно.

разочарована. Ужасное качество не повлияло. Ждала большего LE-X 2

Возраст:7 Мужской

Сообщений: 8

не советую, фильм не зацепил ни чем !!! Дешовый , снят для школоты и то не для всех ....Маркетолагам браво, затянули все таки меня в кинозал ))))

Смотрел в кинотеатре...разок глянуть можно

В кинотеатре фильм показался прикольным, скорее из-за звуковых эффектов. Но уверенна, что если бы смотрела на обычном телеке, вряд ли, он меня зацепил. Так что, на тройку.

Вы не можете оставлять больше 10 комментариев в сутки!

www.fast-torrent.ru

Шкатулка проклятия 2012 - скачать бесплатно через торрент в хорошем качестве. Без регистрации

www.kinovit.net

Название: Шкатулка проклятия / The Possession (2012) BDRemux 1080i | D | Rus Transfer
Качество видео: BDRemux 1080i [Rus Transfer]
Перевод: Дубляж
Видео: MPEG-4 AVC Video / 24000 kbps / 1920x1080i / 25 fps / 16:9 / High Profile 4.1
Аудио: Русский / DTS-HD Master Audio / 2320 kbps / 7.1 / 48 kHz / 16-bit (DTS Core: 5.1-ES / 48 kHz / 1509 kbps / 16-bit) / ДубляжEnglish / DTS-HD Master Audio / 3455 kbps / 5.1 / 48 kHz / 24-bit (DTS Core: 5.1 / 48 kHz / 1509 kbps / 24-bit) / Оригинал US Blu-rayEnglish / Dolby Digital Audio / 256 kbps / 2.0 / 48 kHz / 16-bit / Комментарии US Blu-rayEnglish / Dolby Digital Audio / 256 kbps / 2.0 / 48 kHz / 16-bit / Комментарии US Blu-ray
Скачать

Загрузка начнется в течение 5 сек.

18.60 GB

Название: Шкатулка проклятия / The Possession (2012) BDRip 720p от leonardo 59 & Scarabey | Лицензия | US Transfer
Качество видео: BDRip 720p Исходник: Blu-ray
Перевод: Профессиональный (полное дублирование) Лицензия
Формат видео: MKV Видео кодек: MPEG-4 AVC Аудио кодек: AC3
Видео: AVC, 1280x530 (2.40:1) at 23.976 fps, AVC at 6132 kbps avg, 0.377 bit/pixel
Аудио: 48 kHz, AC3 Dolby Digital, 3/2 (L,C,R,l,r) + LFE ch, 640.00 kbps - Russian
Скачать

Загрузка начнется в течение 5 сек.

4.45 GB

Название: Шкатулка проклятия / The Possession (2012) BDRip 720p от HELLYWOOD
Качество видео: BDRip 720p (Исходник: HDLine /Blu-ray Remux /1080p)
Перевод: Профессиональный (полное дублирование)
Формат видео: MKV
Видео: 1280x532 at 23.976 fps, [email protected], 2pass, ~6460 kbps avg
Аудио: 48 kHz, AC3 Dolby Digital, 3/2 (L,C,R,l,r) + LFE ch, ~640 kbps |DUB|48 kHz, AC3 Dolby Digital, 3/2 (L,C,R,l,r) + LFE ch, ~640 kbps |ENG|
Скачать

Загрузка начнется в течение 5 сек.

4.99 GB

Название: Шкатулка проклятия / The Possession (2012) BDRip 1080p | 60 FPS
Аудио: AC-3 at 640 Kbps (R5)/6 каналов, 48,0 КГц
Скачать

Загрузка начнется в течение 5 сек.

19.75 GB

Название: Шкатулка проклятия / The Possession (2012) BDRip 1080p от Neofilm
Качество видео: BDRip 1080p
Перевод: Дублированный
Видео: x.264 6178 kb/s. 1920x1080, 25 fps
Аудио: AC3, 448 kb/s (6Ch)-Дубляж
Скачать

Загрузка начнется в течение 5 сек.

4.37 GB

Название: Шкатулка проклятия / The Possession (2012) BDRip от HELLYWOOD
Качество видео: BDRip (источник: HDLine /Blu-ray Remux /1080p)
Перевод: Профессиональный (полное дублированное)
Формат видео: AVI
Видео: 720x304 (2.37:1), 23.976 fps, XviD build 65 ~1796 kbps avg, 0.34 bit/pixel
Аудио: 48 kHz, AC3 Dolby Digital, 3/2 (L,C,R,l,r) + LFE ch, ~448 kbps |DUB|48 kHz, AC3 Dolby Digital, 3/2 (L,C,R,l,r) + LFE ch, ~448 kbps |ENG| (отдельным файлом на narod.ru)
Скачать

Загрузка начнется в течение 5 сек.

1.45 GB

Название: Шкатулка проклятия / The Possession (2012) BDRip-AVC от HQCLUB
Качество видео: BDRip-AVC (Источник: / Blu-ray / 1080i)
Перевод: Профессиональный (полное дублирование) + Оригинальная звуковая дорожка (английская)
Формат видео: MKV
Видео: 1024x576 (1.78:1), 25.000 fps, [email protected] ~2630 kbps avg, 0.178 bit/pixel
Аудио: 48 kHz, AC3 Dolby Digital, 3/2 (L,C,R,l,r) + LFE ch, ~448 kbps |Дубляж|48 kHz, AC3 Dolby Digital, 3/2 (L,C,R,l,r) + LFE ch, ~448 kbps |Оригинальная звуковая дорожка|
Скачать

Загрузка начнется в течение 5 сек.

2.18 GB

Название: Шкатулка проклятия / The Possession (2012) BDRip-AVC | iPad
Качество видео: BDRip Исходник: Blu-ray
Перевод: Дублированный
Формат видео: MP4 (контейнер m4v)
Видео: AVC, [email protected], 1024x576 (16:9) at 25.000 fps, AVC at 3071 kbps avg, 0.208 bit/pixel
Аудио: Русский: 48 kHz, AAC, 2ch, 160 kbps | ДублированныйАнглийский: 48 kHz, AAC, 2ch, 160 Kbps | Оригинал
Скачать

Загрузка начнется в течение 5 сек.

2.11 GB

Название: Шкатулка проклятия / The Possession (2012) BDRip-AVC от qusi555
Качество видео: BDRip-AVC
Перевод: Профессиональный (полное дублирование) лицензия
Видео: V_MPEG4/ISO/AVC x264, AVC, 912x376, 993 Kbps, 23.976 fps, 0.152
Аудио: MPEG Audio, MP3, Variable, 128 Kbps, 2 channels, 48.0 KHz
Скачать

Загрузка начнется в течение 5 сек.

737.42 MB

Название: Шкатулка проклятия / The Possession (2012) Blu-Ray 1080i от HDCLUB
Качество видео: Blu-Ray (1080i)
Перевод: Дублированный
Видео: MPEG-4 AVC Video MPEG-4 AVC, 24000 Кбит/с, 1920x1080
Аудио: DTS-HD Master Audio Russian 2320 kbps 7.1 / 48 kHz / 2320 kbps / 16-bit (DTS Core: 5.1- ES / 48 kHz / 1509 kbps / 16-bit)
Скачать

Загрузка начнется в течение 5 сек.

19.90 GB

Название: Шкатулка проклятия / The Possession (2012) HDRip от Scarabey | D | Лицензия
Качество видео: HDRip
Перевод: Профессиональный (дублированный)
Видео: 720x304 (2.37:1), 23.976 fps, XviD build 50 ~1792 kbps avg, 0.34 bit/pixel
Аудио: 48 kHz, AC3 Dolby Digital, 3/2 (L,C,R,l,r) + LFE ch, ~448.00 kbps avg
Скачать

Загрузка начнется в течение 5 сек.

1.45 GB

Название: Шкатулка проклятия / The Possession (2012) HDRip от Scarabey | D | Лицензия
Качество видео: HDRip
Перевод: Профессиональный (дублированный)
Видео: 688x288 (2.39:1), 23.976 fps, XviD build 50 ~992 kbps avg, 0.21 bit/pixel
Аудио: 48 kHz, MPEG Layer 3, 2 ch, ~128.00 kbps avg
Скачать

Загрузка начнется в течение 5 сек.

745.68 MB

Название: Шкатулка проклятия / The Possession (2012) HDRip | iPhone, iPod Touch, iPad
Качество видео: HDRip Исходник: BDRip 1080p
Перевод: Профессиональный (дублированный)
Видео: H.264 640x352 (852x352 анаморф), ~2.4:1, 1500 Kbps, 23.976 fps
Аудио: Русская дорожка, AAC, 2 канала, 48.0 KHz, 128 Kbps
Скачать

Загрузка начнется в течение 5 сек.

1.14 GB

Название: Шкатулка проклятия / The Possession (2012) BDRip-AVC от potroks | Лицензия
Перевод: Профессиональный (полное дублирование) лицензия
Формат видео: MKV
Видео: H.264, 1024x424 (2,40:1), 23,976 кадр/сек, 1820 Кбит/сек, 0.175 bit/pixel
Аудио: 48 kHz, AC3 Dolby Digital, 3/2 (L,C,R,l,r) + LFE ch, ~448.00 kbps avg | RUS48 kHz, AC3 Dolby Digital, 3/2 (L,C,R,l,r) + LFE ch, ~448.00 kbps avg | ENG (отдельно на narod.ru)
Скачать

Загрузка начнется в течение 5 сек.

1.46 GB

Название: Шкатулка проклятия / The Possession (2012) BDRip 720p от R.G. GoldenShara
Качество видео: BDRip [720p]
Перевод: Дубляж [Лицензия]
Видео: 1280x528, 3011 Кбит/сек, 23,976 кадр/сек, AVC, x264, 2,40:1, 0.186 Бит/[Пиксели*Кадры], 2pass
Аудио: AC-3, 384 Кбит/сек, 6 канала(ов), 48,0 КГц
Скачать

Загрузка начнется в течение 5 сек.

2.19 GB

Название: Шкатулка проклятия / The Possession (2012) DVD5 сжатый | Лицензия
Качество видео: DVD5 (сжатый)
Перевод: Профессиональный (полное дублирование)
Формат видео: DVD Video
Видео: MPEG2; PAL 16:9 (720x576)
Аудио: Dolby AC3, 6 ch, 384 Kbps Russian
Скачать

Загрузка начнется в течение 5 сек.

4.36 GB

Название: Шкатулка проклятия / The Possession (2012) BDRip 1080p от R.G. GoldenShara
Качество видео: BDRip [1080p]
Перевод: Дубляж [Лицензия]
Видео: 1920x800, 6395 Кбит/сек, 23,976 кадр/сек, AVC, x264, 2,40:1, 0.174 Бит/[Пиксели*Кадры], 2pass
Аудио: AC-3, 384 Кбит/сек, 6 канала(ов), 48,0 КГц
Скачать

Загрузка начнется в течение 5 сек.

4.36 GB

Название: Шкатулка проклятия / The Possession (2012) BDRip 720p | Лицензия
Качество видео: BDRip-AVC
Перевод: Дублированный [лицензия]
Видео: MPEG-4 AVC/H.264 2484 Кбит/сек,1280x534
Аудио: Русский (Dolby AC3, 6 ch) 448 Кбит/секАнглийский (Dolby AC3, 6 ch) 448 Кбит/сек
Скачать

Загрузка начнется в течение 5 сек.

2.18 GB

Название: Шкатулка проклятия / The Possession (2012) BDRip 720p | Лицензия
Качество видео: BDRip 720p [EbP]
Перевод: Дублированное [лицензия]
Формат видео: MKV
Видео: 6552 kb/s, 1280x534
Аудио: Russian: DTS, 755 kb/s (6 ch) / English: DTS, 1510 kb/s (6 ch) / AC3, 128 kb/s (2 ch) [Commentary]
Скачать

Загрузка начнется в течение 5 сек.

5.88 GB

Название: Шкатулка проклятия / The Possession (2012) BDRemux 1080p | Лицензия
Качество видео: BDRemux 1080p
Перевод: Дублированное [лицензия]
Видео: MPEG-4 AVC Video MPEG-4 AVC Video / 32818 kbps / 1920x1080p / 23,976 fps / 16:9 / High Profile 4.1
Аудио: DTS Audio / Dolby Digital Audio / DTS-HD Master Au DTS Audio / Dolby Digital Audio / DTS-HD Master AudioРусский / DTS Audio / 768 kbps / 5.1 / 48 kHz / 24-bit (Dub R5)English / DTS-HD Master Audio / 3455 kbps / 5.1 / 48 kHz / 24-bit (DTS Core: 5.1 / 48 kHz / 1509 kbps / 24-bit) (Оригинал)English / Dolby Digital Audio / 256 kbps / 2.0 / 48 kHz / 16-bit (Комментарии)English / Dolby Digital Audio / 256 kbps / 2.0 / 48 kHz / 16-bit (Комментарии)
Скачать

Загрузка начнется в течение 5 сек.

24.19 GB

Название: Шкатулка проклятия / The Possession (2012) HDRip | Лицензия
Качество видео: HDRip
Перевод: Дублированный [Лицензия]
Видео: XviD 640x272, 23.976 fps, 921 kbps
Аудио: MP3, 48 kHz, 2 ch, 128 kbps
Скачать

Загрузка начнется в течение 5 сек.

697.95 MB

Название: Шкатулка проклятия / The Possession (2012) DVD9 от IRONCLUB
Качество видео: DVD
Перевод: Дублированный
Видео: PAL 16:9 [email protected] 7304 Кбит/сек
Аудио: Русский, английский (Dolby AC3, 6 ch), русский (DTS, 5 ch)
Скачать

Загрузка начнется в течение 5 сек.

6.79 GB

Название: Шкатулка проклятия / The Possession (2012) BDRip 1080p | IRONCLUB
Качество видео: BDRip 1080p [CHD]
Перевод: Дублированное [лицензия]
Формат видео: MKV
Видео: 12010 kb/s, 1920x796
Аудио: Russian: DTS, 755 kb/s (6 ch) / English: DTS, 1510 kb/s (6 ch) / AC3, 128 kb/s (2 ch) [Commentary]
Скачать

Загрузка начнется в течение 5 сек.

9.25 GB

Название: Шкатулка проклятия / The Possession (2012) HDRip от Generalfilm | КПК | Лицензия
Качество видео: HDRip | КПК
Перевод: Дублированный [лицензия]
Видео: AVC AVC, 640x272 (2.35), 23.976 fps, 400 Kbps (0.096 bit/pixel)
Аудио: AAC LC, 48.0 KHz, 2 ch, 128 Kbps, VBR
Скачать

Загрузка начнется в течение 5 сек.

349.79 MB

Название: Шкатулка проклятия / The Possession (2012) HDRip | Лицензия
Качество видео: HDRip
Перевод: Дублированное [лицензия]
Формат видео: AVI (XvID)
Видео: 1804 kb/s, 720x304
Аудио: AC3, 448 kb/s (6 ch)
Скачать

Загрузка начнется в течение 5 сек.

1.46 GB

Название: Шкатулка проклятия / The Possession (2012) BDRip 720p | Звук с CAMRip
Качество видео: BDRip 720p
Перевод: Дублированное [звук с CAMRip]
Формат видео: MKV (x264)
Видео: 6000 kb/s, 1280x532
Аудио: Russian: MP3, 192 kb/s (2 ch) / English: DTS, 1510 kb/s (6 ch)
Скачать

Загрузка начнется в течение 5 сек.

4.91 GB

Название: Шкатулка проклятия / The Possession (2012) DVDRip | Звук с CAMRip
Качество видео: DVDRip
Перевод: Дублированный [звук с CAMRip]
Видео: XviD (AVI) 640x272 (2.35:1), 23.976 fps, XviD MPEG-4 ~949 kbps avg, 0.23 bit/pixel
Аудио: 44.100 kHz, MPEG Layer 3, 2 ch, ~192.00 kbps avg
Скачать

Загрузка начнется в течение 5 сек.

725.88 MB

Название: Шкатулка проклятия / The Possession (2012) DVDRip | Звук с CAMRip
Качество видео: DVDRip
Перевод: Дублированное [звук с CAMRip]
Формат видео: AVI (XvID)
Видео: 1845 kb/s, 720x304
Аудио: Russian/Spanish: MP3, 192 kb/s (2 ch)
Скачать

Загрузка начнется в течение 5 сек.

1.36 GB

Название: Шкатулка проклятия / The Possession (2012) CAMRip *PROPER*
Качество видео: CAMRip PROPER
Перевод: Дублированное
Формат видео: AVI (XvID)
Видео: 989 kb/s, 640x272
Аудио: MP3, 128 kb/s (2 ch)
Скачать

Загрузка начнется в течение 5 сек.

702.40 MB

Название: Шкатулка проклятия / The Possession (2012) CAMRip *PROPER*
Качество видео: CAMRip *PROPER*
Перевод: Дублированный
Видео: XviD 2102 kb/s, 720x304
Аудио: MP3, 128 kb/s, (2 ch)
Скачать

Загрузка начнется в течение 5 сек.

1.36 GB

Название: Шкатулка проклятия / The Possession (2012) CAMRip
Качество видео: CAMRip
Перевод: Дублированный
Видео: XviD 1127 kb/s, 688x288
Аудио: MP3, 128 kb/s, (2 ch)
Скачать

Загрузка начнется в течение 5 сек.

706.71 MB

Название: Шкатулка проклятия / The Possession (2012) HD 1080p | трейлер
Качество видео: HD 1080p
Перевод: Полное дублированние
Видео: h364 1920x792, 7884 kbps, 30 fps
Аудио: AAC 2 ch, 128 kbps
Скачать

Загрузка начнется в течение 5 сек.

148.45 MB

Скачать фильм Шкатулка проклятия (2012) через торрент

gig-torrent.net

26 января 2016 12:06 Шкатулка проклятия / The Possession (2012) BDRemux 1080i | D | Rus Transfer .torrent   [Информация о файле (нажмите для просмотра)] Перевод: ДубляжКонтейнер: MKVКачество: BDRemux 1080i [Rus Transfer]Видео: MPEG-4 AVC Video / 24000 kbps / 1920x1080i / 25 fps / 16:9 / High Profile 4.1Аудио 1: Русский / DTS-HD Master Audio / 2320 kbps / 7.1 / 48 kHz / 16-bit (DTS Core: 5.1-ES / 48 kHz / 1509 kbps / 16-bit) / ДубляжАудио 2: English / DTS-HD Master Audio / 3455 kbps / 5.1 / 48 kHz / 24-bit (DTS Core: 5.1 / 48 kHz / 1509 kbps / 24-bit) / Оригинал US Blu-rayАудио 3: English / Dolby Digital Audio / 256 kbps / 2.0 / 48 kHz / 16-bit / Комментарии US Blu-rayАудио 4: English / Dolby Digital Audio / 256 kbps / 2.0 / 48 kHz / 16-bit / Комментарии US Blu-rayСубтитры: русские (Full), английские (Full, SDH, SDH Colored) 18,6 Gb 7 1
26 января 2016 12:06 Шкатулка проклятия / The Possession (2012) HDRip .torrent   [Информация о файле (нажмите для просмотра)] Перевод: ДубляжКодек: XvidКачество: HDRip [BDRip 1080p]Видео: 656x368 (1.78:1), 25 fps, XviD build 65 ~1036 kbps avg, 0.17 bit/pixelЗвук: 48 kHz, MPEG Layer 3, 2 ch, ~128.00 kbps avg 743,12 Mb 31 5
26 января 2016 12:06 Шкатулка проклятия / The Possession (2012) BDRip 720p от Leonardo and Scarabey | Лицензия | US Transfer .torrent   [Информация о файле (нажмите для просмотра)] Перевод: Профессиональный (полное дублирование) ЛицензияСубтитры: Русские, английскиеФормат: MKVВидео кодек: MPEG-4 AVC Аудио кодек: AC3Видео: AVC, 1280x530 (2.40:1) at 23.976 fps, AVC at 6132 kbps avg, 0.377 bit/pixelАудио: 48 kHz, AC3 Dolby Digital, 3/2 (L,C,R,l,r) + LFE ch, 640.00 kbps - RussianСубтитры: Русские, английские 4,45 Gb 46 1
26 января 2016 12:06 Шкатулка проклятия / The Possession (2012) BDRip 720p от HELLYWOOD .torrent   [Информация о файле (нажмите для просмотра)] Перевод: Профессиональный (полное дублирование) Оригинальная звуковая дорожкаСубтитры: Русские[Full], Английские [Full, SDH, SDH Colored]Формат: MKVКачество: BDRip 720p (Исходник: HDLine /Blu-ray Remux /1080p)Видео: 1280x532 at 23.976 fps, [email protected], 2pass, ~6460 kbps avgАудио #1: 48 kHz, AC3 Dolby Digital, 3/2 (L,C,R,l,r) + LFE ch, ~640 kbps|DUB|Аудио #2: 48 kHz, AC3 Dolby Digital, 3/2 (L,C,R,l,r) + LFE ch, ~640 kbps|ENG| 4,99 Gb 9 1
26 января 2016 12:06 Шкатулка проклятия / The Possession (2012) BDRip 1080p от Neofilm .torrent   [Информация о файле (нажмите для просмотра)] Перевод: ДублированныйКодек: x.264Качество: BDRip 1080pВидео: 6178 kb/s. 1920x1080, 25 fpsЗвук: AC3, 448 kb/s (6Ch)-Дубляж AC3, 448 kb/s (6Ch)-ОригиналСубтитры: Русские, английскиеВидео: Идентификатор : 1 Формат : AVC Формат/Информация : Advanced Video Codec Профиль формата : [email protected] Параметр CABAC формата : Да Параметр ReFrames формата : 4 кадра Идентификатор кодека : V_MPEG4/ISO/AVC Продолжительность : 1 ч. 28 м. Битрейт : 6178 Кбит/сек Ширина : 1920 пикселей Высота : 1080 пикселей Соотношение сторон : 16:9 Режим частоты кадров : Постоянный Частота кадров : 25,000 кадров/сек Цветовое пространство : YUV Субдискретизация насыщенности : 4:2:0 Битовая глубина : 8 бит Тип развёртки : Прогрессивная Бит/(Пиксели*Кадры) : 0.119 Размер потока : 3,73 Гбайт (85%) Заголовок : The Possession (2012)-BDRip 1080p от Neofilm Библиотека кодирования : x264 core 129 r2245 bc13772 Настройки программы : cabac=1 / ref=4 / deblock=1:-3:-3 / analyse=0x3:0x113 / me=umh / subme=11 / psy=1 / psy_rd=1.00:0.05 / mixed_ref=1 / me_range=32 / chroma_me=1 / trellis=2 / 8x8dct=1 / cqm=0 / deadzone=21,11 / fast_pskip=0 / chroma_qp_offset=-3 / threads=12 / lookahead_threads=2 / sliced_threads=0 / nr=0 / decimate=0 / interlaced=0 / bluray_compat=0 / constrained_intra=0 / bframes=5 / b_pyramid=2 / b_adapt=2 / b_bias=0 / direct=3 / weightb=1 / open_gop=0 / weightp=2 / keyint=250 / keyint_min=25 / scenecut=40 / intra_refresh=0 / rc=2pass / mbtree=0 / bitrate=6178 / ratetol=1.0 / qcomp=0.60 / qpmin=0 / qpmax=69 / qpstep=4 / cplxblur=20.0 / qblur=0.5 / ip_ratio=1.40 / pb_ratio=1.30 / aq=2:0.70 Язык : English Default : Нет Forced : НетАудио #1: Идентификатор : 2 Формат : AC-3 Формат/Информация : Audio Coding 3 Расширение режима : CM (complete main) Параметр Endianness формата : Big Идентификатор кодека : A_AC3 Продолжительность : 1 ч. 28 м. Вид битрейта : Постоянный Битрейт : 448 Кбит/сек Каналы : 6 каналов Расположение каналов : Front: L C R, Side: L R, LFE Частота : 48,0 КГц Битовая глубина : 16 бит Метод сжатия : С потерями Размер потока : 284 Мбайт (6%) Заголовок : Профессиональный (полное дублирование) Язык : Russian Default : Нет Forced : НетАудио #2: Идентификатор : 3 Формат : AC-3 Формат/Информация : Audio Coding 3 Расширение режима : CM (complete main) Параметр Endianness формата : Big Идентификатор кодека : A_AC3 Продолжительность : 1 ч. 28 м. Вид битрейта : Постоянный Битрейт : 448 Кбит/сек Каналы : 6 каналов Расположение каналов : Front: L C R, Side: L R, LFE Частота : 48,0 КГц Битовая глубина : 16 бит Метод сжатия : С потерями Размер потока : 284 Мбайт (6%) Заголовок : Оригинальная звуковая дорожка (английская) Язык : English Default : Нет Forced : Нет 4,37 Gb 46 2
26 января 2016 12:06 Шкатулка проклятия / The Possession (2012) BDRip от HELLYWOOD .torrent   [Информация о файле (нажмите для просмотра)] Перевод: Профессиональный (полное дублированное)Субтитры: Русские, Английские (полные, SDH, SDH цветные)(отдельным файлом)Формат: AVIКачество: BDRip (источник:Видео: 720x304 (2.37:1), 23.976 fps, XviD build 65 ~1796 kbps avg, 0.34 bit/pixelАудио #1: 48 kHz, AC3 Dolby Digital, 3/2 (L,C,R,l,r) + LFE ch, ~448 kbps|DUB|Аудио #2: 48 kHz, AC3 Dolby Digital, 3/2 (L,C,R,l,r) + LFE ch, ~448 kbps|ENG| 1,45 Gb 37 5
26 января 2016 12:06 Шкатулка проклятия / The Possession (2012) BDRip-AVC от HQCLUB .torrent   [Информация о файле (нажмите для просмотра)] Перевод: Профессиональный (полное дублирование) + Оригинальная звуковая дорожка (английская)Субтитры: русские (полные)(*.srt, отключаемые)Формат: MKVКачество: BDRip-AVC (Источник:Видео: 1024x576 (1.78:1), 25.000 fps, ~2630 kbps avg, 0.178 bit/pixelАудио #1: 48 kHz, AC3 Dolby Digital, 3/2 (L,C,R,l,r) + LFE ch, ~448 kbps |Дубляж|Аудио #2: 48 kHz, AC3 Dolby Digital, 3/2 (L,C,R,l,r) + LFE ch, ~448 kbps |Оригинальная звуковая дорожка|Видео: Идентификатор : 1 Формат : AVC Формат/Информация : Advanced Video Codec Профиль формата : [email protected] Параметр CABAC формата : Да Параметр ReFrames формата : 10 кадров Идентификатор кодека : V_MPEG4/ISO/AVC Продолжительность : 1 ч. 28 м. Битрейт : 2630 Кбит/сек Ширина : 1024 пикселя Высота : 576 пикселей Соотношение сторон : 16:9 Частота кадров : 25,000 кадров/сек Цветовое пространство : YUV Субдискретизация насыщенности : 4:2:0 Битовая глубина : 8 бит Тип развёртки : Прогрессивная Бит/(Пиксели*Кадры) : 0.178 Размер потока : 1,58 Гбайт (73%) Заголовок : HQCLUB by Deep Fusion Библиотека кодирования : x264 core 129 r2230 1cffe9f Настройки программы : cabac=1 / ref=10 / deblock=1:-2:-1 / analyse=0x3:0x113 / me=umh / subme=11 / psy=1 / psy_rd=1.01:0.03 / mixed_ref=1 / me_range=48 / chroma_me=1 / trellis=2 / 8x8dct=1 / cqm=0 / deadzone=21,11 / fast_pskip=0 / chroma_qp_offset=-5 / threads=6 / lookahead_threads=1 / sliced_threads=0 / nr=0 / decimate=1 / interlaced=0 / bluray_compat=0 / constrained_intra=0 / bframes=11 / b_pyramid=2 / b_adapt=2 / b_bias=0 / direct=1 / weightb=1 / open_gop=0 / weightp=2 / keyint=250 / keyint_min=25 / scenecut=40 / intra_refresh=0 / rc_lookahead=60 / rc=2pass / mbtree=0 / bitrate=2630 / ratetol=1.0 / qcomp=0.70 / qpmin=10 / qpmax=69 / qpstep=4 / cplxblur=20.0 / qblur=0.5 / vbv_maxrate=62500 / vbv_bufsize=50000 / nal_hrd=none / ip_ratio=1.40 / pb_ratio=1.30 / aq=1:0.80 Язык : English Default : Да Forced : НетАудио #1: Идентификатор : 2 Формат : AC-3 Формат/Информация : Audio Coding 3 Расширение режима : CM (complete main) Параметр Endianness формата : Big Идентификатор кодека : A_AC3 Продолжительность : 1 ч. 28 м. Вид битрейта : Постоянный Битрейт : 448 Кбит/сек Каналы : 6 каналов Расположение каналов : Front: L C R, Side: L R, LFE Частота : 48,0 КГц Битовая глубина : 16 бит Метод сжатия : С потерями Размер потока : 284 Мбайт (13%) Заголовок : Профессиональный (полное дублирование) Язык : Russian Default : Да Forced : НетАудио #2: Идентификатор : 3 Формат : AC-3 Формат/Информация : Audio Coding 3 Расширение режима : CM (complete main) Параметр Endianness формата : Big Идентификатор кодека : A_AC3 Продолжительность : 1 ч. 28 м. Вид битрейта : Постоянный Битрейт : 448 Кбит/сек Каналы : 6 каналов Расположение каналов : Front: L C R, Side: L R, LFE Частота : 48,0 КГц Битовая глубина : 16 бит Метод сжатия : С потерями Размер потока : 284 Мбайт (13%) Заголовок : Оригинальная звуковая дорожка (английская) Язык : English Default : Нет Forced : Нет 2,18 Gb 39 4
26 января 2016 12:06 Шкатулка проклятия / The Possession (2012) BDRip-AVC от qusi555 .torrent   [Информация о файле (нажмите для просмотра)] Перевод: Профессиональный (полное дублирование) лицензияКодек: V_MPEG4/ISO/AVCКачество: BDRip-AVCВидео: x264, AVC, 912x376, 993 Kbps, 23.976 fps, 0.152Звук: MPEG Audio, MP3, Variable, 128 Kbps, 2 channels, 48.0 KHz 737,42 Mb 8 1
26 января 2016 12:06 Шкатулка проклятия / The Possession (2012) BDRip-AVC | iPad .torrent   [Информация о файле (нажмите для просмотра)] Перевод: ДублированныйСубтитры: русские, английскиеФормат: MP4 (контейнер m4v)Видео: AVC,, 1024x576 (16:9) at 25.000 fps, AVC at 3071 kbps avg, 0.208 bit/pixelАудио: Русский: 48 kHz, AAC, 2ch, 160 kbps | ДублированныйАудио: Английский: 48 kHz, AAC, 2ch, 160 Kbps | Оригинал 2,11 Gb 6 2
26 января 2016 12:06 Шкатулка проклятия / The Possession (2012) BDRip от HQCLUB | Лицензия .torrent   [Информация о файле (нажмите для просмотра)] Перевод: Профессиональный (полное дублирование) +Оригинальная звуковая дорожкаСубтитры: Русские, английские (внешние *.srt)Формат: AVIКачество: BDRip (источник:Видео: 720x304 (2.37:1), 23.976 fps, XviD build 65 ~1798 kbps avg, 0.34 bit/pixelАудио #1: 48 kHz, AC3 Dolby Digital, 3/2 (L,C,R,l,r) + LFE ch, ~448.00 kbps avgАудио #2: 48 kHz, AC3 Dolby Digital, 3/2 (L,C,R,l,r) + LFE ch, ~448.00 kbps avg(отдельно на Narod.Ru) 1,45 Gb 196 7
26 января 2016 12:06 Шкатулка проклятия / The Possession (2012) BDRip 720p от HQCLUB .torrent   [Информация о файле (нажмите для просмотра)] Перевод: Профессиональный (полное дублирование)BD RUS + Оригинальная звуковая дорожка (Английская)Субтитры: Русские, английские (2 вида) (отключаемые, *.srt)Формат: mkvКачество: BDRip 720p (источник:Видео: 1280x532 (2.40:1), 23.976 fps, ~6102 kbps avg, 0.374 bit/pixel Аудио #1: 48 kHz, AC3 Dolby Digital, 3/2 (L,C,R,l,r) + LFE ch, ~640.00 kbps avgBD RUSАудио #2: 48 kHz, AC3 Dolby Digital, 3/2 (L,C,R,l,r) + LFE ch, ~640.00 kbps avgВидео: Идентификатор : 1 Формат : AVC Формат/Информация : Advanced Video Codec Профиль формата : [email protected] Параметр CABAC формата : Да Параметр ReFrames формата : 4 кадра Идентификатор кодека : V_MPEG4/ISO/AVC Продолжительность : 1 ч. 32 м. Битрейт : 6102 Кбит/сек Ширина : 1280 пикселей Высота : 532 пикселя Соотношение сторон : 2,40:1 Режим частоты кадров : Постоянный Частота кадров : 23,976 кадра/сек Цветовое пространство : YUV Субдискретизация насыщенности : 4:2:0 Битовая глубина : 8 бит Тип развёртки : Прогрессивная Бит/(Пиксели*Кадры) : 0.374 Размер потока : 3,93 Гбайт (81%) Заголовок : Шкатулка проклятия / The Possession (2012) BDRip 720p | HQCLUB Библиотека кодирования : x264 core 120 r2146 bcd41db Настройки программы : cabac=1 / ref=4 / deblock=1:-3:-2 / analyse=0x3:0x113 / me=umh / subme=9 / psy=1 / psy_rd=1.00:0.00 / mixed_ref=1 / me_range=48 / chroma_me=1 / trellis=2 / 8x8dct=1 / cqm=0 / deadzone=21,11 / fast_pskip=1 / chroma_qp_offset=-4 / threads=12 / sliced_threads=0 / nr=0 / decimate=1 / interlaced=0 / bluray_compat=0 / constrained_intra=0 / bframes=10 / b_pyramid=2 / b_adapt=2 / b_bias=0 / direct=1 / weightb=1 / open_gop=0 / weightp=2 / keyint=240 / keyint_min=24 / scenecut=40 / intra_refresh=0 / rc=cqp / mbtree=0 / qp=19 / ip_ratio=1.40 / pb_ratio=1.30 / aq=0 Язык : English Default : Да Forced : НетАудио #1: Идентификатор : 2 Формат : AC-3 Формат/Информация : Audio Coding 3 Расширение режима : CM (complete main) Параметр Endianness формата : Big Идентификатор кодека : A_AC3 Продолжительность : 1 ч. 32 м. Вид битрейта : Постоянный Битрейт : 640 Кбит/сек Каналы : 6 каналов Расположение каналов : Front: L C R, Side: L R, LFE Частота : 48,0 КГц Битовая глубина : 16 бит Метод сжатия : С потерями Размер потока : 422 Мбайт (8%) Заголовок : Дубляж (BD RUS) AC3 5.1 @ 640 kbps Язык : Russian Default : Да Forced : НетАудио #2: Идентификатор : 3 Формат : AC-3 Формат/Информация : Audio Coding 3 Расширение режима : CM (complete main) Параметр Endianness формата : Big Идентификатор кодека : A_AC3 Продолжительность : 1 ч. 32 м. Вид битрейта : Постоянный Битрейт : 640 Кбит/сек Каналы : 6 каналов Расположение каналов : Front: L C R, Side: L R, LFE Частота : 48,0 КГц Битовая глубина : 16 бит Метод сжатия : С потерями Размер потока : 422 Мбайт (8%) Заголовок : Оригинал AC3 5.1 @ 640 kbps Язык : English Default : Нет Forced : Нет 4,85 Gb 6 5
26 января 2016 12:06 Шкатулка проклятия / The Possession (2012) Blu-Ray 1080i от HDCLUB .torrent   19,9 Gb 4 1
26 января 2016 12:06 Шкатулка проклятия / The Possession (2012) HDRip от Scarabey | D | Лицензия .torrent   [Информация о файле (нажмите для просмотра)] Перевод: Профессиональный (дублированный) Видео: 720x304 (2.37:1), 23.976 fps, XviD build 50 ~1792 kbps avg, 0.34 bit/pixelАудио: 48 kHz, AC3 Dolby Digital, 3/2 (L,C,R,l,r) + LFE ch, ~448.00 kbps avg 1,45 Gb 13 1
26 января 2016 12:05 Шкатулка проклятия / The Possession (2012) HDRip от Scarabey | D | Лицензия .torrent   [Информация о файле (нажмите для просмотра)] Перевод: Профессиональный (дублированный) Видео: 688x288 (2.39:1), 23.976 fps, XviD build 50 ~992 kbps avg, 0.21 bit/pixelАудио: 48 kHz, MPEG Layer 3, 2 ch, ~128.00 kbps avg 745,68 Mb 24 2
26 января 2016 12:05 Шкатулка проклятия / The Possession (2012) BDRip 720p | Лицензия .torrent   [Информация о файле (нажмите для просмотра)] Перевод: Дублированный [лицензия]Субтитры: Русский, Английский (Full, SDH)Кодек: MPEG-4 AVC/H.264Качество: BDRip-AVCВидео: 2484 Кбит/сек,1280x534Аудио #1: Русский (Dolby AC3, 6 ch) 448 Кбит/секАудио #2: Английский (Dolby AC3, 6 ch) 448 Кбит/секВидео: Идентификатор : 1 Формат : AVC Формат/Информация : Advanced Video Codec Профиль формата : [email protected] Параметр CABAC формата : Да Параметр ReFrames формата : 12 кадров Идентификатор кодека : V_MPEG4/ISO/AVC Продолжительность : 1 ч. 32 м. Битрейт : 2484 Кбит/сек Ширина : 1280 пикселей Высота : 534 пикселя Соотношение сторон : 2,40:1 Частота кадров : 23,976 кадра/сек Цветовое пространство : YUV Субдискретизация насыщенности : 4:2:0 Битовая глубина : 8 бит Тип развёртки : Прогрессивная Бит/(Пиксели*Кадры) : 0.152 Размер потока : 1,56 Гбайт (72%) Заголовок : ENCODER........: MysTeRy Библиотека кодирования : x264 core 125 r2208 d9d2288 Настройки программы : cabac=1 / ref=12 / deblock=1:-3:-3 / analyse=0x3:0x113 / me=umh / subme=11 / psy=1 / psy_rd=1.05:0.00 / mixed_ref=1 / me_range=32 / chroma_me=1 / trellis=2 / 8x8dct=1 / cqm=0 / deadzone=21,11 / fast_pskip=0 / chroma_qp_offset=-2 / threads=12 / lookahead_threads=2 / sliced_threads=0 / nr=0 / decimate=1 / interlaced=0 / bluray_compat=0 / constrained_intra=0 / bframes=10 / b_pyramid=2 / b_adapt=2 / b_bias=0 / direct=3 / weightb=1 / open_gop=0 / weightp=2 / keyint=250 / keyint_min=23 / scenecut=40 / intra_refresh=0 / rc_lookahead=40 / rc=2pass / mbtree=0 / bitrate=2484 / ratetol=1.0 / qcomp=0.70 / qpmin=10 / qpmax=69 / qpstep=4 / cplxblur=20.0 / qblur=0.5 / vbv_maxrate=50000 / vbv_bufsize=61400 / nal_hrd=none / ip_ratio=1.40 / pb_ratio=1.30 / aq=1:1.00 Язык : English Default : Да Forced : Нет Основные цвета : BT.709-5, BT.1361, IEC 61966-2-4, SMPTE RP177 Характеристики трансфера : BT.709-5, BT.1361 Коэффициенты матрицы : BT.709-5, BT.1361, IEC 61966-2-4 709, SMPTE RP177Аудио #1: Идентификатор : 2 Формат : AC-3 Формат/Информация : Audio Coding 3 Расширение режима : CM (complete main) Идентификатор кодека : A_AC3 Продолжительность : 1 ч. 32 м. Вид битрейта : Постоянный Битрейт : 448 Кбит/сек Каналы : 6 каналов Расположение каналов : Front: L C R, Side: L R, LFE Частота : 48,0 КГц Битовая глубина : 16 бит Метод сжатия : С потерями Размер потока : 296 Мбайт (13%) Заголовок : Dub Язык : Russian Default : Да Forced : НетАудио #2: Идентификатор : 3 Формат : AC-3 Формат/Информация : Audio Coding 3 Расширение режима : CM (complete main) Идентификатор кодека : A_AC3 Продолжительность : 1 ч. 32 м. Вид битрейта : Постоянный Битрейт : 448 Кбит/сек Каналы : 6 каналов Расположение каналов : Front: L C R, Side: L R, LFE Частота : 48,0 КГц Битовая глубина : 16 бит Метод сжатия : С потерями Размер потока : 296 Мбайт (13%) Заголовок : Original Язык : English Default : Нет Forced : Нет 2,18 Gb 45 2
26 января 2016 12:05 Шкатулка проклятия / The Possession (2012) HDRip от New-Team | iPhone .torrent   1,14 Gb 19 2
26 января 2016 12:05 Шкатулка проклятия / The Possession (2012) DVD5 сжатый | Лицензия .torrent   [Информация о файле (нажмите для просмотра)] Перевод: Профессиональный (полное дублирование)Качество: DVD5 (сжатый)Формат: DVD VideoВидео: MPEG2; PAL 16:9 (720x576)Аудио: Dolby AC3, 6 ch, 384 KbpsRussianСубтитры: русскиеВидео: Идентификатор : 224 (0xE0) Формат : MPEG Video Версия формата : Version 2 Профиль формата : [email protected] Параметр BVOP формата : Да Параметр матрицы формата : Выборочная Продолжительность : 19 м. Вид битрейта : Переменный Битрейт : 6761 Кбит/сек Максимальный битрейт : 8472 Кбит/сек Ширина : 720 пикселей Высота : 576 пикселей Соотношение сторон : 16:9 Частота кадров : 25,000 кадров/сек Стандарт вещания : PAL Цветовое пространство : YUV Субдискретизация насыщенности : 4:2:0 Битовая глубина : 8 бит Тип развёртки : Чересстрочная Порядок развёртки : Верхнее поле первое Метод сжатия : С потерями Бит/(Пиксели*Кадры) : 0.652 Размер потока : 950 Мбайт (93%)Аудио: Идентификатор : 189 (0xBD)-128 (0x80) Формат : AC-3 Формат/Информация : Audio Coding 3 Расширение режима : CM (complete main) Режим смешивания : DVD-Video Продолжительность : 19 м. Вид битрейта : Постоянный Битрейт : 384 Кбит/сек Каналы : 6 каналов Расположение каналов : Front: L C R, Side: L R, LFE Частота : 48,0 КГц Битовая глубина : 16 бит Метод сжатия : С потерями Размер потока : 53,9 Мбайт (5%) 4,36 Gb 2 1
26 января 2016 12:05 Шкатулка проклятия / The Possession (2012) BDRip-AVC от potroks | Лицензия .torrent   [Информация о файле (нажмите для просмотра)] Перевод: Профессиональный (полное дублирование)Субтитры: Русские, английские (Full, SDH)Качество: BDRip-AVC [The.Possession.2012.1080p.Bluray.Remux.AVC.DTS-HD.MA.5.1]Формат: MKVВидео: H.264, 1024x424 (2,40:1), 23,976 кадр/сек, 1820 Кбит/сек, 0.175 bit/pixelАудио#1: 48 kHz, AC3 Dolby Digital, 3/2 (L,C,R,l,r) + LFE ch, ~448.00 kbps avg |RUSАудио#2: 48 kHz, AC3 Dolby Digital, 3/2 (L,C,R,l,r) + LFE ch, ~448.00 kbps avg |ENG (отдельно на narod.ru) 1,46 Gb 19 2
26 января 2016 12:05 Шкатулка проклятия / The Possession (2012) HDRip от Generalfilm | КПК | Лицензия .torrent   [Информация о файле (нажмите для просмотра)] Перевод: Дублированный [лицензия]Кодек: AVCКачество: HDRip | КПКВидео: AVC, 640x272 (2.35), 23.976 fps, 400 Kbps (0.096 bit/pixel)Звук: AAC LC, 48.0 KHz, 2 ch, 128 Kbps, VBR 349,79 Mb 4 3
26 января 2016 12:05 Шкатулка проклятия / The Possession (2012) BDRemux 1080p | Лицензия .torrent   [Информация о файле (нажмите для просмотра)] Перевод: Дублированное [лицензия]Качество: BDRemux 1080pКонтейнер: MKVВидео: MPEG-4 AVC Video / 32818 kbps / 1920x1080p / 23,976 fps / 16:9 / High Profile 4.1Аудио 1: Русский / DTS Audio / 768 kbps / 5.1 / 48 kHz / 24-bit (Dub R5)Аудио 2: English / DTS-HD Master Audio / 3455 kbps / 5.1 / 48 kHz / 24-bit (DTS Core: 5.1 / 48 kHz / 1509 kbps / 24-bit) (Оригинал)Аудио 3: English / Dolby Digital Audio / 256 kbps / 2.0 / 48 kHz / 16-bit (Комментарии)Аудио 4: English / Dolby Digital Audio / 256 kbps / 2.0 / 48 kHz / 16-bit (Комментарии)Субтитры: Русские, английские 24,19 Gb 7 2
26 января 2016 12:05 Шкатулка проклятия / The Possession (2012) BDRip 1080p | IRONCLUB .torrent   [Информация о файле (нажмите для просмотра)] Перевод: Дублированное [лицензия]Формат: MKVКачество: BDRip 1080p [CHD]Видео: 12010 kb/s, 1920x796Аудио: Russian: DTS, 755 kb/s (6 ch) / English: DTS, 1510 kb/s (6 ch) / AC3, 128 kb/s (2 ch) [Commentary]Субтитры: Russian, English [Full, SDH], Spanish 9,25 Gb 16 2

Скачать фильм Шкатулка проклятия через торрент в хорошем качестве бесплатно 720p

avs [info]: 1280x528p 1:1 @ 2500000/104271 fps (cfr)x264 [info]: using SAR=1/1x264 [info]: using cpu capabilities: MMX2 SSE2Fast SSSE3 FastShuffle SSE4.2x264 [info]: profile High, level 4.1

x264 [info]: frame I:1142 Avg QP:16.50 size:126201x264 [info]: frame P:26889 Avg QP:18.41 size: 48684x264 [info]: frame B:104641 Avg QP:21.29 size: 20423x264 [info]: consecutive B-frames: 1.9% 3.6% 3.6% 15.8% 17.0% 38.5% 9.0% 5.0% 3.1% 2.5%x264 [info]: mb I I16..4: 18.5% 66.1% 15.4%x264 [info]: mb P I16..4: 0.7% 19.0% 1.0% P16..4: 31.3% 27.9% 17.4% 0.0% 0.0% skip: 2.7%x264 [info]: mb B I16..4: 0.0% 2.5% 0.1% B16..8: 43.9% 14.9% 5.3% direct: 8.2% skip:25.1% L0:44.4% L1:42.8% BI:12.8%x264 [info]: 8x8 transform intra:89.4% inter:54.6%x264 [info]: direct mvs spatial:96.6% temporal:3.4%x264 [info]: coded y,uvDC,uvAC intra: 97.0% 72.2% 52.1% inter: 40.2% 15.9% 6.0%x264 [info]: i16 v,h,dc,p: 29% 8% 39% 24%x264 [info]: i8 v,h,dc,ddl,ddr,vr,hd,vl,hu: 9% 8% 18% 9% 12% 11% 11% 10% 12%x264 [info]: i4 v,h,dc,ddl,ddr,vr,hd,vl,hu: 11% 9% 4% 9% 15% 15% 13% 12% 12%x264 [info]: i8c dc,h,v,p: 47% 22% 17% 14%x264 [info]: Weighted P-Frames: Y:8.4% UV:4.3%x264 [info]: ref P L0: 39.2% 8.8% 19.2% 7.3% 6.9% 4.5% 4.4% 2.2% 2.3% 1.7% 1.8% 1.5% 0.2% 0.0%x264 [info]: ref B L0: 62.4% 14.1% 7.6% 4.4% 3.2% 2.7% 2.1% 1.4% 1.1% 0.7% 0.2%x264 [info]: ref B L1: 90.5% 9.5%x264 [info]: kb/s:5190.48

x264 [total]: encoded 132672 frames, 3.71 fps, 5190.48 kb/s--------------------------------------------------------------------------------Format : MatroskaFormat version : Version 2File size : 3.92 GiBDuration : 1h 32mnOverall bit rate : 6 089 KbpsMovie name : [email protected]oviesEncoded date : UTC 2013-01-21 00:36:54Writing application : mkvmerge v4.0.0 ('The Stars were mine') built on Jun 6 2010 16:18:42Writing library : libebml v1.0.0 + libmatroska v1.0.0

VideoID : 1Format : AVCFormat/Info : Advanced Video CodecFormat profile : [email protected] settings, CABAC : YesFormat settings, ReFrames : 12 framesCodec ID : V_MPEG4/ISO/AVCDuration : 1h 32mnBit rate : 5 193 KbpsWidth : 1 280 pixelsHeight : 528 pixelsDisplay aspect ratio : 2.40:1Frame rate : 23.976 fpsColor space : YUVChroma subsampling : 4:2:0Bit depth : 8 bitsScan type : ProgressiveBits/(Pixel*Frame) : 0.320Stream size : 3.27 GiB (83%)Writing library : x264 core 119 r2106 07efeb4Encoding settings : cabac=1 / ref=12 / deblock=1:-2:-1 / analyse=0x3:0x113 / me=umh / subme=10 / psy=1 / psy_rd=1.10:0.10 / mixed_ref=1 / me_range=32 / chroma_me=1 / trellis=2 / 8x8dct=1 / cqm=0 / deadzone=21,11 / fast_pskip=0 / chroma_qp_offset=-3 / threads=6 / sliced_threads=0 / nr=0 / decimate=0 / interlaced=0 / bluray_compat=0 / constrained_intra=0 / bframes=9 / b_pyramid=2 / b_adapt=2 / b_bias=0 / direct=3 / weightb=1 / open_gop=0 / weightp=2 / keyint=240 / keyint_min=24 / scenecut=40 / intra_refresh=0 / rc=2pass / mbtree=0 / bitrate=5193 / ratetol=1.0 / qcomp=0.70 / qpmin=0 / qpmax=69 / qpstep=4 / cplxblur=20.0 / qblur=0.5 / ip_ratio=1.40 / pb_ratio=1.30 / aq=1:0.90Language : EnglishDefault : NoForced : No

Audio #1ID : 2Format : AC-3Format/Info : Audio Coding 3Mode extension : CM (complete main)Format settings, Endianness : BigCodec ID : A_AC3Duration : 1h 32mnBit rate mode : ConstantBit rate : 448 KbpsChannel(s) : 6 channelsChannel positions : Front: L C R, Side: L R, LFESampling rate : 48.0 KHzBit depth : 16 bitsCompression mode : LossyStream size : 296 MiB (7%)Title : ДубляжLanguage : RussianDefault : YesForced : No

Audio #2ID : 3Format : AC-3Format/Info : Audio Coding 3Mode extension : CM (complete main)Format settings, Endianness : BigCodec ID : A_AC3Duration : 1h 32mnBit rate mode : ConstantBit rate : 448 KbpsChannel(s) : 6 channelsChannel positions : Front: L C R, Side: L R, LFESampling rate : 48.0 KHzBit depth : 16 bitsCompression mode : LossyStream size : 296 MiB (7%)Title : ОригиналLanguage : EnglishDefault : NoForced : No

Text #1ID : 4Format : UTF-8Codec ID : S_TEXT/UTF8Codec ID/Info : UTF-8 Plain TextTitle : fullLanguage : RussianDefault : YesForced : No

Text #2ID : 5Format : UTF-8Codec ID : S_TEXT/UTF8Codec ID/Info : UTF-8 Plain TextTitle : fullLanguage : EnglishDefault : NoForced : No

piratbit.ru

Шкатулка проклятия (2012) скачать торрент в хорошем качестве бесплатно. Скачать Шкатулка проклятия (2012) через торрент фильм в HD качестве

Название: Шкатулка проклятияОригинальное название: The PossessionГод выпуска: 2012Выпущено: США, КанадаЖанр: ужасы, триллер, изгнание дьявола, нечистая силаПродолжительность: 01:31:49Перевод: Дублированный (лицензия)

Качество видео: HDRip (Лицензия)Формат видео: aviРазмер: 1450 MB

Режиссер: Уле БорнедальВ ролях: Джеффри Дин Морган, Михаил Георгиу, Наташа Калис, Кира Седжвик, Мэдисон Девенпорт, Роб ЛаБелль и др.

Описание: Главные герои - обычная американская семья, двое детей, родители обожают своих дочурок и не жалеют для них ничего. Вот и тогда, когда одна из них захотела старинную шкатулку - отец не был против. Он даже не догадывался сколько горя и зла принесет их семье эта покупка. Она как ящик Пандоры таит в себе большое и могучее зло, которое просто уничтожает своего владельца. Отец, столкнувшись с такой потусторонней силой, решается обратится к служителя небесным, так как медицина бессильна. Общими усилиями они пытаются разгадать содержание этой шкатулки, обращаясь в давно забытые предания. Смогут ли они побороть этот черный ужас, который завладел и душей и телом его дочери?! И что все-таки скрывается в этой древней шкатулке...Фильм основан на реальных событиях, вот что делает его еще более захватывающим.Он продержит вас в напряжении от начала и до конца.

Рецензия от сайта Igrhost.ruОтец двенадцатилетней Эмили Клайд Бренек вместе с ней отправляется на ярмарку, которая проводится в одном из соседних дворов. Там девочку по-настоящему заинтересовала красивая винтажная шкатулка, которую она и просит у отца купить. Заботливый и любящий отец Клайд не может отказать в просьбе своей дочери, но даже не осознает, что на самом деле он приобрел.Спустя некоторое время девочка становится одержимой новой покупкой, но у родителей это не вызывает абсолютно никакого беспокойства и они не предают этому никакого значения, ведь всем детям свойственно привязываться к своим игрушкам. Постепенно Клайду становится понятно, что это больше, чем просто привязанность, а в поведении дочери начинают появляться какие-то странности. Его подозрения падают на недавно приобретенную шкатулку, секрет которой он желает раскрыть. У него возникает подозрения относительно того, что в ней может находиться какой-то дух, который творит ужасные вещи с обладателями шкатулки. Выясняется, что в необычную шкатулку во время Второй мировой войны был заключен злой дух, который с годами своего заточения становился все злее. Отец и мать девочки пытаются отыскать способ снять проклятие с их дочери.

Фильм ожидался мной с большим нетерпением, хоть я и не очень люблю экзорцизкую тематику. В первую очередь привлек один момент – демон вселяется в ребенка. А ужастики с участием детской аудитории вызывают у меня особый интерес. Что ж вердикт мой следующий…Даже не глядя на то, что сегодня мы имеем огромное количество кинолент про одержимых демонами, которые хлынули с экранов с момента выхода на экраны фридкинского «Изгоняющего дьявола», редко удается вспомнить такой фильм, который бы по-настоящему пробирал до костей, имея при этом несгибаемый натурализм. Стоит помнить и о том, что сегодня компьютерные технологии превратили ужастик в маленький холокост, что практически свело данный жанр кинематографа и его основу – непосредственный страх, на нет. В данной киноленте, даже с учетом стандартного сюжета, имеются сцены, которые по-настоящему достойны высоких образцов хоррора из прошлых лет. А игра юной актрисы Наташи Калис заслуживает отдельного одобрения. Кинокартина «Шкатулка проклятия» производит положительное впечатление, в особенности благодаря ее игре. Эта девочка невероятна и великолепна! Будущая звезда всех фильмов в жанре ужасов. Даже только из-за нее уже стоит посмотреть этот фильм. У меня вызывают восхищение дети, которые способны сняться в такого рода кинолентах, да еще и играть подобные роли. Представляете, какой нужно обладать выдержкой.Даже относительно небольшой сюжет не помешал создателям, и они смогли достаточно детально проработать малочисленные декорации и создать необходимую атмосферу. Может в некотором роде этим им и удалось компенсировать разочарование от сюжета про еще один экзорцизм, хоть и имеющий еврейские корни. Шкатулка, как главный артефакт данного фильма, тоже вышла довольно неплохой.

igrhost.ru


Смотрите также