Скачать рэд 2 в хорошем качестве через торрент


Скачать фильм РЭД 2 (2013) через торрент

gig-torrent.net

4 февраля 2016 11:31 РЭД 2 / Red 2 (2013) BDRip 1080p | US Transfer .torrent   [Информация о файле (нажмите для просмотра)] Перевод: Дублированный (лицензия) + ОригиналКодек: x264Качество: BDRip (источник: Blu-ray Disc)Видео: 1920x800 (2,40:1), 23.976 fps, 8311 kbpsАудио #1: AC-3, 6 ch, 640 kbps (Rus)Аудио #2: AC-3, 6 ch, 640 kbps (Eng)Субтитры: Русские, АнглийскиеВидео: Идентификатор : 1 Формат : AVC Формат/Информация : Advanced Video Codec Профиль формата : [email protected] Параметр CABAC формата : Да Параметр ReFrames формата : 5 кадров Идентификатор кодека : V_MPEG4/ISO/AVC Продолжительность : 1 ч. 55 м. Битрейт : 8311 Кбит/сек Ширина : 1920 пикселей Высота : 800 пикселей Соотношение сторон : 2,40:1 Режим частоты кадров : Постоянный Частота кадров : 23,976 кадра/сек Цветовое пространство : YUV Субдискретизация насыщенности : 4:2:0 Битовая глубина : 8 бит Тип развёртки : Прогрессивная Бит/(Пиксели*Кадры) : 0.226 Размер потока : 6,56 Гбайт (85%) Заголовок : Release by N1NT3NDO Библиотека кодирования : x264 core 140 r2377 1ca7bb9 Настройки программы : cabac=1 / ref=5 / deblock=1:-3:-3 / analyse=0x3:0x133 / me=umh / subme=11 / psy=1 / psy_rd=1.00:0.00 / mixed_ref=1 / me_range=32 / chroma_me=1 / trellis=2 / 8x8dct=1 / cqm=0 / deadzone=21,11 / fast_pskip=0 / chroma_qp_offset=-2 / threads=12 / lookahead_threads=1 / sliced_threads=0 / nr=0 / decimate=0 / interlaced=0 / bluray_compat=0 / constrained_intra=0 / bframes=6 / b_pyramid=2 / b_adapt=2 / b_bias=0 / direct=3 / weightb=1 / open_gop=0 / weightp=2 / keyint=240 / keyint_min=23 / scenecut=40 / intra_refresh=0 / rc=2pass / mbtree=0 / bitrate=8311 / ratetol=1.0 / qcomp=0.60 / qpmin=0 / qpmax=69 / qpstep=4 / cplxblur=20.0 / qblur=0.5 / ip_ratio=1.40 / pb_ratio=1.30 / aq=1:1.00 Язык : English Default : Да Forced : НетАудио #1: Идентификатор : 2 Формат : AC-3 Формат/Информация : Audio Coding 3 Расширение режима : CM (complete main) Параметр Endianness формата : Big Идентификатор кодека : A_AC3 Продолжительность : 1 ч. 55 м. Вид битрейта : Постоянный Битрейт : 640 Кбит/сек Каналы : 6 каналов Расположение каналов : Front: L C R, Side: L R, LFE Частота : 48,0 КГц Битовая глубина : 16 бит Метод сжатия : С потерями Размер потока : 530 Мбайт (7%) Заголовок : Rus Язык : Russian Default : Да Forced : НетАудио #2: Идентификатор : 3 Формат : AC-3 Формат/Информация : Audio Coding 3 Расширение режима : CM (complete main) Параметр Endianness формата : Big Идентификатор кодека : A_AC3 Продолжительность : 1 ч. 55 м. Вид битрейта : Постоянный Битрейт : 640 Кбит/сек Каналы : 6 каналов Расположение каналов : Front: L C R, Side: L R, LFE Частота : 48,0 КГц Битовая глубина : 16 бит Метод сжатия : С потерями Размер потока : 530 Мбайт (7%) Заголовок : Eng Язык : English Default : Нет Forced : Нет 7,75 Gb 67 8
4 февраля 2016 11:31 РЭД 2 / RED 2 (2013) BDRip-AVC от 0ptimus | D, A .torrent   [Информация о файле (нажмите для просмотра)] Перевод: Дублированный, авторский одноголосыйКодек: h.264Качество: BDRip-AVCВидео: 2074 Кбит/с, 1024x426, 23.976 кадр/сЗвук: • №1: Русский (AC3, 6 ch, 384 Кбит/с) Дублированный • №2: Русский (AC3, 6 ch, 384 Кбит/с) Авторский [Андрей Гаврилов] • №3: Английский (AC3, 6 ch, 384 Кбит/с)Субтитры: Русские (форсированные, полные), английские (полные (3 вида), SDH (2 вида), SDH-цветные)Видео: Идентификатор : 1 Формат : AVC Формат/Информация : Advanced Video Codec Профиль формата : [email protected] Параметр CABAC формата : Да Параметр ReFrames формата : 9 кадров Идентификатор кодека : V_MPEG4/ISO/AVC Продолжительность : 1 ч. 55 м. Битрейт : 2074 Кбит/сек Ширина : 1024 пикселя Высота : 426 пикселей Соотношение сторон : 2,40:1 Режим частоты кадров : Постоянный Частота кадров : 23,976 кадра/сек Цветовое пространство : YUV Субдискретизация насыщенности : 4:2:0 Битовая глубина : 8 бит Тип развёртки : Прогрессивная Бит/(Пиксели*Кадры) : 0.198 Размер потока : 1,63 Гбайт (62%) Заголовок : Rip by 0ptimus Библиотека кодирования : x264 core 133 r2334 a3ac64b Настройки программы : cabac=1 / ref=9 / deblock=1:-3:-3 / analyse=0x3:0x113 / me=umh / subme=11 / psy=1 / psy_rd=1.00:0.20 / mixed_ref=1 / me_range=32 / chroma_me=1 / trellis=2 / 8x8dct=1 / cqm=0 / deadzone=21,11 / fast_pskip=0 / chroma_qp_offset=-3 / threads=3 / lookahead_threads=1 / sliced_threads=0 / nr=0 / decimate=0 / interlaced=0 / bluray_compat=0 / constrained_intra=0 / bframes=11 / b_pyramid=2 / b_adapt=2 / b_bias=0 / direct=3 / weightb=1 / open_gop=0 / weightp=2 / keyint=240 / keyint_min=23 / scenecut=40 / intra_refresh=0 / rc_lookahead=40 / rc=2pass / mbtree=0 / bitrate=2074 / ratetol=1.0 / qcomp=0.60 / qpmin=0 / qpmax=69 / qpstep=4 / cplxblur=20.0 / qblur=0.5 / vbv_maxrate=50000 / vbv_bufsize=50000 / nal_hrd=none / ip_ratio=1.40 / pb_ratio=1.30 / aq=1:1.00 Язык : English Default : Да Forced : ДаАудио #1: Идентификатор : 2 Формат : AC-3 Формат/Информация : Audio Coding 3 Расширение режима : CM (complete main) Параметр Endianness формата : Big Идентификатор кодека : A_AC3 Продолжительность : 1 ч. 55 м. Вид битрейта : Постоянный Битрейт : 384 Кбит/сек Каналы : 6 каналов Расположение каналов : Front: L C R, Side: L R, LFE Частота : 48,0 КГц Битовая глубина : 16 бит Метод сжатия : С потерями Размер потока : 318 Мбайт (12%) Заголовок : Дублированный AC3 5.1 @ 384 kbps Язык : Russian Default : Да Forced : ДаАудио #2: Идентификатор : 3 Формат : AC-3 Формат/Информация : Audio Coding 3 Расширение режима : CM (complete main) Параметр Endianness формата : Big Идентификатор кодека : A_AC3 Продолжительность : 1 ч. 55 м. Вид битрейта : Постоянный Битрейт : 384 Кбит/сек Каналы : 6 каналов Расположение каналов : Front: L C R, Side: L R, LFE Частота : 48,0 КГц Битовая глубина : 16 бит Метод сжатия : С потерями Размер потока : 318 Мбайт (12%) Заголовок : Авторский [Андрей Гаврилов] AC3 5.1 @ 384 kbps Язык : Russian Default : Нет Forced : НетАудио #3: Идентификатор : 4 Формат : AC-3 Формат/Информация : Audio Coding 3 Расширение режима : CM (complete main) Параметр Endianness формата : Big Идентификатор кодека : A_AC3 Продолжительность : 1 ч. 55 м. Вид битрейта : Постоянный Битрейт : 384 Кбит/сек Каналы : 6 каналов Расположение каналов : Front: L C R, Side: L R, LFE Частота : 48,0 КГц Битовая глубина : 16 бит Метод сжатия : С потерями Размер потока : 318 Мбайт (12%) Заголовок : AC3 5.1 @ 384 kbps Язык : English Default : Нет Forced : Нет 2,61 Gb 34 3
4 февраля 2016 11:31 РЭД 2 / Red 2 (2013) BDRip 1080p от Killbrain and Scarabey | US Transfer .torrent   [Информация о файле (нажмите для просмотра)] Перевод: русский профессиональный (полное дублирование)[Лицензия, BD RUS]Контейнер: MKVВидео: AVC / [email protected] /2 pass / 23,976 fps / 1920x800p (2,40:1) / 9,5 Mbps / 0.258Аудио 1: AC3 / 5.1 ch / 640 kbps / Русский дубляж, BD RUSАудио 2: AC3 / 5.1 ch / 640 kbps / Английский original, BD USСубтитры: [softsub SRT]Видео: Идентификатор : 1 Формат : AVC Формат/Информация : Advanced Video Codec Профиль формата : [email protected] Параметр CABAC формата : Да Параметр ReFrames формата : 4 кадра Идентификатор кодека : V_MPEG4/ISO/AVC Продолжительность : 1 ч. 55 м. Битрейт : 9500 Кбит/сек Ширина : 1920 пикселей Высота : 800 пикселей Соотношение сторон : 2,40:1 Режим частоты кадров : Постоянный Частота кадров : 23,976 кадра/сек Цветовое пространство : YUV Субдискретизация насыщенности : 4:2:0 Битовая глубина : 8 бит Тип развёртки : Прогрессивная Бит/(Пиксели*Кадры) : 0.258 Размер потока : 7,51 Гбайт (86%) Заголовок : Red 2 (2013) Библиотека кодирования : x264 core 138 r2358 9e941d1 Настройки программы : cabac=1 / ref=4 / deblock=1:-3:-3 / analyse=0x3:0x113 / me=umh / subme=10 / psy=1 / psy_rd=1.00:0.15 / mixed_ref=1 / me_range=32 / chroma_me=1 / trellis=2 / 8x8dct=1 / cqm=0 / deadzone=21,11 / fast_pskip=0 / chroma_qp_offset=-3 / threads=3 / lookahead_threads=1 / sliced_threads=0 / nr=0 / decimate=0 / interlaced=0 / bluray_compat=0 / constrained_intra=0 / bframes=6 / b_pyramid=2 / b_adapt=2 / b_bias=0 / direct=3 / weightb=1 / open_gop=0 / weightp=2 / keyint=240 / keyint_min=24 / scenecut=40 / intra_refresh=0 / rc_lookahead=60 / rc=2pass / mbtree=0 / bitrate=9500 / ratetol=1.0 / qcomp=0.65 / qpmin=0 / qpmax=69 / qpstep=4 / cplxblur=20.0 / qblur=0.5 / vbv_maxrate=40000 / vbv_bufsize=30000 / nal_hrd=none / ip_ratio=1.40 / pb_ratio=1.30 / aq=1:0.90 Язык : English Default : Да Forced : НетАудио #1: Идентификатор : 2 Формат : AC-3 Формат/Информация : Audio Coding 3 Расширение режима : CM (complete main) Параметр Endianness формата : Big Идентификатор кодека : A_AC3 Продолжительность : 1 ч. 55 м. Вид битрейта : Постоянный Битрейт : 640 Кбит/сек Каналы : 6 каналов Расположение каналов : Front: L C R, Side: L R, LFE Частота : 48,0 КГц Битовая глубина : 16 бит Метод сжатия : С потерями Размер потока : 530 Мбайт (6%) Заголовок : AC3 / 5.1 ch / 640 kbps / Русский дубляж, BD RUS Язык : Russian Default : Да Forced : НетАудио #2: Идентификатор : 3 Формат : AC-3 Формат/Информация : Audio Coding 3 Расширение режима : CM (complete main) Параметр Endianness формата : Big Идентификатор кодека : A_AC3 Продолжительность : 1 ч. 55 м. Вид битрейта : Постоянный Битрейт : 640 Кбит/сек Каналы : 6 каналов Расположение каналов : Front: L C R, Side: L R, LFE Частота : 48,0 КГц Битовая глубина : 16 бит Метод сжатия : С потерями Размер потока : 530 Мбайт (6%) Заголовок : AC3 / 5.1 ch / 640 kbps / Английский original, BD US Язык : English Default : Нет Forced : Нет 8,72 Gb 39 3
4 февраля 2016 11:30 Рэд 2 / Red 2 (2013) BDRip 720p от HELLYWOOD | Лицензия .torrent   [Информация о файле (нажмите для просмотра)] Перевод: Профессиональный (полное дублирование)Субтитры: Русские, английские (полные + SDH + Colored)Качество: BDRip 720p [RED_2_2013_REMUX_HDCLUB]Формат: MKVВидео: 1280x534 (2,40:1), 23,976 fps, 4499 Кbps, 0.275 bit/pixelАудио#1: 48 kHz, AC3 Dolby Digital, 3/2 (L,C,R,l,r) + LFE ch, 448.00 kbps |RUSАудио#2: 48 kHz, AC3 Dolby Digital, 3/2 (L,C,R,l,r) + LFE ch, 448.00 kbps |ENG 4,36 Gb 63 3
4 февраля 2016 11:30 РЭД 2 / Red 2 (2013) BDRip от HQCLUB | Лицензия .torrent   [Информация о файле (нажмите для просмотра)] Перевод: профессиональный (полное дублирование)BD RUS + оригинал (английский)Субтитры: русские (полные, форсированные), английские (полные, SDH, SDH-COLORED)Формат: AVIКачество: BDRip (источник:Видео: 720x304 (2.37:1), 23.976 fps, XviD build 65 ~1795 kbps avg, 0.34 bit/pixelАудио #1: 48 kHz, AC3 Dolby Digital, 3/2 (L,C,R,l,r) + LFE ch, ~448 kbps avg (RUS)Аудио #2: 48 kHz, AC3 Dolby Digital, 3/2 (L,C,R,l,r) + LFE ch, ~448 kbps avg (ENG)Аудио #3: 48 kHz, AC3 Dolby Digital, 2/0 (L,R) ch, ~192 kbps avg (UKR)(отдельно)Аудио #4: 48 kHz, AC3 Dolby Digital, 3/2 (L,C,R,l,r) + LFE ch, ~448 kbps avg (ENG)(отдельно) 2,18 Gb 395 11
4 февраля 2016 11:30 Рэд 2 / Red 2 (2013) BDRip-AVC от HELLYWOOD | Лицензия .torrent   [Информация о файле (нажмите для просмотра)] Перевод: Профессиональный (полное дублирование)Субтитры: Русские, английские (полные + SDH + Colored)Качество: BDRip-AVC [RED_2_2013_REMUX_HDCLUB]Формат: MKVВидео: 1032x430 (2,40:1), 23,976 fps, 1933 Кbps, 0.182 bit/pixelАудио#1: 48 kHz, AC3 Dolby Digital, 3/2 (L,C,R,l,r) + LFE ch, 384.00 kbps |RUSАудио#2: 48 kHz, AC3 Dolby Digital, 3/2 (L,C,R,l,r) + LFE ch, 384.00 kbps |ENG 2,19 Gb 42 2
4 февраля 2016 11:30 Рэд 2 / Red 2 (2013) BDRip-AVC от HELLYWOOD | Лицензия .torrent   [Информация о файле (нажмите для просмотра)] Перевод: Профессиональный (полное дублирование)Субтитры: Русские, английские (Full + SDH + Colored)Качество: BDRip-AVC [RED_2_2013_REMUX_HDCLUB]Формат: MKVВидео: х.264, 960x400 (2,40:1), 23,976 fps, 1422 Кbps, 0.154 bit/pixelАудио: 48 kHz, AC3 Dolby Digital, 3/2 (L,C,R,l,r) + LFE ch, 384.00 kbps 1,46 Gb 98 4
4 февраля 2016 11:30 РЭД 2 / Red 2 (2013) НDRip от Scarabey | Лицензия .torrent   [Информация о файле (нажмите для просмотра)] Перевод: Дубляж - ЛицензияКачество: НDRipФормат: AVIВидео: 720x304 (2.37:1), 23.976 fps, XviD build 73 ~2293 kbps avg, 0.44 bit/pixelАудио: 48 kHz, AC3 Dolby Digital, 3/2 (L,C,R,l,r) + LFE ch, ~384 kbps 2,17 Gb 56 4
4 февраля 2016 11:30 РЭД 2 / Red 2 (2013) НDRip от Scarabey | Лицензия .torrent   [Информация о файле (нажмите для просмотра)] Перевод: Дубляж - ЛицензияКачество: НDRipФормат: AVIВидео: 688x288 (2.39:1), 23.976 fps, XviD build 73 ~763 kbps avg, 0.16 bit/pixelАудио: 48 kHz, MPEG Layer 3, 2 ch, ~128.00 kbps avg 746,43 Mb 53 7
4 февраля 2016 11:30 РЭД 2 / Red 2 (2013) НDRip от Scarabey | Лицензия .torrent   [Информация о файле (нажмите для просмотра)] Перевод: Дубляж - Лицензия Качество: НDRipФормат: AVIВидео: 720x304 (2.37:1), 23.976 fps, XviD build 73 ~1399 kbps avg, 0.27 bit/pixelАудио: 48 kHz, AC3 Dolby Digital, 3/2 (L,C,R,l,r) + LFE ch, ~384 kbps 1,45 Gb 676 17
4 февраля 2016 11:30 РЭД 2 / Red 2 (2013) BDRip 720p от Leonardo and Scarabey | Лицензия .torrent   [Информация о файле (нажмите для просмотра)] Перевод: Профессиональный (полное дублирование) ЛицензияСубтитры: Русские, английскиеФормат: MKVВидео кодек: MPEG-4 AVC Аудио кодек: AC3Видео: AVC, 1280x534 (2.40:1) at 23.976 fps, AVC at 3211 kbps avg, 0.196 bit/pixelАудио: 48 kHz, AC3 Dolby Digital, 3/2 (L,C,R,l,r) + LFE ch, 448.00 kbps - RussianСубтитры: Русские, английские 2,96 Gb 35 1
4 февраля 2016 11:30 РЭД 2 / Red 2 (2013) BDRip 720p от HQ-ViDEO | Лицензия .torrent   [Информация о файле (нажмите для просмотра)] Перевод: Профессиональный дублированный /Лицензия/Субтитры: Русские, Английские| отключаемые *.srt|Видео: x.264, 1280x534 (2.40:1), ~6494 kbps avg, 23,976 fpsАудио #1: AC3 Dolby Digital, 48 KHz, ~640 kbps, 3/2 (L,C,R,l,r) + LFE ch/RUS/Аудио #2: AC3 Dolby Digital, 48 KHz, ~640 kbps, 3/2 (L,C,R,l,r) + LFE ch/ENG/ 6,29 Gb 15 4
4 февраля 2016 11:30 РЭД 2 / Red 2 (2013) BDRip от HQ-ViDEO | Лицензия .torrent   [Информация о файле (нажмите для просмотра)] Перевод: Профессиональный дублированный /Лицензия/Субтитры: Русские, АнглийскиеВидео: XviD, 720x304 (2.37:1), ~1787 kbps avg, 23,976 fpsАудио #1: AC3 Dolby Digital, 48 KHz, ~448 kbps, 3/2 (L,C,R,l,r) + LFE ch/RUS/Аудио #2: AC3 Dolby Digital, 48 KHz, ~448 kbps, 3/2 (L,C,R,l,r) + LFE ch/ENG/ 2,19 Gb 20 2
4 февраля 2016 11:30 РЭД 2 / Red 2 (2013) BDRip-AVC от ExKinoRay | US-Transfer | Лицензия .torrent   [Информация о файле (нажмите для просмотра)] Качество: BDRip (AVC)Видео: MPEG-4 AVC, 2635 Кбит/с, 1024x426, 23.976 кадр/сАудио: Русский, английский (AC3, 6 ch, 448 Кбит/с)Перевод: ДублированныйСубтитры: Русские, английскиеВидео: Идентификатор : 1 Формат : AVC Формат/Информация : Advanced Video Codec Профиль формата : [email protected] Параметр CABAC формата : Да Параметр ReFrames формата : 9 кадров Идентификатор кодека : V_MPEG4/ISO/AVC Продолжительность : 1 ч. 55 м. Битрейт : 2635 Кбит/сек Ширина : 1024 пикселя Высота : 426 пикселей Соотношение сторон : 2,40:1 Режим частоты кадров : Постоянный Частота кадров : 23,976 кадра/сек Цветовое пространство : YUV Субдискретизация насыщенности : 4:2:0 Битовая глубина : 8 бит Тип развёртки : Прогрессивная Бит/(Пиксели*Кадры) : 0.252 Размер потока : 2,07 Гбайт (73%) Библиотека кодирования : x264 core 125 r2200 999b753 Настройки программы : cabac=1 / ref=9 / deblock=1:-3:-3 / analyse=0x3:0x133 / me=umh / subme=11 / psy=1 / psy_rd=1.00:0.10 / mixed_ref=1 / me_range=48 / chroma_me=1 / trellis=2 / 8x8dct=1 / cqm=0 / deadzone=21,11 / fast_pskip=0 / chroma_qp_offset=-3 / threads=12 / lookahead_threads=2 / sliced_threads=0 / nr=0 / decimate=0 / interlaced=0 / bluray_compat=0 / constrained_intra=0 / bframes=9 / b_pyramid=2 / b_adapt=2 / b_bias=0 / direct=3 / weightb=1 / open_gop=0 / weightp=2 / keyint=240 / keyint_min=23 / scenecut=40 / intra_refresh=0 / rc_lookahead=40 / rc=2pass / mbtree=1 / bitrate=2635 / ratetol=1.0 / qcomp=0.60 / qpmin=0 / qpmax=69 / qpstep=4 / cplxblur=20.0 / qblur=0.5 / vbv_maxrate=50000 / vbv_bufsize=52500 / nal_hrd=none / ip_ratio=1.40 / aq=1:1.00 Default : Да Forced : НетАудио #1: Идентификатор : 2 Формат : AC-3 Формат/Информация : Audio Coding 3 Расширение режима : CM (complete main) Параметр Endianness формата : Big Идентификатор кодека : A_AC3 Продолжительность : 1 ч. 55 м. Вид битрейта : Постоянный Битрейт : 448 Кбит/сек Каналы : 6 каналов Расположение каналов : Front: L C R, Side: L R, LFE Частота : 48,0 КГц Битовая глубина : 16 бит Метод сжатия : С потерями Размер потока : 371 Мбайт (13%) Заголовок : Дублированный (Лицензия) Язык : Russian Default : Да Forced : ДаАудио #2: Идентификатор : 3 Формат : AC-3 Формат/Информация : Audio Coding 3 Расширение режима : CM (complete main) Параметр Endianness формата : Big Идентификатор кодека : A_AC3 Продолжительность : 1 ч. 55 м. Вид битрейта : Постоянный Битрейт : 448 Кбит/сек Каналы : 6 каналов Расположение каналов : Front: L C R, Side: L R, LFE Частота : 48,0 КГц Битовая глубина : 16 бит Метод сжатия : С потерями Размер потока : 371 Мбайт (13%) Язык : English Default : Нет Forced : Нет 2,86 Gb 2 1
4 февраля 2016 11:30 РЭД 2 / Red 2 (2013) BDRip 1080p | Лицензия .torrent   [Информация о файле (нажмите для просмотра)] Качество: BDRip (1080p)Видео: MPEG-4 AVC, 12.2 Мбит/с, 1920x800Аудио: Русский, английский (DTS, 6 ch, 1510 Кбит/с)Перевод: Дублированный [лицензия]Субтитры: Русские, английскиеВидео: Идентификатор : 1 Формат : AVC Формат/Информация : Advanced Video Codec Профиль формата : [email protected] Параметр CABAC формата : Да Параметр ReFrames формата : 5 кадров Идентификатор кодека : V_MPEG4/ISO/AVC Продолжительность : 1 ч. 55 м. Битрейт : 12,2 Мбит/сек Ширина : 1920 пикселей Высота : 800 пикселей Соотношение сторон : 2,40:1 Режим частоты кадров : Постоянный Частота кадров : 23,976 кадра/сек Цветовое пространство : YUV Субдискретизация насыщенности : 4:2:0 Битовая глубина : 8 бит Тип развёртки : Прогрессивная Бит/(Пиксели*Кадры) : 0.331 Размер потока : 9,62 Гбайт (78%) Библиотека кодирования : x264 core 133 r2334+704+50 a7549b7 tMod [[email protected]:2:0 X86_64] Настройки программы : cabac=1 / ref=5 / deblock=1:-3:-3 / analyse=0x3:0x113 / me=umh / subme=10 / psy=1 / fade_compensate=0.00 / psy_rd=1.05:0.01 / mixed_ref=1 / me_range=32 / chroma_me=1 / trellis=2 / 8x8dct=1 / cqm=0 / deadzone=21,11 / fast_pskip=1 / chroma_qp_offset=-3 / threads=16 / lookahead_threads=1 / sliced_threads=0 / nr=0 / decimate=1 / interlaced=0 / bluray_compat=0 / constrained_intra=0 / fgo=0 / bframes=6 / b_pyramid=2 / b_adapt=1 / b_bias=0 / direct=3 / weightb=1 / open_gop=0 / weightp=2 / keyint=240 / keyint_min=23 / scenecut=40 / intra_refresh=0 / rc_lookahead=50 / rc=2pass / mbtree=1 / bitrate=12200 / ratetol=1.0 / qcomp=0.60 / qpmin=0 / qpmax=69 / qpstep=4 / cplxblur=20.0 / qblur=0.5 / vbv_maxrate=50000 / vbv_bufsize=50000 / nal_hrd=none / ip_ratio=1.40 / aq=4:0.90 / aq-sensitivity=10.00 / aq-factor=1.00:1.00:1.00 / aq2=0 / aq3=0 Язык : English Default : Да Forced : НетАудио #1: Идентификатор : 2 Формат : DTS Формат/Информация : Digital Theater Systems Режим : 16 Параметр Endianness формата : Big Идентификатор кодека : A_DTS Продолжительность : 1 ч. 55 м. Вид битрейта : Постоянный Битрейт : 1509 Кбит/сек Каналы : 6 каналов Расположение каналов : Front: L C R, Side: L R, LFE Частота : 48,0 КГц Битовая глубина : 16 бит Метод сжатия : С потерями Размер потока : 1,22 Гбайт (10%) Язык : Russian Default : Да Forced : НетАудио #2: Идентификатор : 3 Формат : DTS Формат/Информация : Digital Theater Systems Режим : 16 Параметр Endianness формата : Big Идентификатор кодека : A_DTS Продолжительность : 1 ч. 55 м. Вид битрейта : Постоянный Битрейт : 1509 Кбит/сек Каналы : 6 каналов Расположение каналов : Front: L C R, Side: L R, LFE Частота : 48,0 КГц Битовая глубина : 24 бит Метод сжатия : С потерями Размер потока : 1,22 Гбайт (10%) Заголовок : DTS Язык : English Default : Нет Forced : Нет 12,3 Gb 16 2
4 февраля 2016 11:30 РЭД 2 / Red 2 (2013) BDRemux 1080p от ExKinoRay | US-Transfer | Лицензия .torrent   [Информация о файле (нажмите для просмотра)] Качество: Blu-Ray Remux (1080p)Видео: MPEG-4 AVC, 30998 Кбит/с, 1920x1080, 23.976 кадр/сАудио: Русский (DTS-HD MA,6 ch, 1942 Кбит/с), английский (DTS-HD MA,8 ch, 4830 Кбит/с)Перевод: ДублированныйСубтитры: Русские, английскиеВидео: Идентификатор : 1 Формат : AVC Формат/Информация : Advanced Video Codec Профиль формата : [email protected] Параметр CABAC формата : Да Параметр ReFrames формата : 4 кадра Идентификатор кодека : V_MPEG4/ISO/AVC Продолжительность : 1 ч. 55 м. Вид битрейта : Переменный Максимальный битрейт : 37,0 Мбит/сек Ширина : 1920 пикселей Высота : 1080 пикселей Соотношение сторон : 16:9 Режим частоты кадров : Постоянный Частота кадров : 23,976 кадра/сек Цветовое пространство : YUV Субдискретизация насыщенности : 4:2:0 Битовая глубина : 8 бит Тип развёртки : Прогрессивная Default : Да Forced : НетАудио #1: Идентификатор : 2 Формат : DTS Формат/Информация : Digital Theater Systems Профиль формата : MA / Core Режим : 16 Параметр Endianness формата : Big Идентификатор кодека : A_DTS Продолжительность : 1 ч. 55 м. Вид битрейта : Переменный Битрейт : Неизвестно / 1509 Кбит/сек Каналы : 6 каналов Расположение каналов : Front: L C R, Side: L R, LFE Частота : 48,0 КГц Битовая глубина : 16 бит Метод сжатия : Без потерь / Lossy Заголовок : Дублированный Язык : Russian Default : Да Forced : ДаАудио #2: Идентификатор : 3 Формат : DTS Формат/Информация : Digital Theater Systems Профиль формата : MA / Core Режим : 16 Параметр Endianness формата : Big Идентификатор кодека : A_DTS Продолжительность : 1 ч. 55 м. Вид битрейта : Переменный Битрейт : Неизвестно / 1509 Кбит/сек Каналы : 8 каналов / 6 каналов Расположение каналов : Front: L C R, Side: L R, Back: L R, LFE / Front: L C R, Side: L R, LFE Частота : 48,0 КГц Битовая глубина : 24 бит Метод сжатия : Без потерь / Lossy Язык : English Default : Нет Forced : Нет 30,47 Gb 6 6
4 февраля 2016 11:30 Рэд 2 / RED 2 (2013) HDRip от Assassins Creed | КПК .torrent   [Информация о файле (нажмите для просмотра)] Перевод: Профессиональный (дублированный)Качество: HDRipФормат: MP4Видео: MPEG-4 Visual at 1080 Кбит/сек; 640 x 272 (2.353) at 23.938 fpsАудио: AAC at 128 Кбит/сек; 2 канала, 48,0 КГц 1002,52 Mb 6 5
4 февраля 2016 11:30 РЭД 2 / Red 2 (2013) HDRip-AVC | D | Лицензия .torrent   [Информация о файле (нажмите для просмотра)] Перевод: Профессиональный (полное дублирование)Лицензия [звук с DVD9]Кодек: x264Качество: HDRip-AVCВидео: 768x320 (2.40:1), 23.976 fps, ~827 kbps avg, 0.140 bit/pixelЗвук: 48 kHz, AAC-HE, 2 ch, Front: L R ~72 kbps avg 745,69 Mb 7 2
4 февраля 2016 11:30 РЭД 2 / Red 2 (2013) DVD9 | Лицензия .torrent   [Информация о файле (нажмите для просмотра)] Качество: DVDВидео: PAL 16:9 ([email protected] 6841 Кбит/с) VBRАудио: Русский (AC3, 6 ch, 384 Кбит/с)Перевод: Дублированный [лицензия] 7,01 Gb 4 2

Скачать фильм РЭД 2 через торрент в хорошем качестве бесплатно HDRip

piratbit.ru

Размер: 1.46 GB | Добавлен: 3 года 8 мес. назад | Торрент скачан:3804 раза
Реклама Дарим 3000 рублей за регистрацию, не упусти свой шанс получить шикарный бонус!!!

28-10-2013 13:28 РЭД 2 Скачать торрент  

РЭД 2 / Red 2

Год выпуска: 2013 Страна: СШАЖанр: боевик, триллер, комедия, криминал,Продолжительность: 01:51:09Перевод: Дубляж, [Цифровая Лицензия / iTunes Russia]

Режиссер: Дин Паризо

В ролях: Брюс Уиллис, Джон Малкович, Мэри-Луиз Паркер, Кэтрин Зета-Джонс, Ли Бён Хон, Энтони Хопкинс, Хелен Миррен, Йонг Кун Ли, Нил МакДонаф, Дэвид Тьюлис,

Описание: Вышедший на пенсию тайный агент ЦРУ Фрэнк Мозес объединяется с командой старых друзей, элитных оперативников, с целью найти пропавшее оружие массового уничтожения. Чтобы его заполучить, прийдется прорываться сквозь армии безжалостных наемников, террористов и всегда жаждущих власти политиков.

Качество: HDRipФормат: AVIВидео кодек: XviDАудио кодек: AC3Видео: 720x304 (2.37:1), 23.976 fps, XviD build 50 ~1409 kbps avg, 0.27 bit/pixelАудио#1: 48 kHz, AC3 Dolby Digital, 3/2 (L,C,R,l,r) + LFE ch, ~384 kbpsСэмпл: http://multi-up.com/922908

Скачать РЭД 2 через торрент http://pic.pb.wtf/images/4/vjib4.jpg Скачать фильм РЭД 2 через торрент бесплантно в хорошем качестве Описание: Вышедший на пенсию тайный агент ЦРУ Фрэнк Мозес объединяется с командой старых друзей, элитных оперативников, с целью найти ... 2014-02-12 19:28 9.6 10 525

Loading...

Loading...

% Раздел Тема Автор DL S | L
Фильмы с авторской озвучкой [ 2.19 GB ] РЭД 2 / RED 2 [2013 HDRip Авторский одноголосый ] coc900 Скачать
Фильмы 2013 [DVDrip, WEB-DLRip, HDrip] [ 2.05 GB ] РЭД 2 / Red 2 [2013 HDRip ] GODZILA01 Скачать
Фильмы (Blu-ray, BD-Remux, HDDVD) [ 11.39 GB ] Рэд 2 / Red 2 [2013 BDRip 1080p + Оригинал] Бумер Скачать
Фильмы [HD 720p, 1080p] (Хороший звук DUB, MVO) [ 7.29 GB ] РЭД 2 / Red 2 [2013 BDRip 1080p ] [Цифровая / Russia] slaventi-69 Скачать
Фильмы [HD 720p, 1080p] (Хороший звук DUB, MVO) [ 8.25 GB ] РЭД 2 / Red 2 [2013 BDRip 1080p ] [Цифровая / Russia] лисяра Скачать
Фильмы [HD 720p, 1080p] (Хороший звук DUB, MVO) [ 5.81 GB ] РЭД 2 / Red 2 [2013 BDRip 720p] Dub || NarutoSasuke Скачать
Фильмы (DVD фильмы) [ 7.01 GB ] Рэд 2 / Red 2 [2013 DVD9] R5 voovaz Скачать

Последний раз редактировалось: MihailHD (2013-11-23 05:09), всего редактировалось 11 раз(а)

Рекламный пират

28-10-2013 14:14 РЭД 2 Скачать торрент  

фильм суперский еще бы озвучку Гоблина

28-10-2013 14:26 РЭД 2 Скачать торрент  

как звук? смотреть сносно?

28-10-2013 15:04 РЭД 2 Скачать торрент  

Первая часть была очень прикольная!Как вторая не знаю но говорят что на уровне.вот бы звук норм был бы))

28-10-2013 15:22 РЭД 2 Скачать торрент  

дык как звук? ухо не режет? смотреть можно? для тс нормальный или фиговый?

28-10-2013 16:34 РЭД 2 Скачать торрент  

пролистав фильм, проблем со звуком не заметил))) вполне нормальный звук, отчётливый, внятный, чёткий)))TERRAN1, спс дружище )))

28-10-2013 16:42 РЭД 2 Скачать торрент  

Серёжк@ писал(а):

пролистав фильм, проблем со звуком не заметил))) вполне нормальный звук, отчётливый, внятный, чёткий)))TERRAN1, спс дружище )))но звук даже не чистый?!!

28-10-2013 17:15 РЭД 2 Скачать торрент  

Большевик писал(а):

Серёжк@ писал(а):

пролистав фильм, проблем со звуком не заметил))) вполне нормальный звук, отчётливый, внятный, чёткий)))TERRAN1, спс дружище )))но звук даже не чистый?!!этоже ТС, а не лицуха))) хочешь чистый, ждиииии))))

28-10-2013 17:32 РЭД 2 Скачать торрент  

Странное разрешение для DVD Rip

Pекламный агент PB

28-10-2013 17:53 РЭД 2 Скачать торрент  

Arturik79 писал(а):

Странное разрешение для DVD Rip

на других ресурсах тот же релиз, с таким же разрешением)))

29-10-2013 03:03 РЭД 2 Скачать торрент  

на сэмпле кто то смеется за кадром! фильм похоже все таки прикольный!

31-10-2013 05:22 РЭД 2 Скачать торрент  

Серёжк@ писал(а):

пролистав фильм, проблем со звуком не заметил))) вполне нормальный звук, отчётливый, внятный, чёткий)))TERRAN1, спс дружище )))За исключением того что сам звук идет задним фоном, а на переднем какие-то попкорножоры ртов своих не закрывают...Первый фильм по-лучше будет. Этот сумбурный какой-то.

06-11-2013 14:25 РЭД 2 Скачать торрент  

за ценим первая нормальная часть была

09-11-2013 21:08 РЭД 2 Скачать торрент  

Обновил на HDTVRip

12-11-2013 20:40 РЭД 2 Скачать торрент  

Обновил на WEB-DLRip [Цифровая Лицензия / iTunes Russia]

12-11-2013 20:52 РЭД 2 Скачать торрент  

15 ноября релиз,что вы кипишуете? :rofle:

13-11-2013 07:11 РЭД 2 Скачать торрент  

Получил огромное удовольствие ! Фильм супер ! и шутки не совсем тупые и все на экшене. Правда как всегда, виноваты русские, а еще у нас до сих пор существует расстрел :)

Pекламный агент PB

13-11-2013 09:33 РЭД 2 Скачать торрент  

Раздача обновлена на HDRip

13-11-2013 15:21 РЭД 2 Скачать торрент  

клавсный фильмец :shoot2:

13-11-2013 15:30 РЭД 2 Скачать торрент  

Jeck2000 писал(а):

и шутки не совсем тупые

После этой фразы желание смотреть это кино отпало.

13-11-2013 15:49 РЭД 2 Скачать торрент  

Что интересное заметил в фильме, так это то, как создатели фильма лояльно отнеслись к Русским. В фильме погибло целая куча американского спецназа, еще куча военных США. Потом от пуль погибла куча чуваков из Английского МИ6, кроме того еще передохло несколько Французов. Ну а потом огромное количество Иранских подданных в посольстве. Но в Москве, в магазине, все русские полицейские были оглушены, но живы, а потом все военные, которые должны были расстрелять героев, ранены в ноги, и только один, палковник, был убит Ханом. занятно получилось.

13-11-2013 20:57 РЭД 2 Скачать торрент  

Спасибо за фильм.+

14-11-2013 08:32 РЭД 2 Скачать торрент  

Фильм понравился. Реально получил удовольствие от просмотра 5+. Всем Удачиь.

15-11-2013 05:17 РЭД 2 Скачать торрент  

спс это лучший фильм...который я посмотрел 2013 году...

15-11-2013 06:12 РЭД 2 Скачать торрент  

Прикольный фильм!!

Pекламный агент PB

Дорогой пользователь! Огромная просьба, поблагодарите релизера, оцените раздачу и оставьте свои комментарий, если Вы скачали РЭД 2 через торрент бесплатно! Внесите свою лепту в развитие PiratBit!

Комментировать посты могут только пользователи прошедшие не сложную регистрацию

РЭД 2 через торрент Скачать бесплатно РЭД 2 РЭД 2 скачать торрент РЭД 2 смотреть онлайн Cкачать фильм РЭД 2 бесплатно РЭД 2 скачать торрент в хорошем качестве РЭД 2 смотреть онлайн бесплатно в хорошем качестве

Вы не можете начинать темыВы не можете отвечать на сообщенияВы не можете редактировать свои сообщенияВы не можете удалять свои сообщенияВы не можете голосовать в опросахВы не можете прикреплять файлы к сообщениямВы можете скачивать файлы

РЭД 2 2013 - скачать бесплатно через торрент в хорошем качестве. Без регистрации

www.kinovit.net

Название: РЭД 2 / Red 2 (2013) BDRip 720p | USA Transfer
Качество видео: BDRip (720p, USA Transfer)
Перевод: Дублированный (Лицензия) / Авторский одноголосый (Андрей Гаврилов)
Видео: MPEG-4 AVC, 5293 Кбит/с, 1280x534, 23.976 Кадр/с
Аудио: Русский (AC3, 6 ch, 640 Кбит/c, 48,0 КГц - Лицензия), русский (AC3, 6 ch, 640 Кбит/c, 48,0 КГц - А. Гаврилов), английский (AC3, 6 ch, 640 Кбит/c, 48,0 КГц)
Скачать

Загрузка начнется в течение 5 сек.

5.83 GB

Название: РЭД 2 / RED 2 (2013) BDRip-AVC от 0ptimus | D, A
Качество видео: BDRip-AVC
Перевод: Дублированный, авторский одноголосый
Видео: h.264 2074 Кбит/с, 1024x426, 23.976 кадр/с
Аудио: • №1: Русский (AC3, 6 ch, 384 Кбит/с) Дублированный
Скачать

Загрузка начнется в течение 5 сек.

2.61 GB

Название: РЭД 2 / Red 2 (2013) BDRip 1080p от Killbrain and Scarabey | US Transfer
Перевод: русский профессиональный (полное дублирование) [Лицензия, BD RUS]
Видео: x264 AVC / [email protected] / 2 pass / 23,976 fps / 1920x800p (2,40:1) / 9,5 Mbps / 0.258
Аудио: AC3 английскаяAC3AC3 / 5.1 ch / 640 kbps / Русский дубляж, BD RUSAC3 / 5.1 ch / 640 kbps / Английский original, BD US
Скачать

Загрузка начнется в течение 5 сек.

8.72 GB

Название: Рэд 2 / Red 2 (2013) BDRip 720p от HELLYWOOD | Лицензия
Перевод: Профессиональный (полное дублирование) лицензия
Формат видео: MKV
Видео: 1280x534 (2,40:1), 23,976 fps, 4499 Кbps, 0.275 bit/pixel
Аудио: 48 kHz, AC3 Dolby Digital, 3/2 (L,C,R,l,r) + LFE ch, 448.00 kbps | RUS48 kHz, AC3 Dolby Digital, 3/2 (L,C,R,l,r) + LFE ch, 448.00 kbps | ENG
Скачать

Загрузка начнется в течение 5 сек.

4.36 GB

Название: Рэд 2 / Red 2 (2013) BDRip-AVC от HELLYWOOD | Лицензия
Перевод: Профессиональный (полное дублирование) лицензия
Формат видео: MKV
Видео: 1032x430 (2,40:1), 23,976 fps, 1933 Кbps, 0.182 bit/pixel
Аудио: 48 kHz, AC3 Dolby Digital, 3/2 (L,C,R,l,r) + LFE ch, 384.00 kbps | RUS48 kHz, AC3 Dolby Digital, 3/2 (L,C,R,l,r) + LFE ch, 384.00 kbps | ENG
Скачать

Загрузка начнется в течение 5 сек.

2.19 GB

Название: РЭД 2 / Red 2 (2013) BDRip от HQCLUB | Лицензия
Качество видео: BDRip (источник: BlueBird / Blu-ray / 1080р)
Перевод: профессиональный (полное дублирование) BD RUS + оригинал (английский)
Формат видео: AVI
Видео: 720x304 (2.37:1), 23.976 fps, XviD build 65 ~1795 kbps avg, 0.34 bit/pixel
Аудио: 48 kHz, AC3 Dolby Digital, 3/2 (L,C,R,l,r) + LFE ch, ~448 kbps avg (RUS)48 kHz, AC3 Dolby Digital, 3/2 (L,C,R,l,r) + LFE ch, ~448 kbps avg (ENG)
Скачать

Загрузка начнется в течение 5 сек.

2.18 GB

Название: Рэд 2 / Red 2 (2013) BDRip-AVC от HELLYWOOD | Лицензия
Перевод: Профессиональный (полное дублирование) лицензия
Формат видео: MKV
Видео: х.264, 960x400 (2,40:1), 23,976 fps, 1422 Кbps, 0.154 bit/pixel
Аудио: 48 kHz, AC3 Dolby Digital, 3/2 (L,C,R,l,r) + LFE ch, 384.00 kbps
Скачать

Загрузка начнется в течение 5 сек.

1.46 GB

Название: РЭД 2 / Red 2 (2013) BDRip 1080p | US Transfer
Качество видео: BDRip (источник: Blu-ray Disc)
Перевод: Дублированный (лицензия) + Оригинал
Видео: x264 1920x800 (2,40:1), 23.976 fps, 8311 kbps
Аудио: AC-3, 6 ch, 640 kbps (Rus)AC-3, 6 ch, 640 kbps (Eng)
Скачать

Загрузка начнется в течение 5 сек.

7.75 GB

Название: РЭД 2 / Red 2 (2013) BDRip 720p от leonardo 59 & Scarabey | Лицензия
Качество видео: BDRip 720p Исходник: Blu-ray
Перевод: Профессиональный (полное дублирование) Лицензия
Формат видео: MKV Видео кодек: MPEG-4 AVC Аудио кодек: AC3
Видео: AVC, 1280x534 (2.40:1) at 23.976 fps, AVC at 3211 kbps avg, 0.196 bit/pixel
Аудио: 48 kHz, AC3 Dolby Digital, 3/2 (L,C,R,l,r) + LFE ch, 448.00 kbps - Russian
Скачать

Загрузка начнется в течение 5 сек.

2.96 GB

Название: РЭД 2 / Red 2 (2013) BDRip от HQ-ViDEO | Лицензия
Качество видео: BDRip /исходник: RED_2_2013_REMUX_HDCLUB/
Перевод: Профессиональный дублированный /Лицензия/
Видео: XviD, 720x304 (2.37:1), ~1787 kbps avg, 23,976 fps
Аудио: AC3 Dolby Digital, 48 KHz, ~448 kbps, 3/2 (L,C,R,l,r) + LFE ch /RUS/AC3 Dolby Digital, 48 KHz, ~448 kbps, 3/2 (L,C,R,l,r) + LFE ch /ENG/
Скачать

Загрузка начнется в течение 5 сек.

2.19 GB

Название: РЭД 2 / Red 2 (2013) BDRip-AVC от ExKinoRay | US-Transfer | Лицензия
Качество видео: BDRip (AVC)
Перевод: Дублированный
Видео: MPEG-4 AVC, 2635 Кбит/с, 1024x426, 23.976 кадр/с
Аудио: Русский, английский (AC3, 6 ch, 448 Кбит/с)
Скачать

Загрузка начнется в течение 5 сек.

2.86 GB

Название: РЭД 2 / Red 2 (2013) BDRip 720p от HQ-ViDEO | Лицензия
Качество видео: BDRip 720p /исходник: RED_2_2013_REMUX_HDCLUB/
Перевод: Профессиональный дублированный /Лицензия/
Видео: x.264, 1280x534 (2.40:1), ~6494 kbps avg, 23,976 fps
Аудио: AC3 Dolby Digital, 48 KHz, ~640 kbps, 3/2 (L,C,R,l,r) + LFE ch /RUS/AC3 Dolby Digital, 48 KHz, ~640 kbps, 3/2 (L,C,R,l,r) + LFE ch /ENG/
Скачать

Загрузка начнется в течение 5 сек.

6.29 GB

Название: РЭД 2 / Red 2 (2013) BDRemux 1080p от ExKinoRay | US-Transfer | Лицензия
Качество видео: Blu-Ray Remux (1080p)
Перевод: Дублированный
Видео: MPEG-4 AVC, 30998 Кбит/с, 1920x1080, 23.976 кадр/с
Аудио: Русский (DTS-HD MA,6 ch, 1942 Кбит/с), английский (DTS-HD MA,8 ch, 4830 Кбит/с)
Скачать

Загрузка начнется в течение 5 сек.

30.47 GB

Название: РЭД 2 / Red 2 (2013) BDRip 720p | Лицензия
Качество видео: BDRip (720p)
Перевод: Дублированный [лицензия]
Видео: MPEG-4 AVC, 5293 Кбит/с, 1280x534, 23.976 кадр/с
Аудио: Русский, английский (DTS, 6 ch, 1510 Кбит/с)
Скачать

Загрузка начнется в течение 5 сек.

6.72 GB

Название: РЭД 2 / Red 2 (2013) BDRip 1080p | Лицензия
Качество видео: BDRip (1080p)
Перевод: Дублированный [лицензия]
Видео: MPEG-4 AVC, 12.2 Мбит/с, 1920x800
Аудио: Русский, английский (DTS, 6 ch, 1510 Кбит/с)
Скачать

Загрузка начнется в течение 5 сек.

12.30 GB

Название: Рэд 2 / RED 2 (2013) HDRip от New-Team | КПК
Качество видео: HDRip
Перевод: Профессиональный (дублированный)
Формат видео: MP4
Видео: XviD MPEG-4 Visual at 1080 Кбит/сек; 640 x 272 (2.353) at 23.938 fps
Аудио: AAC AAC at 128 Кбит/сек; 2 канала, 48,0 КГц
Скачать

Загрузка начнется в течение 5 сек.

0.98 GB

Название: Рэд 2 / Red 2 (2013) BDRip 720p от HELLYWOOD | iTunes
Перевод: Профессиональный (полное дублирование) iTunes
Формат видео: MKV
Видео: 1280x534 (2,40:1), 23,976 fps, 4499 Кbps, 0.275 bit/pixel
Аудио: 48 kHz, AC3 Dolby Digital, 3/2 (L,C,R,l,r) + LFE ch, 384.00 kbps | RUS48 kHz, AC3 Dolby Digital, 3/2 (L,C,R,l,r) + LFE ch, 448.00 kbps | ENG
Скачать

Загрузка начнется в течение 5 сек.

4.31 GB

Название: РЭД 2 / Red 2 (2013) НDRip от Scarabey | Лицензия
Качество видео: НDRip
Перевод: Дубляж - Лицензия
Формат видео: AVI
Видео: 720x304 (2.37:1), 23.976 fps, XviD build 73 ~2293 kbps avg, 0.44 bit/pixel
Аудио: 48 kHz, AC3 Dolby Digital, 3/2 (L,C,R,l,r) + LFE ch, ~384 kbps
Скачать

Загрузка начнется в течение 5 сек.

2.17 GB

Название: Нападение на Уолл-стрит / Эпоха алчности / Assault on Wall Street (2013) HDRip-AVC | P | Лицензия
Качество видео: HDRip-AVC
Перевод: Профессиональный (многоголосый, закадровый) R5 (Лицензия)
Видео: x264 640х360 (16:9), 23.976 fps, 925 Kbps, 0.167 bit/pixel
Аудио: AАС-НЕ, 48.0 KHz, 68 Kbps, 2 channels - рус.AАС-НЕ, 48.0 KHz, 64 Kbps, 2 channels - англ.
Скачать

Загрузка начнется в течение 5 сек.

747.78 MB

Название: РЭД 2 / Red 2 (2013) HDRip-AVC | D | Лицензия
Качество видео: HDRip-AVC
Перевод: Профессиональный (полное дублирование) Лицензия [звук с DVD9]
Видео: x264 768x320 (2.40:1), 23.976 fps, ~827 kbps avg, 0.140 bit/pixel
Аудио: 48 kHz, AAC-HE, 2 ch, Front: L R ~72 kbps avg
Скачать

Загрузка начнется в течение 5 сек.

745.69 MB

Название: РЭД 2 / Red 2 (2013) BDRemux 1080p | iTunes
Качество видео: Blu-Ray Remux (1080p)
Перевод: Дублированный [iTunes]
Видео: MPEG-4 AVC, 30998 Кбит/с, 1920x1080
Аудио: Русский (AC3, 6 ch, 384 Кбит/с), английский (DTS-HD MA,8 ch, 4830 Кбит/с)
Скачать

Загрузка начнется в течение 5 сек.

30.89 GB

Название: Рэд 2 / Red 2 (2013) BDRip-AVC от HELLYWOOD | iTunes
Перевод: Профессиональный (полное дублирование) iTunes
Формат видео: MKV
Видео: х.264, 960x400 (2,40:1), 23,976 fps, 1422 Кbps, 0.154 bit/pixel
Аудио: 48 kHz, AC3 Dolby Digital, 3/2 (L,C,R,l,r) + LFE ch, 384.00 kbps
Скачать

Загрузка начнется в течение 5 сек.

1.46 GB

Название: РЭД 2 / Red 2 (2013) DVD9 | Лицензия
Качество видео: DVD
Перевод: Дублированный [лицензия]
Видео: PAL 16:9 ([email protected] 6841 Кбит/с) VBR
Аудио: Русский (AC3, 6 ch, 384 Кбит/с)
Скачать

Загрузка начнется в течение 5 сек.

7.01 GB

Название: РЭД 2 / Red 2 (2013) BDRip 720p от leonardo 59 & Scarabey | iTunes Russia
Качество видео: BDRip 720p Исходник: Blu-ray
Перевод: Профессиональный (полное дублирование) iTunes Russia
Формат видео: MKV Видео кодек: MPEG-4 AVC Аудио кодек: AC3
Видео: AVC, 1280x534 (2.40:1) at 23.976 fps, AVC at 3211 kbps avg, 0.196 bit/pixel
Аудио: 48 kHz, AC3 Dolby Digital, 3/2 (L,C,R,l,r) + LFE ch, 384.00 kbps - Russian
Скачать

Загрузка начнется в течение 5 сек.

2.90 GB

Название: РЭД 2 / Red 2 (2013) НDRip от Scarabey | iTunes
Качество видео: НDRip - исх. WEB-DLRip 720p
Перевод: Дубляж - iTunes
Формат видео: AVI
Видео: 720x304 (2.37:1), 23.976 fps, XviD build 73 ~2294 kbps avg, 0.44 bit/pixel
Аудио: 48 kHz, AC3 Dolby Digital, 3/2 (L,C,R,l,r) + LFE ch, ~384 kbps
Скачать

Загрузка начнется в течение 5 сек.

2.17 GB

Название: Рэд 2 / Red 2 (2013) BDRip-AVC от HELLYWOOD | iTunes
Перевод: Профессиональный (полное дублирование) iTunes
Формат видео: MKV
Видео: 1032x430 (2,40:1), 23,976 fps, 1933 Кbps, 0.182 bit/pixel
Аудио: 48 kHz, AC3 Dolby Digital, 3/2 (L,C,R,l,r) + LFE ch, 384.00 kbps | RUS48 kHz, AC3 Dolby Digital, 3/2 (L,C,R,l,r) + LFE ch, 384.00 kbps | ENG
Скачать

Загрузка начнется в течение 5 сек.

2.19 GB

Название: РЭД 2 / Red 2 (2013) НDRip от Scarabey | iTunes
Качество видео: НDRip - исх. WEB-DLRip 720p
Перевод: Дубляж - iTunes
Формат видео: AVI
Видео: 688x288 (2.39:1), 23.976 fps, XviD build 73 ~766 kbps avg, 0.16 bit/pixel
Аудио: 48 kHz, MPEG Layer 3, 2 ch, ~128.00 kbps avg
Скачать

Загрузка начнется в течение 5 сек.

748.57 MB

Название: РЭД 2 / Red 2 (2013) HDRip от INTERCINEMA | iTunes
Качество видео: HDRip
Перевод: Дублированный [iTunes]
Видео: XviD, 1754 Кбит/с, 720x304
Аудио: Русский, английский (AC3, 6 ch, 384 Кбит/с)
Скачать

Загрузка начнется в течение 5 сек.

2.06 GB

Название: РЭД 2 / Red 2 (2013) BDRip 1080p | iTunes
Качество видео: BDRip (1080p)
Перевод: Дублированный [iTunes]
Видео: MPEG-4 AVC, 12.2 Мбит/с, 1920x800
Аудио: Русский (AC3, 6 ch, 384 Кбит/с), английский (DTS, 6 ch, 1510 Кбит/с)
Скачать

Загрузка начнется в течение 5 сек.

11.39 GB

Название: РЭД 2 / Red 2 (2013) НDRip от Scarabey | iTunes
Качество видео: НDRip - исх. WEB-DLRip 720p
Перевод: Дубляж - iTunes
Формат видео: AVI
Видео: 720x304 (2.37:1), 23.976 fps, XviD build 73 ~1397 kbps avg, 0.27 bit/pixel
Аудио: 48 kHz, AC3 Dolby Digital, 3/2 (L,C,R,l,r) + LFE ch, ~384 kbps
Скачать

Загрузка начнется в течение 5 сек.

1.45 GB

Название: РЭД 2 / Red 2 (2013) WEB-DL 720p | iTunes
Качество видео: WEB-DL 720p
Перевод: Дублированный [iTunes]
Формат видео: MKV (H.264)
Видео: 3960 kb/s, 1280x530
Аудио: Russian/English: AC3, 384 kb/s (6 ch)
Скачать

Загрузка начнется в течение 5 сек.

3.90 GB

Название: Рэд 2 / Red 2 (2013) WEB-DLRip-AVC от MediaClub | iTunes
Качество видео: WEB-DLRip-AVC
Перевод: Дублированный (iTunes)
Видео: x264 MPEG-4 AVC, 1927 Кбит/с, 1024x424, 23.976 кадр/с
Аудио: Русский, английский (AC3, 6 ch, 384 Кбит/с)
Скачать

Загрузка начнется в течение 5 сек.

2.18 GB

Название: РЭД 2 / Red 2 (2013) WEB-DLRip | iTunes
Качество видео: WEB-DLRip [Рип с WEB-DL 1080p]
Перевод: Дублированное [iTunes]
Формат видео: AVI (XviD)
Видео: 1405 kb/s, 720x304
Аудио: AC3, 384 kb/s (6 ch)
Скачать

Загрузка начнется в течение 5 сек.

1.45 GB

Название: РЭД 2 / RED 2 (2013) HD Трейлер В кино с 1 августа 2013
Качество видео: HD
Перевод: дубляж
Видео: MPEG-4 1920х800, 8 075 Кбит/сек
Аудио: Русский, ААС, 2 ch, 126 Кбит/сек
Скачать

Загрузка начнется в течение 5 сек.

106.30 MB

Скачать фильм РЭД (2010) через торрент

gig-torrent.net

9 января 2016 14:13 РЭД / Red (2010) BDRip 1080p .torrent   [Информация о файле (нажмите для просмотра)] Перевод: Дублированный + ОригиналКодек: x264Качество: BDRip 1080pВидео: 1920x800, 8716 Kbps, 23.976 fpsАудио #1: AC-3, 6 ch, 640 kbps (Rus)Аудио #2: AC-3, 6 ch, 640 kbps (Eng)Субтитры: русские, английскиеВидео: Идентификатор : 1 Формат : AVC Формат/Информация : Advanced Video Codec Профиль формата : [email protected] Параметр CABAC формата : Да Параметр ReFrames формата : 5 кадров Идентификатор кодека : V_MPEG4/ISO/AVC Продолжительность : 1 ч. 51 м. Битрейт : 8716 Кбит/сек Ширина : 1920 пикселей Высота : 800 пикселей Соотношение сторон : 2,40:1 Режим частоты кадров : Постоянный Частота кадров : 23,976 кадра/сек Цветовое пространство : YUV Субдискретизация насыщенности : 4:2:0 Битовая глубина : 8 бит Тип развёртки : Прогрессивная Бит/(Пиксели*Кадры) : 0.237 Размер потока : 6,61 Гбайт (85%) Заголовок : Rip by Boriy Библиотека кодирования : x264 core 135 r2345 f0c1c53 Настройки программы : cabac=1 / ref=5 / deblock=1:-3:-3 / analyse=0x3:0x113 / me=umh / subme=11 / psy=1 / psy_rd=1.00:0.00 / mixed_ref=1 / me_range=32 / chroma_me=1 / trellis=2 / 8x8dct=1 / cqm=0 / deadzone=21,11 / fast_pskip=0 / chroma_qp_offset=-1 / threads=12 / lookahead_threads=1 / sliced_threads=0 / nr=0 / decimate=0 / interlaced=0 / bluray_compat=0 / constrained_intra=0 / bframes=6 / b_pyramid=2 / b_adapt=2 / b_bias=0 / direct=3 / weightb=1 / open_gop=0 / weightp=2 / keyint=240 / keyint_min=23 / scenecut=40 / intra_refresh=0 / rc=2pass / mbtree=0 / bitrate=8716 / ratetol=1.0 / qcomp=0.60 / qpmin=0 / qpmax=69 / qpstep=4 / cplxblur=20.0 / qblur=0.5 / ip_ratio=1.40 / pb_ratio=1.30 / aq=1:0.90 Язык : English Default : Да Forced : НетАудио #1: Идентификатор : 2 Формат : AC-3 Формат/Информация : Audio Coding 3 Расширение режима : CM (complete main) Параметр Endianness формата : Big Идентификатор кодека : A_AC3 Продолжительность : 1 ч. 51 м. Вид битрейта : Постоянный Битрейт : 640 Кбит/сек Каналы : 6 каналов Расположение каналов : Front: L C R, Side: L R, LFE Частота : 48,0 КГц Битовая глубина : 16 бит Метод сжатия : С потерями Размер потока : 509 Мбайт (6%) Заголовок : Дубляж Язык : Russian Default : Да Forced : НетАудио #2: Идентификатор : 3 Формат : AC-3 Формат/Информация : Audio Coding 3 Расширение режима : CM (complete main) Параметр Endianness формата : Big Идентификатор кодека : A_AC3 Продолжительность : 1 ч. 51 м. Вид битрейта : Постоянный Битрейт : 640 Кбит/сек Каналы : 6 каналов Расположение каналов : Front: L C R, Side: L R, LFE Частота : 48,0 КГц Битовая глубина : 16 бит Метод сжатия : С потерями Размер потока : 509 Мбайт (6%) Заголовок : Оригинал Язык : English Default : Нет Forced : Нет 7,76 Gb 110 13
9 января 2016 14:13 РЭД / Red (2010) HDRip-AVC от potroks | D, A .torrent   [Информация о файле (нажмите для просмотра)] Перевод: Профессиональный (полное дублирование)Субтитры: Русские (R5, mr_greenwood), английские (обычные, SDH)Качество: HDRip-AVC [BDRip 1080p]Формат: MKVВидео: H.264, 1056x440 (2,40:1), 23,976 fps, 1685 Кbps, 0.151 bit/pixelАудио#1: 48 kHz, AC3 Dolby Digital, 3/2 (L,C,R,l,r) + LFE ch, ~448.00 kbps avg |DUBАудио#2: 48 kHz, AC3 Dolby Digital, 3/2 (L,C,R,l,r) + LFE ch, ~384.00 kbps avg |ENGАудио#3: 48 kHz, AC3 Dolby Digital, 3/2 (L,C,R,l,r) + LFE ch, ~448.00 kbps avg |Гаврилов 2,3 Gb 106 5
9 января 2016 14:13 РЭД / Red (2010) BDRip-AVC | iPad .torrent   [Информация о файле (нажмите для просмотра)] Перевод: ДублированныйСубтитры: русские, английскиеКодек: H.264/AVCФормат: MP4 (контейнер m4v)Видео: 1024x426 (2.40:1) at 23.976 fps, AVC at 2049 kbps avg, 0.196 bit/pixelЗвук: Русский: 48 kHz, AAC, 2ch, 128 kbps | ДублированныйЗвук: Английский: 48 kHz, AAC, 2ch, 128 Kbps | Оригинал 1,8 Gb 22 2
9 января 2016 14:13 РЭД / Red (2010) HDRip-AVC .torrent   [Информация о файле (нажмите для просмотра)] Перевод: Профессиональный (полное дублирование)Кодек: x264Качество: HDRip-AVCВидео: 864x360 (2.4:1), 807kbps, 23.976fpsЗвук: AAC LC, 2ch, 128kbps, 48khz 745,26 Mb 52 4
9 января 2016 14:12 РЭД / RED (2010) BDRip | КПК от Generalfilm .torrent   [Информация о файле (нажмите для просмотра)] Качество: HDRip | КПКВидео: кодеккодек: x264,формат: mp4,размер кадра: 480х200, битрейт: 350 кб/сАудио: языкрусский, перевод: Дублированный (дубляж), 381,93 Mb 10 5
9 января 2016 14:12 РЭД / ООП / Red (2010) BDRip-AVC | MrRose по Гоблину .torrent   [Информация о файле (нажмите для просмотра)] Перевод: Авторский - Дмитрий «Гоблин» ПучковКачество: BDRip-AVCВидео: 1200x500, 23.976 fps, ~2852 kbps, 0.198 bit/pixelЗвук: AC3, 5.1, 48 kHz, 448 kbps 2,57 Gb 10 4
9 января 2016 14:12 РЭД / Red (2010) BDRemux | Special Edition .torrent   [Информация о файле (нажмите для просмотра)] Перевод: Профессиональный (полное дублирование)Кодек: MKVКачество: BDRemux | Special EditionВидео: 1920x1080, 28024 kbps, 23.976 fpsАудио1: Русский DTS-HD Master Audio 5.1, 48 KHz, 16 bit, 2256 kbps, Lossless (DTS Core: 5.1, 48 KHz, 16 bit, 1536 kbps) профессиональный (полное дублирование)Аудио2: Русский DTS-HD Master Audio 5.1, 48 KHz, 24 bit, 4020 kbps, Lossless (DTS Core: 5.1, 48 KHz, 24bit, 1536 kbps) авторский одноголосый (Андрей Гаврилов)Аудио3: Английский DTS-HD Master Audio 5.1, 48 KHz, 24 bit, 3998 kbps, Lossless (DTS Core: 5.1, 48 KHz, 24bit, 1536 kbps)Аудио4: Английский AC3 2.0, 48 KHz, 192 kbps (комментарии консультанта)Субтитры: Русские (с лицензии), русские (mr_greenwood), английские, английские (для плохослышащих), английские (для плохослышащих, PGS), английские (комментарии консультанта), английские (комментарии консультанта, PGS), испанские 29,94 Gb 8 4
9 января 2016 14:12 РЭД / Red (2010) HDRip | Гоблин .torrent   [Информация о файле (нажмите для просмотра)] Перевод: Авторский (одноголосый закадровый) Дмитрий «Гоблин» Пучков (VoiceRipHQ) Видео: AVI, XviD, 1370 Кбит/с, 720x304Аудио: AC3, 2 channels, 448 Кбит/с [Goblin] Субтитры: Русские (Гоблинские) (отдельным файлом) 1,42 Gb 17 2
9 января 2016 14:12 РЭД / Red (2010) BDRip-AVC | Гоблин .torrent   [Информация о файле (нажмите для просмотра)] Перевод: Авторский (одноголосый закадровый) Дмитрий «Гоблин» Пучков (VoiceRipHQ) Видео: MKV, H.264, 1200x500, 23.976 fps, ~2852 kbpsАудио 1: AC3, 2.0, 48 kHz, 224 kbps [Goblin] Аудио 2: AC3, 5.1, 48 kHz, 448 kbps [English]Субтитры: softsub (встроенные, отключаемые / SRT) [Goblin] 2,74 Gb 13 3
9 января 2016 14:12 РЭД / RED (2010) BDRip 1080p Rip by Neofilm .torrent   [Информация о файле (нажмите для просмотра)] Перевод: Дубляж, Blu-ray + Одноголосый закадровый, А.ГавриловКодек: x.264Качество: BDRip 1080pВидео: 7500 kb/s, 1920x800, 23.976fpsЗвук: AC3, 448 kb/s (6Ch)-Дубляж, Blu-ray + AC3, 448 kb/s (6Ch)-Одноголосый закадровый, А.Гаврилов + AC3, 448 kb/s (6Ch)-ОригиналСубтитры: Russian (Blu-ray), Russian (mr_greenwood), English (SDH) 6,77 Gb 10 2
9 января 2016 14:12 РЭД / Red (2010) 720p BDRip от HQCLUB .torrent   [Информация о файле (нажмите для просмотра)] Перевод: Профессиональный (дублированный) + Одноголосый закадровый,А.Гаврилов + ОригиналСубтитры: русские @ R5, русские @ mr_greenwood, английскиеФормат: MKVКачество: 720p BDRip (источник: -DaRkY- / BD-Remux / 1080p)Видео: 1280x534 (2.40:1), 23.976 fps,, crf, ~4784 kbps avgАудио #1: 48 kHz/24-bit,DTS, 3/2 (L,C,R,l,r) + LFE ch, ~Аудио #2: 48 kHz/24-bit,DTS, 3/2 (L,C,R,l,r) + LFE ch, ~Аудио #3: 48 kHz/24-bit,DTS, 3/2 (L,C,R,l,r) + LFE ch, ~ 7,38 Gb 2 6
9 января 2016 14:12 РЭД / Red (2010) BDRip от HELLYWOOD .torrent   [Информация о файле (нажмите для просмотра)] Перевод: Профессиональный (полное дублирование) + Оригинал + Авторский одноголосый (Андрей Гаврилов)Субтитры: Русские (с лицензии), русские (mr_greenwood), английские, английские (для плохослышащих)Формат: AVIКачество: BDRip (источник: -DaRkY- /BD-Remux/ 1080p)Видео: 720x304 (2.37:1), 23.976 fps, XviD build 50 ~1974 kbps avg, 0.38 bit/pixelАудио #1: 48 kHz, AC3 Dolby Digital, 3/2 (L,C,R,l,r) + LFE ch, ~448 kbps|Дубляж|Аудио #2: 48 kHz, AC3 Dolby Digital, 3/2 (L,C,R,l,r) + LFE ch, ~384 kbps|Оригинал|Аудио #2: 48 kHz, AC3 Dolby Digital, 3/2 (L,C,R,l,r) + LFE ch, ~448 kbps|Андрей Гаврилов| 2,53 Gb 9 3
9 января 2016 14:12 РЭД / Red (2010) Blu-ray .torrent   [Информация о файле (нажмите для просмотра)] Перевод: Профессиональный (дублированный)Кодек: MPEG-4 AVC VideoКачество: Blu-rayВидео: 1080p / 23,976 fps / 16:9 33000 kbps / High Profile 4.1Звук: Аудио: English / DTS-HD Master Audio / 5.1 / 48 kHz / 1991 kbps / 16-bit (DTS Core: 5.1 / 48 kHz / 768 kbps / 16-bit) Аудио 2: Russian / DTS-HD Master Audio / 5.1 / 48 kHz / 1898 kbps / 16-bit (DTS Core: 5.1 / 48 kHz / 768 kbps / 16-bit) Дубляж Аудио 3: Russian / Dolby TrueHD Audio / 5.1 / 48 kHz / 1669 kbps / 16-bit (AC3 Embedded: 5.1 / 48 kHz / 640 kbps / DN -4dB) Дубляж Аудио 4: Russian / Dolby Digital Audio / 2.0 / 48 kHz / 192 kbps / DN -4dB ДубляжСубтитры: русские 33,18 Gb 5 4
9 января 2016 14:12 РЭД / Red (2010) BDRip-AVC (720p) от DHT-Movies | Гаврилов .torrent   [Информация о файле (нажмите для просмотра)] Перевод: Авторский (одноголосный) Андрей Гаврилов + Оригинал (Отдельно на Народ.ру)Качество: BDRip-AVCФормат: MKVВидео: x264, 1280x534 (2.35), 23.976 fps, 2 918 Kbps (0.178 bit/pixel)Видео: Идентификатор : 1 Формат : AVC Формат/Информация : Advanced Video Codec Профиль формата : [email protected] Параметр CABAC формата : Да Параметр ReFrames формата : 10 кадры Идентификатор кодека : V_MPEG4/ISO/AVC Продолжительность : 1 ч. 51 м. Битрейт : 2917 Кбит/сек Ширина : 1280 пикс. Высота : 534 пикс. Соотношение сторон : 2,35:1 Частота кадров : 23,976 кадр/сек Стандарт вещания : NTSC Цветовое пространство : YUV Подвыборка цветности : 4:2:0 Битовая глубина : 8 бит Тип развёртки : Прогрессивная Бит/(Пиксели*Кадры) : 0.178 Размер потока : 2,27 Гбайт (85%) Заголовок : http://dht-tracker.org/ Язык : English Основные цвета : BT.709-5, BT.1361, IEC 61966-2-4, SMPTE RP177 Характеристики трансфера : BT.709-5, BT.1361 Коэффициенты матрицы : BT.709-5, BT.1361, IEC 61966-2-4 709, SMPTE RP177Аудио: Идентификатор : 2 Формат : AC-3 Формат/Информация : Audio Coding 3 Расширение режима : CM (complete main) Идентификатор кодека : A_AC3 Продолжительность : 1 ч. 51 м. Вид битрейта : Постоянный Битрейт : 448 Кбит/сек Канал(ы) : 6 канала(ов) Расположение каналов : Front: L C R, Side: L R, LFE Частота : 48,0 КГц Битовая глубина : 16 бит Метод сжатия : С потерями Размер потока : 356 Мбайт (13%) Заголовок : Андрей Гаврилов Язык : Russian 2,67 Gb 2 3
9 января 2016 14:12 РЭД / Red (2010) BDRip от sergeorg .torrent   [Информация о файле (нажмите для просмотра)] Перевод: профессиональный.ДУБЛЯЖ ( лицензия ) 1,46 Gb 295 10
9 января 2016 14:12 РЭД / Red (2010) BDRip-AVC (720p) от DHT-Movies .torrent   [Информация о файле (нажмите для просмотра)] Перевод: Дубляж (Лицензия) + Оригинал (Отдельно на Народ.ру)Качество: BDRip-AVCФормат: MKVВидео: x264, 1280x534 (2.35), 23.976 fps, 2 918 Kbps (0.178 bit/pixel)Видео: Идентификатор : 1 Формат : AVC Формат/Информация : Advanced Video Codec Профиль формата : [email protected] Параметр CABAC формата : Да Параметр ReFrames формата : 10 кадры Идентификатор кодека : V_MPEG4/ISO/AVC Продолжительность : 1 ч. 51 м. Битрейт : 2918 Кбит/сек Ширина : 1280 пикс. Высота : 534 пикс. Соотношение сторон : 2,35:1 Частота кадров : 23,976 кадр/сек Стандарт вещания : NTSC Цветовое пространство : YUV Подвыборка цветности : 4:2:0 Битовая глубина : 8 бит Тип развёртки : Прогрессивная Бит/(Пиксели*Кадры) : 0.178 Размер потока : 2,27 Гбайт (87%) Язык : English Основные цвета : BT.709-5, BT.1361, IEC 61966-2-4, SMPTE RP177 Характеристики трансфера : BT.709-5, BT.1361 Коэффициенты матрицы : BT.709-5, BT.1361, IEC 61966-2-4 709, SMPTE RP177Аудио: Идентификатор : 2 Формат : AC-3 Формат/Информация : Audio Coding 3 Расширение режима : CM (complete main) Идентификатор кодека : A_AC3 Продолжительность : 1 ч. 51 м. Вид битрейта : Постоянный Битрейт : 384 Кбит/сек Канал(ы) : 6 канала(ов) Расположение каналов : Front: L C R, Side: L R, LFE Частота : 48,0 КГц Битовая глубина : 16 бит Метод сжатия : С потерями Размер потока : 305 Мбайт (11%) Заголовок : Дубляж (R5 DVD) Язык : Russian 2,62 Gb 13 2
9 января 2016 14:12 РЭД / Red (2010) BD-Remux 1080p .torrent   [Информация о файле (нажмите для просмотра)] Перевод: Дублированный Видео: MPEG-4 AVC, 28.0 Мбит/с, 1920x1080, 23.976 кадр/сАудио 1: Русский, AC3, 6 channels, 384 Кбит/с Аудио 2: Английский, DTS-HD МА, 6 channnels, 3998 Кбит/с Субтитры: Русские, английские, испанские 27,03 Gb 2 6
9 января 2016 14:12 РЭД / Red (2010) BDRip от HQ-ViDEO .torrent   [Информация о файле (нажмите для просмотра)] Субтитры: Русские, Английские 2,18 Gb 13 5
9 января 2016 14:12 РЭД / Red (2010) DVD5 vadi .torrent   [Информация о файле (нажмите для просмотра)] Перевод: профессиональный (дублированный)Качество: DVD5 (от vadi)Контейнер: DVD VideoВидео: PAL 16:9 (720x576) VBRАудио: Pyccкuй (Dolby AC3, 6 ch, 384Kbps)Аудио 2: English (Dolby AC3, 6 ch, 384Kbps) - оригинальная звуковая дорожкаВидео: Идентификатор : 224 (0xE0) Формат : MPEG Video Версия формата : Version 2 Профайл формата : [email protected] Параметры BVOP формата : Да Параметры матрицы формата : По умолчанию Продолжительность : 25 м. Вид битрейта : Переменный Битрейт : 4834 Кбит/сек Ширина : 720 пикс. Высота : 576 пикс. Соотношение кадра : 2,35:1 Частота кадров : 25,000 кадр/сек Стандарт вещания : PAL Разрешение : 8 бит Колориметрия : 4:2:0 Бит/(Пиксели*Кадры) : 0.466 Размер потока : 866 МиБ (85%)Аудио #1: Идентификатор : 128 (0x80) Формат : AC-3 Формат/Информация : Audio Coding 3 Format_Settings_ModeExtension : CM (complete main) Продолжительность : 25 м. Вид битрейта : Постоянный Битрейт : 384 Кбит/сек Канал(ы) : 6 канала(ов) Расположение каналов : Front: L C R, Side: L R, LFE Частота : 48,0 КГц Размер потока : 68,8 МиБ (7%)Аудио #2: Идентификатор : 130 (0x82) Формат : AC-3 Формат/Информация : Audio Coding 3 Format_Settings_ModeExtension : CM (complete main) Продолжительность : 25 м. Вид битрейта : Постоянный Битрейт : 384 Кбит/сек Канал(ы) : 6 канала(ов) Расположение каналов : Front: L C R, Side: L R, LFE Частота : 48,0 КГц Размер потока : 68,8 МиБ (7%) 4,37 Gb 11 1

Смотрите также