Скачать профессионал торрент в хорошем качестве


Скачать торрент Профессионал [01-16 из 16] (2014) WEBRip

Название: ПрофессионалГод выпуска: 2014Производство: Россия,Студия "Панорама", "Форвард-Фильм"Жанр: Детектив, криминалПродолжительность: 16 x ~ 00:47:00Режиссёр: Алан Дзоциев В ролях: Алексей Лобанов (II), Константин Стрельников, Игорь Лагутин, Евгения Игумнова, Сергей Юшкевич, Андрей Горбачёв, Юрий Батурин, Анатолий Лобоцкий, Мария Решавская, Владимир Артёмов, Валерий Баринов, Сергей Жигунов, Юрий Ицков, Михаил Черняк, Александр Марушев, Сергей Амосов, Руслан Барабанов, Анатолий Ильченко, Алексей Федотов, Руслан Кацагаджиев, Стэнли Красовицки, Владимир Бирюков, Александр Иванов (XVII), Роман Жилкин, Борис Хасанов, Александр Голубков (II) Описание: Сбежав из тюрьмы в Джакарте, где он провёл в заключении долгих четырнадцать лет, разведчик Андрей Зубов возвращается на родину, чтобы найти причины провала своей опергруппы и наказать виновников гибели жены. Преодолев тысячи километров, Зубов вынужден столкнуться с новым предательством, он становится объектом преследования своих бывших коллег, среди которых многие заинтересованы в том, чтобы он замолчал и исчез навсегда. Но, благодаря помощи новых и старых друзей, ему всё-таки удаётся невозможное - настоящий профессионал в своём деле, Зубов вступает в борьбу с преступной системой и побеждает её. Но многие вопросы, мучающие Андрея, так и остаются без ответа...

Качество: WEBRip by (WEB-DL 720p)Формат: AVIВидео кодек: XviDАудио кодек: AC3Видео: MPEG4, XviD, 720x400 (16:9), 25.000 fps, 1 483 Kbps (0.206 bit/pixel)Аудио: AC-3, 48.0 KHz, 2 ch, 192 KbpsСубтитры: Нет

MediaInfo

Общее Полное имя : D:Мои фильмыProfessional_01-16iz16_2014_XviD_WEBRipProfessional_01_2014_WEBRip.avi Формат : AVI Формат/Информация : Audio Video Interleave Размер файла : 555 Мбайт Продолжительность : 46 м. Общий поток : 1685 Кбит/сек Библиотека кодирования : VirtualDub build 35491/release

Видео Идентификатор : 0 Формат : MPEG-4 Visual Профиль формата : Advanced [email protected] Параметр BVOP формата : 2 Параметр QPel формата : Нет Параметр GMC формата : Без точки перехода Параметр матрицы формата : Default (H.263) Идентификатор кодека : XVID Идентификатор кодека/Подсказка : XviD Продолжительность : 46 м. Битрейт : 1483 Кбит/сек Ширина : 720 пикселей Высота : 400 пикселей Соотношение сторон : 16:9 Частота кадров : 25,000 кадров/сек Цветовое пространство : YUV Субдискретизация насыщенности : 4:2:0 Битовая глубина : 8 бит Тип развёртки : Прогрессивная Метод сжатия : С потерями Бит/(Пиксели*Кадры) : 0.206 Размер потока : 489 Мбайт (88%) Библиотека кодирования : XviD 67

Аудио Идентификатор : 1 Формат : AC-3 Формат/Информация : Audio Coding 3 Расширение режима : CM (complete main) Параметр Endianness формата : Big Идентификатор кодека : 2000 Продолжительность : 46 м. Вид битрейта : Постоянный Битрейт : 192 Кбит/сек Каналы : 2 канала Расположение каналов : Front: L R Частота : 48,0 КГц Частота кадров : 31,250 кадров/сек (1536 spf) Метод сжатия : С потерями Размер потока : 63,3 Мбайт (11%) Выравнивание : Соединение по промежуткам Продолжительность промежутка : 40 мс. (1,00 видеокадр) Время предзагрузки промежутка : 512 мс.

krutor.org

Скачать фильм Профессионал через торрент в хорошем качестве бесплатно 720p

ОбщееУникальный идентификатор : 247927630100183927176418122953751626240 (0xBA851FEB5CB29A5E89BE8968E3ED8200)Полное имя : D:\Killer.Elite.(2011).720p.(60 Fps).mkvФормат : MatroskaВерсия формата : Version 4 / Version 2Размер файла : 4,51 ГбайтПродолжительность : 1 ч. 56 м.Общий поток : 5542 Кбит/секНазвание фильма : Профессионал / Killer Elite (2011) BDRip 720p (60 Fps)Дата кодирования : UTC 2015-05-30 08:55:08Программа кодирования : mkvmerge v6.2.0 ('Promised Land') built on Apr 28 2013 12:22:01Библиотека кодирования : libebml v1.3.0 + libmatroska v1.4.0

ВидеоИдентификатор : 1Формат : AVCФормат/Информация : Advanced Video CodecПрофиль формата : [email protected]Параметр CABAC формата : ДаПараметр ReFrames формата : 4 кадраИдентификатор кодека : V_MPEG4/ISO/AVCПродолжительность : 1 ч. 56 м.Битрейт : 5156 Кбит/секШирина : 1280 пикселейВысота : 536 пикселейСоотношение сторон : 2,40:1Режим частоты кадров : ПостоянныйЧастота кадров : 60,000 кадров/секЦветовое пространство : YUVСубдискретизация насыщенности : 4:2:0Битовая глубина : 8 битТип развёртки : ПрогрессивнаяБит/(Пиксели*Кадры) : 0.125Размер потока : 4,11 Гбайт (91%)Заголовок : Killer Elite (2011) BDRip 720p (60 Fps).mkvБиблиотека кодирования : x264 core 130 r2273 b3065e6Настройки программы : cabac=1 / ref=4 / deblock=1:-3:-3 / analyse=0x3:0x113 / me=umh / subme=8 / psy=1 / psy_rd=1.00:0.00 / mixed_ref=1 / me_range=24 / chroma_me=1 / trellis=2 / 8x8dct=1 / cqm=0 / deadzone=21,11 / fast_pskip=1 / chroma_qp_offset=-2 / threads=12 / lookahead_threads=3 / sliced_threads=0 / nr=0 / decimate=1 / interlaced=0 / bluray_compat=0 / constrained_intra=0 / bframes=4 / b_pyramid=2 / b_adapt=2 / b_bias=0 / direct=3 / weightb=1 / open_gop=0 / weightp=2 / keyint=250 / keyint_min=25 / scenecut=40 / intra_refresh=0 / rc_lookahead=50 / rc=2pass / mbtree=1 / bitrate=5156 / ratetol=1.0 / qcomp=0.60 / qpmin=0 / qpmax=69 / qpstep=4 / cplxblur=20.0 / qblur=0.5 / ip_ratio=1.40 / aq=1:1.00Язык : EnglishDefault : ДаForced : Нет

АудиоИдентификатор : 2Формат : AC-3Формат/Информация : Audio Coding 3Расширение режима : CM (complete main)Параметр Endianness формата : BigИдентификатор кодека : A_AC3Продолжительность : 1 ч. 56 м.Вид битрейта : ПостоянныйБитрейт : 384 Кбит/секКаналы : 6 каналовРасположение каналов : Front: L C R, Side: L R, LFEЧастота : 48,0 КГцБитовая глубина : 16 битМетод сжатия : С потерямиРазмер потока : 320 Мбайт (7%)Заголовок : DubЯзык : RussianDefault : ДаForced : Нет

ТекстИдентификатор : 3Формат : UTF-8Идентификатор кодека : S_TEXT/UTF8Идентификатор кодека/Информация : UTF-8 Plain TextЯзык : RussianDefault : НетForced : Нет

Меню00:00:00.000 : en:00:00:00.00000:06:11.578 : en:00:06:11.57800:12:40.384 : en:00:12:40.38400:18:18.222 : en:00:18:18.22200:24:33.388 : en:00:24:33.38800:30:06.971 : en:00:30:06.97100:36:41.324 : en:00:36:41.32400:41:01.417 : en:00:41:01.41700:46:36.293 : en:00:46:36.29300:51:37.052 : en:00:51:37.05200:57:32.532 : en:00:57:32.53201:02:14.272 : en:01:02:14.27201:07:04.895 : en:01:07:04.89501:12:39.979 : en:01:12:39.97901:20:23.652 : en:01:20:23.65201:26:27.473 : en:01:26:27.47301:32:30.628 : en:01:32:30.62801:41:02.805 : en:01:41:02.80501:46:07.277 : en:01:46:07.27701:50:26.202 : en:01:50:26.202

piratbit.ru

Скачать фильм Профессионал (2011) через торрент

18 января 2016 11:22 Профессионал / Killer Elite (2011) BDRip 720p | D, A .torrent   [Информация о файле (нажмите для просмотра)] Перевод: Профессиональный (дублированный) Blu-ray EUR + Авторский (Андрей Гаврилов) + Авторский (Михаил Яроцкий)Формат: MatroskaВидео: 1280x532 at 23.976 fps, [email protected], ~6800 kbps avgАудио#1: Russian: 48 kHz, AC3, 3/2 (L,C,R,l,r) + LFE ch, ~640.00 kbps avg |Дубляж, Blu-ray EUR|Аудио#2: Russian: 48 kHz, DTS, 3/2 (L,C,R,l,r) + LFE ch, ~1509 kbps avg |Авторский, А.Гаврилов|Аудио#3: Russian: 48 kHz, DTS, 3/2 (L,C,R,l,r) + LFE ch, ~1509 kbps avg |Авторский, М.Яроцкий|Аудио#4: English: 48 kHz, DTS, 3/2 (L,C,R,l,r) + LFE ch, ~1509 kbps avgСубтитры: Russian, EnglishВидео: Идентификатор : 1 Формат : AVC Формат/Информация : Advanced Video Codec Профиль формата : [email protected] Параметр CABAC формата : Да Параметр ReFrames формата : 12 кадров Идентификатор кодека : V_MPEG4/ISO/AVC Продолжительность : 1 ч. 56 м. Битрейт : 6800 Кбит/сек Ширина : 1280 пикселей Высота : 532 пикселя Соотношение сторон : 2,40:1 Режим частоты кадров : Постоянный Частота кадров : 23,976 кадра/сек Цветовое пространство : YUV Субдискретизация насыщенности : 4:2:0 Битовая глубина : 8 бит Тип развёртки : Прогрессивная Бит/(Пиксели*Кадры) : 0.416 Размер потока : 5,35 Гбайт (55%) Заголовок : Killer.Elite.2011 Encode by NiP Библиотека кодирования : x264 core 120 r2120 0c7dab9 Настройки программы : cabac=1 / ref=12 / deblock=1:-3:-3 / analyse=0x3:0x113 / me=esa / subme=11 / psy=1 / psy_rd=1.00:0.25 / mixed_ref=1 / me_range=32 / chroma_me=1 / trellis=2 / 8x8dct=1 / cqm=0 / deadzone=21,11 / fast_pskip=0 / chroma_qp_offset=-4 / threads=12 / sliced_threads=0 / nr=0 / decimate=0 / interlaced=0 / bluray_compat=0 / constrained_intra=0 / bframes=12 / b_pyramid=2 / b_adapt=2 / b_bias=0 / direct=3 / weightb=1 / open_gop=0 / weightp=2 / keyint=250 / keyint_min=23 / scenecut=40 / intra_refresh=0 / rc_lookahead=60 / rc=2pass / mbtree=0 / bitrate=6800 / ratetol=1.0 / qcomp=0.80 / qpmin=0 / qpmax=69 / qpstep=4 / cplxblur=20.0 / qblur=0.5 / vbv_maxrate=50000 / vbv_bufsize=62500 / nal_hrd=none / ip_ratio=1.30 / pb_ratio=1.20 / aq=2:0.70 Язык : English Default : Да Forced : Нет Цветовой диапазон : Limited Коэффициенты матрицы : BT.709Аудио #1: Идентификатор : 2 Формат : AC-3 Формат/Информация : Audio Coding 3 Расширение режима : CM (complete main) Параметр Endianness формата : Big Идентификатор кодека : A_AC3 Продолжительность : 1 ч. 56 м. Вид битрейта : Постоянный Битрейт : 640 Кбит/сек Каналы : 6 каналов Расположение каналов : Front: L C R, Side: L R, LFE Частота : 48,0 КГц Метод сжатия : С потерями Размер потока : 534 Мбайт (5%) Заголовок : Дубляж, Blu-Ray CEE Язык : Russian Default : Да Forced : НетАудио #2: Идентификатор : 3 Формат : DTS Формат/Информация : Digital Theater Systems Режим : 16 Параметр Endianness формата : Big Идентификатор кодека : A_DTS Продолжительность : 1 ч. 56 м. Вид битрейта : Постоянный Битрейт : 1509 Кбит/сек Каналы : 6 каналов Расположение каналов : Front: L C R, Side: L R, LFE Частота : 48,0 КГц Битовая глубина : 24 бит Метод сжатия : С потерями Размер потока : 1,23 Гбайт (13%) Заголовок : Одноголосый закадровый, А.Гаврилов Язык : Russian Default : Нет Forced : НетАудио #3: Идентификатор : 4 Формат : DTS Формат/Информация : Digital Theater Systems Режим : 16 Параметр Endianness формата : Big Идентификатор кодека : A_DTS Продолжительность : 1 ч. 56 м. Вид битрейта : Постоянный Битрейт : 1509 Кбит/сек Каналы : 6 каналов Расположение каналов : Front: L C R, Side: L R, LFE Частота : 48,0 КГц Битовая глубина : 24 бит Метод сжатия : С потерями Размер потока : 1,23 Гбайт (13%) Заголовок : Одноголосый закадровый, М.Яроцкий Язык : Russian Default : Нет Forced : НетАудио #4: Идентификатор : 5 Формат : DTS Формат/Информация : Digital Theater Systems Режим : 16 Параметр Endianness формата : Big Идентификатор кодека : A_DTS Продолжительность : 1 ч. 56 м. Вид битрейта : Постоянный Битрейт : 1509 Кбит/сек Каналы : 6 каналов Расположение каналов : Front: L C R, Side: L R, LFE Частота : 48,0 КГц Битовая глубина : 24 бит Метод сжатия : С потерями Размер потока : 1,23 Гбайт (13%) Заголовок : Original Язык : English Default : Нет Forced : Нет 9,75 Gb 57 3 18 января 2016 11:22 Профессионал / Killer Elite (2011) BDRip 1080p | Яроцкий .torrent   [Информация о файле (нажмите для просмотра)] Качество: BDRip 1080pВидео: MPEG-4 AVC, 8856 Кбит/с, 1920x800Аудио: Русский, английский (AC3, 6 ch, 448 Кбит/с)Перевод: Авторский(Михаил Яроцкий) 7,95 Gb 47 8 18 января 2016 11:22 Профессионал / Killer Elite (2011) HDRip от Scarabey | D .torrent   [Информация о файле (нажмите для просмотра)] Перевод: Профессиональный (полное дублирование) лицензияВидео: 640x272 (2.35:1), 23.976 fps, XviD build 73 ~757 kbps avg, 0.18 bit/pixelАудио: 48 kHz, MPEG Layer 3, 2 ch, ~128.00 kbps avg 746,75 Mb 40 9 18 января 2016 11:22 Профессионал / Killer Elite (2011) HDRip от Scarabey | D .torrent   [Информация о файле (нажмите для просмотра)] Перевод: Профессиональный (полное дублирование) лицензияВидео: 720x304 (2.37:1), 23.976 fps, XviD build 73 ~1322 kbps avg, 0.25 bit/pixelАудио: 48 kHz, AC3 Dolby Digital, 3/2 (L,C,R,l,r) + LFE ch, ~448.00 kbps avg 1,45 Gb 170 8 18 января 2016 11:22 Профессионал / Killer Elite (2011) BDRip | Гаврилов .torrent   [Информация о файле (нажмите для просмотра)] Перевод: Авторский (одноголосый закадровый) А. Ю. ГавриловВидео: XviD build 65, 720x304 (2.37:1), 23.976 fps, ~1340 kbps avg, 0.255 bit/pixelАудио: 48 kHz, AC3 Dolby Digital, 3/2 (L,C,R,l,r) + LFE ch, ~448 kbps avg (AVO) 1,46 Gb 6 4 18 января 2016 11:22 Профессионал / Killer Elite (2011) BDRip 720p от Leonardo and Scarabey | Лицензия .torrent   [Информация о файле (нажмите для просмотра)] Перевод: Профессиональный (полное дублирование) ЛицензияСубтитры: Русские, английскиеФормат: MKVВидео кодек: MPEG-4 AVC Аудио кодек: AC3Видео: AVC, 1280x528 (2.40:1) at 23.976 fps, AVC at 5023 kbps avg, 0.310 bit/pixelАудио: 48 kHz, AC3 Dolby Digital, 3/2 (L,C,R,l,r) + LFE ch, 448.00 kbps - RussianСубтитры: Русские, английские 4,55 Gb 51 7 18 января 2016 11:22 Профессионал / Killer Elite (2011) BDRip-AVC | iPad .torrent   [Информация о файле (нажмите для просмотра)] Перевод: ДублированныйСубтитры: русские, английскиеФормат: MP4 (контейнер m4v)Видео: AVC, 1024x424 (2.40:1) at 23.976 fps, AVC at 3313 kbps avg, 0.318 bit/pixelАудио: 48 kHz, AAC, 2ch, 144 Kbps | Russian | ДублированныйАудио: 48 kHz, AAC, 2ch, 144 Kbps | English | Original 2,95 Gb 8 1 18 января 2016 11:22 Профессионал / Killer Elite (2011) BDRip 1080p от FREEISLAND .torrent   [Информация о файле (нажмите для просмотра)] Перевод: Профессиональный дублированныйКачество: BDRipКонтейнер: MKVВидео: AVC, 1920x800 (2.40:1), 8856 kbps, 23,976 fps, 0,240 bppАудио №1: русский /; AC3 /; 5.1 /; 48 kHz /; 448 kbps /; 16 bitАудио №2: английский /; AC3 /; 5.1 /; 48 kHz /; 448 kbps /; 16 bitСубтитры №1: русскиеСубтитры №2: английские 7,95 Gb 41 2 18 января 2016 11:22 Профессионал / Killer Elite (2011) BDRip .torrent   [Информация о файле (нажмите для просмотра)] Перевод: Профессиональный (дублированный)Видео: XviD / 720 x 304 / 2.37:1 / 1328 kbps / 23,976 fpsАудио: Русский / AC3 Dolby Digital / 48 KHz / 448 kbps / 3/2 (L,C,R,l,r) + LFE ch 1,45 Gb 224 18 18 января 2016 11:22 Профессионал / Killer Elite (2011) HDRip | Лицензия .torrent   [Информация о файле (нажмите для просмотра)] Перевод: Профессиональный (полное дублирование) [Лицензия] Кодек: XviDКачество: HDRipВидео: 640x272 (2.35:1), 23.976 fps, XviD build 50 ~757 kbps avg, 0.18 bit/pixel 744,98 Mb 17 2 18 января 2016 11:22 Профессионал / Killer Elite (2011) BDRip 720p by FFmpegSource .torrent   [Информация о файле (нажмите для просмотра)] Перевод: Профессиональный (дублированный)|Лицензия|Кодек: x264Качество: BDRip 720pВидео: x264, 1280x530 pix., 4 748 Kbps, 0.292 bit/pix, 2 passАудио 1: 48 kHz, AC3, 3/2 (L,C,R,l,r) + LFE ch, ~448.00 kbps avg |ДубляжАудио 2: 48 kHz, AC3, 3/2 (L,C,R,l,r) + LFE ch, ~640.00 kbps avg |ОригиналСубтитры: Русские, Английские 4,76 Gb 2 7 18 января 2016 11:22 Профессионал / Killer Elite (2011) BDRip 1080p | Лицензия .torrent   [Информация о файле (нажмите для просмотра)] Формат: MKVКачество: BDRip 1080p | ЛицензияВидео: AVC,1920X796,14503 Kbps,23.976 fpsАудио#1: Russian: 48 kHz, AC3, 3/2 (L,C,R,l,r) + LFE ch, ~448.00 kbps |Дубляж, R5|Аудио#2: English: 48 kHz, DTS, 3/2 (L,C,R,l,r) + LFE ch, ~1536.00 kbpsСубтитры: Russian, English 13,41 Gb 18 8 18 января 2016 11:22 Профессионал / Killer Elite (2011) BDRip от HELLYWOOD | Лицензия .torrent   [Информация о файле (нажмите для просмотра)] Перевод: Профессиональный (полное дублирование) ЛицензияСубтитры: Русские, АнглийскиеФормат: AVIКачество: BDRip (источник:Видео: 720x304 (2.37:1), 23.976 fps, XviD build 65, 2221 kbps avg, 0.42 bit/pixelАудио #1: 48 kHz, AC3 Dolby Digital, 3/2 (L,C,R,l,r) + LFE ch, ~448 kbps|DUB|Аудио #2: 48 kHz, AC3 Dolby Digital, 3/2 (L,C,R,l,r) + LFE ch, ~448 kbps|ENG| 2,55 Gb 6 1 18 января 2016 11:22 Профессионал / Killer Elite (2011) Blu-Ray .torrent   [Информация о файле (нажмите для просмотра)] Перевод: Дублированный[лицензия]Видео: MPEG-4 AVC, 31047 Кбит/с, 1920x1080, 23.976 кадр/сАудио: Русский (AC3, 6 ch, 448 Кбит/с) / Английский (DTS-HD MA, 6 ch, 3920 Кбит/с)Субтитры: Русские, Английскиe 34,79 Gb 2 1 18 января 2016 11:21 Профессионал / Killer Elite (2011) BDRip 1080p .torrent   [Информация о файле (нажмите для просмотра)] Перевод: Дублированный[лицензия]Видео: MPEG-4 AVC, 8236 Кбит/с, 1920x800, 23.976 кадр/сАудио: Русский (AC3, 6 ch, 448 Кбит/с) / Английский (DTS, 6 ch, 1510 Кбит/с)Субтитры: Русские, Английскиe 8,31 Gb 6 2 18 января 2016 11:21 Профессионал / Killer Elite (2011) BDRip 720p | Лицензия .torrent   [Информация о файле (нажмите для просмотра)] Формат: MKVКачество: BDRip 720pВидео: 5193 kb/s, 1280x536Аудио: Russian: AC3, 448 kb/s (6 ch) / English: DTS, 1510 kb/s (6 ch)Субтитры: Russian, English 5,83 Gb 13 5 18 января 2016 11:21 Профессионал / Killer Elite (2011) HDRip | Лицензия .torrent   [Информация о файле (нажмите для просмотра)] Формат: AVI(XviD)Качество: HDRip [Рип с BDRip 720p]Видео: 720x304, 1222 kb/sАудио: AC3, 448 kb/s (6 ch) 1,37 Gb 9 5 18 января 2016 11:21 Профессионал / Killer Elite (2011) DVDRip | КПК от Generalfilm .torrent   [Информация о файле (нажмите для просмотра)] Перевод: Профессиональный (дублированный) [Лицензия]Кодек: MPEG-4Качество: DVDRip | КПКВидео: форматформат: mp4,размер кадра: 480x272, битрейт: 557 кб/с Звук: кодек: AAC LC 2.0,битрейт: 128 кб/с 548,71 Mb 8 6 18 января 2016 11:21 Профессионал / Killer Elite (2011) DVD5 | Сжатый .torrent   [Информация о файле (нажмите для просмотра)] Качество: DVD5 [Исход. DVD9]Видео: MPEG-2, 25 fps, 720x576, ~5000 kbpsАудио: AС3, 48000 Hz, 6 канала, 448 kbit/sСубтитры: Вшитые, отключаемые (русские)Перевод: Дублированный 4,36 Gb 2 1 18 января 2016 11:21 Профессионал / Killer Elite (2011) DVD9 | Лицензия .torrent   7,12 Gb 5 1

gig-torrent.net

Профессионал скачать сериал торрент 2014 -

Коротко о сериале "Профессионал" - Сбежав из тюрьмы в Джакарте, где он провёл в заключении долгих четырнадцать лет, разведчик Андрей Зубов возвращается на родину, чтобы найти причины провала своей опергруппы и наказать виновников гибели жены. Преодолев тысячи километров, Зубов вынужден столкнуться с новым предательством, он становится объектом преследования своих бывших коллег, среди которых многие заинтересованы в том, чтобы он замолчал и исчез навсегда. Но, благодаря помощи новых и старых друзей, ему всё-таки удаётся невозможное - настоящий профессионал в своём деле, Зубов вступает в борьбу с преступной системой и побеждает её. Но многие вопросы, мучающие Андрея, так и остаются без ответа...

Добавлена 16 серия из 16.

Профессионал

Сериал выпущен: 2014
Страна (кинокомпания): Студия "Панорама"
Pежиссер: Алан Дзоциев
Сценарий сериала: Максим Есаулов, Андрей Романов (II), Андрей Орлов, Сергей Майоров (II)
Продюсер сериала: Ада Ставиская
Оператор: Тимур Искяндаров
Композитор: Максим Кошеваров
Художники: Анвар Гумаров
Монтаж:
Жанр сериала: боевик
Премьера (мир): 13 ноября 2014 (2+2, Украина)
премьера (Pоссия):
продолжительность
В главных ролях:
Алексей Лобанов (II)
Константин Стрельников
Игорь Лагутин
Евгения Игумнова
Сергей Юшкевич
Андрей Горбачёв
Юрий Батурин
Анатолий Лобоцкий
и другие ...

 

Cериал Профессионал скачать торрент - новинка кино 2014

Скачать файлы .torrent Профессионал (сериал)

на сайте Вы можете получить ссылку на торрент файлы или скачать сами торрент файлы, в которых находится информация о местонахождении фильмов, сериалов у пользователей.

В сериале "Профессионал" - после проведенных из-за предательства четырнадцати лет в тюрьме Зубов оказывается на Родине, но и здесь его начинают преследовать



Параметры: 8.02.2017 [2014, боевик, HDTVRip], 4,35 Гб -

Формат: HDTVRip, XviD, MP3, размер файла: 4,35 ГбВидео: 624x352, XviD - ~ 750 Кбит/сАудио: MP3, 2 канала, 128 Кбит/сПеревод (озвучивание): Не требуется

Параметры: 8.02.2017 10,96 Гб -

Формат: HDTVRip (AVC), MKV, AVC, AC3, размер файла: 10,96 ГбВидео: 1024x576, AVC - ~ 2000 Кбит/сАудио: AC3, 2 канала, 192 Кбит/сПеревод (озвучивание):

Параметры: 14.03.2016 WEB-DLRip-AVC, 9,24 Гб

Формат: MKV, AVC, AC3, размер файла: 9,24 ГбВидео: 1024x576, AVC - ~ 1600 Кбит/сАудио: AC3, 2 канала, 192 Кбит/сПеревод (озвучивание): оригинал

Параметры: 16.01.2016 11,38 Гб -

Формат: WEB-DL (720p), MKV, AVC, AC3, размер файла: 11,38 ГбВидео: 1280x720, AVC - ~ 2000 Кбит/сАудио: AC3, 2 канала, 192 Кбит/сПеревод (озвучивание):

Параметры: 11.01.2016 [2014, боевик, SATRip], 8,6 Гб -

Формат: SATRip, AVI, XviD, MP3, размер файла: 8,6 ГбВидео: 704x384, XviD - build 65 ~1650 Кбит/сАудио: MP3, 2 канала, 128 Кбит/сПеревод (озвучивание):

Параметры: 28.11.2014 SATRip-AVC, 6,8 Гб -

Формат: SATRip, MKV, h364, AAC, размер файла: 6,8 ГбВидео: 720x400, AVC - [email protected] ~1356 Кбит/сАудио: AAC, 2 канала, 192 Кбит/сПеревод (озвучивание): Не требуется, Субтитры: отсутствуют

Параметры: 27.11.2014 DVB, 23,4 Гб -

Формат: Формат:, размер файла: 23,4 ГбВидео: [email protected], MPEG-2 - ~4574 Кбит/сАудио: Формат:, 2 канала, 192 Кбит/сПеревод (озвучивание): Не требуется, cубтитры: отсутствуют

Параметры: 26.11.2014 SATRip, 7,89 Гб

Формат: SATRip, XviD, MP3, размер файла: 7,89 ГбВидео: 720x400, XviD - 1500 Кбит/сАудио: MP3, 2 канала, 128 Кбит/сПеревод (озвучивание): оригинал (русский)

Как скачать (докачать) одну серию из торрента

1. В броузере (для uTorrent, FlashGet)

- Нажмите кнопку скачать (или на ссылку), в окне для сохранения (запуска) файла проверьте выбранную программу по умолчанию (uTorrent, FlashGet и пр.), нажмите "Открыть" - После закачки торрент файла на экране откроется окно, которое содержит список серий в пакете - Если списка нет, то найдите кнопку (две галочки вниз), которая включает сведения о торренте в расширенном режиме - Вы можете путем установки или снятия галочки у каждой серии выбрать необходимые Вам серии для скачивания - Список может быть большим, поэтому прокрутите окно до конца списка или вначале отмените выбор всех, а затем выбирайте нужные серии по одной.

2. В самом торрент-клиенте

- Остановите скачивание - Удалите старый торрент файл, ранее принятые серии удалять не следует - Скачайте новый торрент файл и запустите его для скачивания, указав при этом ту папку, где уже находятся ранее принятые серии - Торрент клиент проведет хеширование файлов и докачает недостающие - Если ранее принятые серии уже удалены, то необходимо снять галочки у соответствующих серий при запуске нового торрента

Скачать Профессионал, сериал бесплатно скачать торрент, боевик, новинка кино

 

hokit.ru


Смотрите также